osu file format v12

[General]
AudioFilename: mp3333.mp3
AudioLeadIn: 2000
PreviewTime: 62066
Countdown: 0
SampleSet: Soft
StackLeniency: 0.7
Mode: 0
LetterboxInBreaks: 0
WidescreenStoryboard: 1

[Editor]
DistanceSpacing: 1.1
BeatDivisor: 4
GridSize: 4

[Metadata]
Title:Get goal! (TV Size)
TitleUnicode:Get goal! (TV Size)
Artist:RO-KYU-BU!
ArtistUnicode:RO-KYU-BU!
Creator:alacat
Version:Insane
Source:RO-KYU-BU! SS
Tags:opening hanazawa kana iguchi yuka hikasa youko ogura yui hidaka rina minato tomoka misawa maho nagatsuka saki kasii airi hakamada hinata kotoko yaginuma satoshi kanarin chewin no_gu ロウきゅーぶ!
BeatmapID:318371
BeatmapSetID:124874

[Difficulty]
HPDrainRate:7
CircleSize:4
OverallDifficulty:7
ApproachRate:8
SliderMultiplier:1.8
SliderTickRate:1

[Events]
//Background and Video events
0,0,"moemoe.jpg",0,0
Video,0,"opppp.avi"
//Break Periods
//Storyboard Layer 0 (Background)
//Storyboard Layer 1 (Fail)
//Storyboard Layer 2 (Pass)
//Storyboard Layer 3 (Foreground)
//Storyboard Sound Samples
//Background Colour Transformations
3,100,163,162,255

[TimingPoints]
164,408.163265306122,4,2,1,50,1,0
1796,-100,4,2,1,60,0,0
2204,-100,4,2,1,50,0,0
2817,-100,4,2,1,60,0,0
3837,-100,4,2,1,50,0,0
5061,-100,4,2,1,60,0,0
5470,-100,4,2,1,50,0,0
6082,-100,4,2,1,60,0,0
7102,-100,4,2,1,50,0,0
7510,-100,4,2,1,60,0,0
8123,-100,4,2,1,70,0,0
8327,-100,4,2,1,70,0,1
8429,-100,4,2,1,70,0,0
21388,-100,4,2,1,50,0,0
27919,-100,4,2,1,60,0,0
33633,-100,4,2,2,50,0,0
34041,-100,4,2,1,60,0,0
34449,-100,4,2,1,60,0,0
47510,-133.333333333333,4,2,1,50,0,0
54041,-100,4,2,1,60,0,0
60572,-100,4,2,1,80,0,0
61592,-166.666666666667,4,2,1,20,0,0
62204,-83.3333333333333,4,2,1,80,0,1
75266,-100,4,2,1,70,0,0
86694,-100,4,2,1,80,0,0

[Colours]
Combo1 : 97,207,250
Combo2 : 248,90,240
Combo3 : 235,250,97
Combo4 : 253,166,70

[HitObjects]
228,252,164,2,0,P|236:208|232:164,1,90,2|2,0:0|0:0,0:0:0:0:
180,92,572,1,0,1:1:0:0:
36,212,776,1,0,0:0:0:0:
36,212,878,1,0,0:0:0:0:
36,212,980,2,0,L|128:204,1,90,2|2,0:0|0:0,0:0:0:0:
296,88,1388,1,0,1:0:0:0:
368,184,1592,1,2,0:0:0:0:
504,104,1796,5,4,0:0:0:0:
280,172,2204,1,0,1:0:0:0:
228,252,2408,1,0,0:0:0:0:
228,252,2510,1,0,0:0:0:0:
228,252,2612,1,0,0:0:0:0:
284,332,2817,6,0,B|384:344|384:344|416:328,2,135,4|4|4,0:0|0:0|0:0,0:0:0:0:
80,112,3837,5,0,1:0:0:0:
28,196,4041,1,0,0:0:0:0:
28,196,4143,1,0,0:0:0:0:
28,196,4245,2,0,L|40:288,1,90
188,336,4653,1,0,1:0:0:0:
172,224,4857,2,0,L|180:180,1,45
188,144,5061,5,4,0:0:0:0:
504,104,5470,1,0,1:0:0:0:
424,164,5674,2,0,L|420:212,2,45
412,64,6082,5,4,0:0:0:0:
500,268,6388,1,4,0:0:0:0:
240,240,6694,2,0,B|188:232|148:256|148:256|104:252|84:204,1,180,4|0,0:0|1:0,0:0:0:0:
172,32,7306,5,0,0:0:0:0:
172,32,7408,1,0,0:0:0:0:
172,32,7510,2,0,P|184:104|160:164,2,135,4|4|4,0:0|0:0|0:0,0:0:0:0:
204,48,8225,1,0,0:0:0:0:
236,64,8327,6,0,L|328:56,1,90,6|0,0:0|0:0,0:0:0:0:
496,124,8735,1,8,0:0:0:0:
428,28,8939,1,0,0:0:0:0:
332,164,9143,2,0,P|320:208|328:252,1,90,2|0,0:0|0:0,0:0:0:0:
404,316,9551,1,8,0:0:0:0:
192,192,9755,5,0,0:0:0:0:
188,188,9857,1,0,0:0:0:0:
184,184,9959,2,0,P|116:168|48:180,1,135,6|0,0:0|0:0,0:0:0:0:
28,204,10368,2,0,L|40:296,1,90,8|0,0:0|0:0,0:0:0:0:
172,348,10776,1,2,0:0:0:0:
172,348,10878,1,8,0:0:0:0:
344,252,11082,1,2,0:0:0:0:
344,252,11184,2,0,L|332:162,1,90,8|2,0:0|0:0,0:0:0:0:
388,64,11592,5,6,0:0:0:0:
480,24,11796,1,0,0:0:0:0:
360,88,12000,2,0,L|268:76,1,90,8|0,0:0|0:0,0:0:0:0:
68,76,12408,1,6,0:0:0:0:
164,128,12612,1,0,0:0:0:0:
164,128,12715,1,0,0:0:0:0:
164,128,12817,2,0,P|172:80|168:40,1,90,10|2,0:0|0:0,0:0:0:0:
12,164,13225,6,0,P|0:240|24:296,1,135,6|0,0:0|0:0,0:0:0:0:
48,316,13633,1,8,0:0:0:0:
208,252,13837,1,0,0:0:0:0:
300,164,14041,2,0,P|364:152|436:168,1,135,6|0,0:0|0:0,0:0:0:0:
460,188,14449,2,0,L|440:100,1,90,10|2,0:0|0:0,0:0:0:0:
240,92,14857,6,0,P|224:136|228:180,1,90,6|0,0:0|0:0,0:0:0:0:
136,224,15266,2,0,L|44:216,1,90,8|0,0:0|0:0,0:0:0:0:
268,328,15674,2,0,P|284:284|280:240,1,90,6|0,0:0|0:0,0:0:0:0:
148,52,16082,1,10,0:0:0:0:
240,92,16286,1,2,0:0:0:0:
332,56,16490,6,0,B|428:40|428:40|464:52,2,135,6|2|2,0:0|0:0|0:0,0:0:0:0:
240,92,17306,5,6,0:0:0:0:
40,228,17612,1,2,0:0:0:0:
256,344,17919,5,2,0:0:0:0:
256,344,18021,1,0,0:0:0:0:
256,344,18123,2,0,L|348:336,1,90,6|0,0:0|0:0,0:0:0:0:
464,212,18531,2,0,P|460:260|444:300,1,90,8|0,0:0|0:0,0:0:0:0:
280,244,18939,1,2,0:0:0:0:
252,240,19041,1,0,0:0:0:0:
224,236,19143,1,0,0:0:0:0:
196,232,19245,1,0,0:0:0:0:
168,228,19347,2,0,L|144:316,1,90,10|2,0:0|0:0,0:0:0:0:
32,352,19755,6,0,L|44:308,1,45,0|4,0:0|0:0,0:0:0:0:
12,132,20061,6,0,L|0:176,1,45,0|4,0:0|0:0,0:0:0:0:
152,80,20368,6,0,L|164:36,1,45,0|4,0:0|0:0,0:0:0:0:
316,48,20776,5,0,0:0:0:0:
316,48,20878,1,0,0:0:0:0:
316,48,20980,2,0,L|348:56,8,22.5,0|0|0|0|0|0|0|0|4,0:0|0:0|0:0|0:0|0:0|0:0|0:0|0:0|0:0,0:0:0:0:
256,228,21796,6,0,P|304:232|344:224,1,90,2|0,0:0|0:0,0:0:0:0:
260,112,22204,2,0,L|240:200,1,90,2|0,0:0|0:0,0:0:0:0:
256,228,22510,1,0,0:0:0:0:
256,228,22612,2,0,L|236:316,1,90,2|0,0:0|0:0,0:0:0:0:
72,352,23021,5,2,0:0:0:0:
176,256,23225,1,0,0:0:0:0:
0,296,23429,1,2,0:0:0:0:
116,184,23633,1,0,0:0:0:0:
160,340,23837,1,2,0:0:0:0:
164,344,23939,2,0,L|256:336,1,90,0|0,0:0|0:0,0:0:0:0:
288,344,24245,1,2,0:0:0:0:
456,240,24449,5,0,0:0:0:0:
456,240,24551,1,0,0:0:0:0:
456,240,24653,2,0,B|392:248|340:192|276:208,1,180,2|2,0:0|0:0,0:0:0:0:
96,280,25266,1,0,0:0:0:0:
192,160,25470,1,2,0:0:0:0:
196,132,25572,1,0,0:0:0:0:
200,104,25674,1,0,0:0:0:0:
32,192,25878,1,2,0:0:0:0:
204,64,26082,5,0,0:0:0:0:
226,81,26184,1,0,0:0:0:0:
248,98,26286,2,0,L|340:88,1,90,2|0,0:0|0:0,0:0:0:0:
456,240,26694,2,0,L|366:249,1,90,2|0,0:0|0:0,0:0:0:0:
276,196,27102,1,2,0:0:0:0:
276,196,27204,1,0,0:0:0:0:
464,128,27408,1,0,0:0:0:0:
464,128,27510,2,0,L|480:216,1,90,2|2,0:0|0:0,0:0:0:0:
328,360,27919,6,0,P|280:356|240:336,1,90,6|0,0:0|0:0,0:0:0:0:
276,196,28327,2,0,P|296:239|299:284,1,90,2|0,0:0|0:0,0:0:0:0:
160,344,28735,1,2,0:0:0:0:
276,196,28939,1,0,0:0:0:0:
180,240,29143,1,2,0:0:0:0:
328,360,29347,1,0,0:0:0:0:
480,280,29551,6,0,L|460:192,1,90,2|0,0:0|0:0,0:0:0:0:
336,60,29959,2,0,P|380:56|424:72,1,90,2|0,0:0|0:0,0:0:0:0:
368,148,30368,2,0,L|360:192,1,45,2|0,0:0|0:0,0:0:0:0:
256,308,30674,2,0,L|248:264,1,45,0|2,0:0|0:0,0:0:0:0:
176,144,30980,5,0,0:0:0:0:
176,144,31082,1,0,0:0:0:0:
176,144,31184,2,0,P|112:132|40:152,1,135,2|0,0:0|0:0,0:0:0:0:
20,176,31592,1,2,0:0:0:0:
116,272,31796,1,0,0:0:0:0:
272,180,32000,2,0,L|280:132,2,45,2|0|0,0:0|0:0|0:0,0:0:0:0:
256,308,32408,1,2,0:0:0:0:
340,360,32612,5,0,0:0:0:0:
340,360,32715,1,0,0:0:0:0:
340,360,32817,2,0,P|432:364|472:344,1,135,2|0,0:0|0:0,0:0:0:0:
488,316,33225,2,0,L|472:228,1,90,2|0,0:0|0:0,0:0:0:0:
380,112,33633,5,2,0:0:0:0:
356,104,33735,1,0,0:0:0:0:
332,96,33837,1,0,0:0:0:0:
308,88,33939,1,0,0:0:0:0:
264,100,34041,5,8,0:0:0:0:
240,92,34143,1,0,0:0:0:0:
216,84,34245,1,0,0:0:0:0:
192,76,34347,1,0,0:0:0:0:
148,88,34449,6,0,L|64:56,1,90,6|0,0:0|0:0,0:0:0:0:
40,180,34857,2,0,L|54:268,1,90,8|0,0:0|0:0,0:0:0:0:
192,344,35266,1,2,0:0:0:0:
276,216,35470,1,0,0:0:0:0:
168,248,35674,1,8,0:0:0:0:
356,284,35878,5,0,0:0:0:0:
356,284,35980,1,0,0:0:0:0:
356,284,36082,2,0,P|376:240|376:196,1,90,2|0,0:0|0:0,0:0:0:0:
312,124,36490,1,8,0:0:0:0:
468,156,36694,1,0,0:0:0:0:
360,44,36898,2,0,P|264:40|220:104,1,180,2|8,0:0|0:0,0:0:0:0:
112,256,37510,5,0,0:0:0:0:
112,256,37612,1,0,0:0:0:0:
112,256,37715,2,0,B|92:164|92:164|104:124,2,135,2|0|0,0:0|0:0|0:0,0:0:0:0:
336,316,38531,1,2,0:0:0:0:
272,208,38735,1,0,0:0:0:0:
176,328,38939,1,8,0:0:0:0:
368,232,39143,5,0,0:0:0:0:
368,232,39245,1,0,0:0:0:0:
368,232,39347,2,0,B|460:216|460:216|500:224,2,135,2|0|0,0:0|0:0|0:0,0:0:0:0:
112,256,40163,2,0,L|68:264,2,45,2|0|0,0:0|0:0|0:0,0:0:0:0:
232,128,40572,1,8,0:0:0:0:
256,324,40776,1,0,0:0:0:0:
188,224,40980,6,0,B|168:180|116:168|116:168|140:84,1,180,6|8,0:0|0:0,0:0:0:0:
384,36,41796,2,0,L|356:124,1,90,2|0,0:0|0:0,0:0:0:0:
412,204,42204,1,8,0:0:0:0:
500,164,42408,1,0,0:0:0:0:
284,72,42612,2,0,B|260:152|260:152|296:192|284:248,1,180,2|8,0:0|0:0,0:0:0:0:
24,240,43429,2,0,L|204:220,2,180,2|8|2,0:0|0:0|0:0,0:0:0:0:
128,352,44449,5,0,0:0:0:0:
304,312,44653,2,0,L|212:300,1,90,8|0,0:0|0:0,0:0:0:0:
104,112,45061,2,0,P|96:160|104:200,1,90,2|0,0:0|0:0,0:0:0:0:
284,212,45470,1,8,0:0:0:0:
240,80,45674,5,0,0:0:0:0:
240,80,45776,1,0,0:0:0:0:
240,80,45878,2,0,P|207:115|192:153,1,90,2|0,0:0|0:0,0:0:0:0:
208,300,46286,1,8,0:0:0:0:
372,208,46490,1,0,0:0:0:0:
372,208,46592,1,0,0:0:0:0:
372,208,46694,2,0,P|324:204|280:212,1,90,2|0,0:0|0:0,0:0:0:0:
376,300,47102,2,0,P|420:288|452:256,1,90,10|2,0:0|0:0,0:0:0:0:
464,232,47408,1,0,0:0:0:0:
468,200,47510,6,0,L|488:336,1,135.000005149842,4|2,0:0|0:0,0:0:0:0:
176,284,48327,1,2,0:0:0:0:
244,228,48531,1,8,0:0:0:0:
160,200,48735,1,10,0:0:0:0:
260,316,48939,1,0,0:0:0:0:
144,308,49143,2,0,L|8:328,1,135.000005149842,2|2,0:0|0:0,0:0:0:0:
172,112,49959,5,2,0:0:0:0:
160,200,50163,1,8,0:0:0:0:
76,56,50368,1,10,0:0:0:0:
88,144,50572,1,0,0:0:0:0:
232,40,50776,2,0,L|368:52,1,135.000005149842,4|2,0:0|0:0,0:0:0:0:
484,208,51592,6,0,P|492:172|488:140,2,67.5000025749208,2|8|10,0:0|0:0|0:0,0:0:0:0:
320,240,52204,1,0,0:0:0:0:
396,172,52408,2,0,L|408:276,1,101.250003862381,2|0,0:0|0:0,0:0:0:0:
404,312,52817,2,0,P|372:320|336:320,1,67.5000025749208,2|0,0:0|0:0,0:0:0:0:
224,284,53225,1,2,0:0:0:0:
216,304,53327,1,0,0:0:0:0:
208,320,53429,1,8,0:0:0:0:
64,264,53633,2,0,P|96:256|132:256,1,67.5000025749208,8|0,0:0|0:0,0:0:0:0:
328,280,54041,6,0,L|464:260,1,135,6|0,0:0|0:0,0:0:0:0:
488,236,54449,2,0,P|496:188|488:148,1,90,8|0,0:0|0:0,0:0:0:0:
428,68,54857,1,2,0:0:0:0:
336,108,55061,1,0,0:0:0:0:
276,28,55266,1,8,0:0:0:0:
164,156,55470,5,0,0:0:0:0:
164,156,55572,1,0,0:0:0:0:
164,156,55674,2,0,P|92:148|44:104,1,135,6|0,0:0|0:0,0:0:0:0:
40,72,56082,1,8,0:0:0:0:
248,116,56286,1,0,0:0:0:0:
316,284,56490,1,2,0:0:0:0:
340,300,56796,1,0,0:0:0:0:
340,300,56898,2,0,L|432:284,1,90,10|2,0:0|0:0,0:0:0:0:
224,240,57306,6,0,P|216:288|224:328,1,90,4|0,0:0|0:0,0:0:0:0:
152,356,57612,2,0,P|114:325|75:312,1,90,4|0,0:0|0:0,0:0:0:0:
76,236,57919,2,0,P|121:218|152:192,1,90,4|0,0:0|0:0,0:0:0:0:
172,160,58225,2,0,P|240:144|304:152,1,135,2|8,0:0|0:0,0:0:0:0:
484,232,58735,5,2,0:0:0:0:
484,232,58837,1,0,0:0:0:0:
484,232,58939,2,0,P|488:184|476:144,1,90,6|0,0:0|0:0,0:0:0:0:
308,236,59347,1,8,0:0:0:0:
384,108,59551,1,0,0:0:0:0:
172,160,59755,1,6,0:0:0:0:
156,192,59857,1,0,0:0:0:0:
152,228,59959,1,0,0:0:0:0:
164,260,60061,1,2,0:0:0:0:
188,288,60163,2,0,L|280:280,1,90,2|2,0:0|0:0,0:0:0:0:
128,356,60572,5,4,0:0:0:0:
128,356,60674,1,0,0:0:0:0:
40,256,60878,5,4,0:0:0:0:
40,256,60980,1,0,0:0:0:0:
40,128,61184,5,4,0:0:0:0:
40,128,61286,1,0,0:0:0:0:
128,28,61490,5,4,0:0:0:0:
128,28,61592,2,0,B|180:20|212:64|260:56,1,134.999995880127
296,36,62204,6,0,P|264:120|280:192,1,161.999995056153,6|0,0:0|0:0,0:0:0:0:
352,220,62612,2,0,P|406:203|459:207,1,107.999996704102,8|0,0:0|0:0,0:0:0:0:
208,320,63021,2,0,P|210:266|194:215,1,107.999996704102,2|0,0:0|0:0,0:0:0:0:
120,48,63429,1,8,0:0:0:0:
36,116,63633,5,0,0:0:0:0:
36,116,63735,1,0,0:0:0:0:
36,116,63837,2,0,B|60:156|60:156|108:132|176:140,1,161.999995056153,6|0,0:0|0:0,0:0:0:0:
244,160,64245,2,0,P|300:164|352:156,1,107.999996704102,8|0,0:0|0:0,0:0:0:0:
408,52,64653,1,2,0:0:0:0:
408,52,64755,1,8,0:0:0:0:
244,160,64959,1,2,0:0:0:0:
244,160,65061,2,0,L|236:268,1,107.999996704102,8|2,0:0|0:0,0:0:0:0:
92,368,65470,5,6,0:0:0:0:
136,208,65674,1,0,0:0:0:0:
56,272,65878,1,8,0:0:0:0:
256,356,66082,1,0,0:0:0:0:
396,280,66286,2,0,P|392:224|372:176,1,107.999996704102,2|0,0:0|0:0,0:0:0:0:
256,28,66694,1,8,0:0:0:0:
136,84,66898,5,0,0:0:0:0:
136,84,67000,1,0,0:0:0:0:
136,84,67102,2,0,L|28:72,1,107.999996704102,6|0,0:0|0:0,0:0:0:0:
244,160,67510,2,0,P|256:216|248:268,1,107.999996704102,8|0,0:0|0:0,0:0:0:0:
156,320,67919,1,2,0:0:0:0:
156,320,68021,1,8,0:0:0:0:
348,248,68225,1,2,0:0:0:0:
348,248,68327,2,0,P|404:244|456:264,1,107.999996704102,8|2,0:0|0:0,0:0:0:0:
280,332,68735,6,0,P|240:264|256:184,1,161.999995056153,6|0,0:0|0:0,0:0:0:0:
276,156,69143,2,0,L|164:172,1,107.999996704102,8|0,0:0|0:0,0:0:0:0:
56,256,69551,1,2,0:0:0:0:
112,84,69755,1,0,0:0:0:0:
40,160,69959,1,8,0:0:0:0:
156,268,70163,1,0,0:0:0:0:
368,176,70368,5,6,0:0:0:0:
368,176,70470,1,0,0:0:0:0:
476,56,70674,1,0,0:0:0:0:
476,56,70776,2,0,P|424:40|372:44,1,107.999996704102,8|0,0:0|0:0,0:0:0:0:
276,156,71184,2,0,L|284:212,2,53.9999983520508,2|0|0,0:0|0:0|0:0,0:0:0:0:
216,76,71592,1,10,0:0:0:0:
368,176,71796,1,2,0:0:0:0:
184,52,72000,6,0,L|76:64,1,107.999996704102,6|0,0:0|0:0,0:0:0:0:
244,288,72408,2,0,P|260:236|248:184,1,107.999996704102,8|0,0:0|0:0,0:0:0:0:
128,152,72817,1,6,0:0:0:0:
128,152,72919,1,0,0:0:0:0:
128,152,73021,1,0,0:0:0:0:
80,336,73225,1,10,0:0:0:0:
244,288,73429,1,0,0:0:0:0:
460,332,73633,6,0,P|472:248|440:180,1,161.999995056153,6|0,0:0|0:0,0:0:0:0:
376,144,74041,2,0,P|360:92|368:40,1,107.999996704102,8|0,0:0|0:0,0:0:0:0:
488,84,74449,1,2,0:0:0:0:
488,84,74551,1,8,0:0:0:0:
264,44,74755,1,2,0:0:0:0:
264,44,74857,2,0,L|156:64,1,107.999996704102,12|2,0:0|0:0,0:0:0:0:
80,156,75266,6,0,P|72:200|80:244,1,90,6|0,0:0|0:0,0:0:0:0:
160,304,75674,1,8,0:0:0:0:
256,276,75878,1,0,0:0:0:0:
232,108,76082,2,0,P|203:142|188:184,1,90,6|0,0:0|0:0,0:0:0:0:
328,344,76490,2,0,L|412:312,1,90,10|2,0:0|0:0,0:0:0:0:
444,192,76898,6,0,B|406:206|406:206|380:166|323:163,1,135,6|0,0:0|0:0,0:0:0:0:
256,192,77306,2,0,P|236:148|232:104,1,90,8|2,0:0|0:0,0:0:0:0:
316,40,77715,2,0,L|360:44,1,45,6|0,0:0|0:0,0:0:0:0:
488,96,78021,2,0,L|444:100,1,45,2|8,0:0|0:0,0:0:0:0:
352,228,78327,5,2,0:0:0:0:
352,228,78429,1,0,0:0:0:0:
352,228,78531,2,0,P|344:276|352:320,1,90,6|0,0:0|0:0,0:0:0:0:
256,192,78939,2,0,P|264:144|256:100,1,90,8|0,0:0|0:0,0:0:0:0:
172,52,79347,1,6,0:0:0:0:
100,120,79551,1,0,0:0:0:0:
0,108,79755,1,10,0:0:0:0:
132,216,79959,1,2,0:0:0:0:
264,104,80163,6,0,P|336:84|396:96,1,135,6|0,0:0|0:0,0:0:0:0:
448,148,80572,2,0,L|440:240,1,90,8|2,0:0|0:0,0:0:0:0:
304,324,80980,1,6,0:0:0:0:
300,328,81082,2,0,L|208:316,1,90,0|2,0:0|0:0,0:0:0:0:
180,332,81388,1,8,0:0:0:0:
32,292,81592,5,2,0:0:0:0:
32,292,81694,1,0,0:0:0:0:
32,292,81796,2,0,P|36:244|56:208,1,90,6|0,0:0|0:0,0:0:0:0:
184,132,82204,1,8,0:0:0:0:
88,112,82408,1,0,0:0:0:0:
156,232,82612,2,0,L|248:232,1,90,6|0,0:0|0:0,0:0:0:0:
352,68,83021,2,0,L|260:68,1,90,10|2,0:0|0:0,0:0:0:0:
88,112,83429,6,0,P|32:72|16:8,2,135,6|2|2,0:0|0:0|0:0,0:0:0:0:
160,40,84245,5,6,0:0:0:0:
440,104,84551,1,2,0:0:0:0:
256,320,84858,1,2,0:0:0:0:
256,192,85061,12,0,86490,0:0:0:0:
308,312,86694,6,0,L|264:324,1,45,0|4,0:0|0:0,0:0:0:0:
124,212,87000,6,0,L|168:200,1,45,0|4,0:0|0:0,0:0:0:0:
224,28,87306,6,0,L|180:40,1,45,0|4,0:0|0:0,0:0:0:0:
