osu file format v12

[General]
AudioFilename: Get goal!.mp3
AudioLeadIn: 2000
PreviewTime: 61984
Countdown: 0
SampleSet: Soft
StackLeniency: 0.7
Mode: 0
LetterboxInBreaks: 1
WidescreenStoryboard: 1

[Editor]
Bookmarks: 54831
DistanceSpacing: 1.2
BeatDivisor: 4
GridSize: 4

[Metadata]
Title:Get goal! (TV Size)
TitleUnicode:Get goal! (TV Size)
Artist:RO-KYU-BU!
ArtistUnicode:ロウきゅーぶ!
Creator:Grassvalley
Version:Normal
Source:RO-KYU-BU! SS
Tags:hanazawa kana hikasa youko ogura yui hidaka rina minato tomoka misawa maho nagatsuka saki hakamada hinata kasii airi ロウきゅーぶ! ts8zs
BeatmapID:287274
BeatmapSetID:110136

[Difficulty]
HPDrainRate:3
CircleSize:3
OverallDifficulty:3
ApproachRate:5
SliderMultiplier:1.2
SliderTickRate:1

[Events]
//Background and Video events
Video,0,"RO-KYU-BU! SS.avi"
0,0,"BG.jpg",0,0
//Break Periods
//Storyboard Layer 0 (Background)
//Storyboard Layer 1 (Fail)
//Storyboard Layer 2 (Pass)
//Storyboard Layer 3 (Foreground)
//Storyboard Sound Samples
//Background Colour Transformations
3,100,163,162,255

[TimingPoints]
1770,408.163265306122,4,2,1,70,1,0
1872,-100,4,2,1,50,0,0
2688,-100,4,2,1,70,0,0
3504,-100,4,2,1,50,0,0
4933,-100,4,2,1,70,0,0
5137,-100,4,2,1,50,0,0
5953,-100,4,2,1,70,0,0
6974,-100,4,2,1,50,0,0
7382,-100,4,2,1,70,0,0
14729,-100,4,2,1,60,0,0
18606,-100,4,2,1,40,0,0
19116,-100,4,2,1,30,0,0
19627,-100,4,2,1,20,0,0
20137,-100,4,2,1,10,0,0
21259,-100,4,2,1,50,0,0
33504,-100,4,2,1,70,0,0
34321,-100,4,2,1,60,0,0
40443,-100,4,2,1,50,0,0
45239,-100,4,2,1,40,0,0
45647,-100,4,2,1,30,0,0
46055,-100,4,2,1,20,0,0
46565,-100,4,2,1,50,0,0
53504,-100,4,2,1,60,0,0
60443,-100,4,2,1,70,0,0
62178,-100,4,1,1,70,0,1
75137,-100,4,1,1,60,0,1
86667,-100,4,1,1,70,0,1
87484,-100,4,2,1,50,0,0

[Colours]
Combo1 : 179,217,255
Combo2 : 255,70,255
Combo3 : 255,255,172
Combo4 : 255,203,151
Combo5 : 255,217,255

[HitObjects]
440,284,1770,6,0,B|424:224|424:224|360:208|336:148,1,180,0|0,1:0|0:0,0:0:0:0:
212,80,2790,2,0,L|108:48,2,90,0|0|0,1:0|1:0|1:0,0:0:0:0:
268,96,3606,2,0,P|324:136|332:196,1,120
332,244,4218,2,0,P|264:272|212:268,1,120,4|0,0:0|0:0,0:0:0:0:
100,252,5035,6,0,P|56:200|48:144,1,120,0|0,1:0|0:0,0:0:0:0:
72,96,5647,2,0,L|116:56,1,60
176,44,6055,2,0,L|272:80,2,90,0|0|0,1:0|1:0|1:0,0:0:0:0:
204,160,7076,1,0,0:0:0:0:
252,268,7484,2,0,L|164:292,2,90,0|0|0,1:0|1:0|1:0,0:0:0:0:
320,248,8300,5,4,0:0:0:0:
392,184,8708,1,8,0:0:0:0:
372,92,9116,1,0,0:0:0:0:
288,44,9525,1,8,0:0:0:0:
152,88,9933,6,0,P|140:148|172:200,1,120,0|8,0:0|0:0,0:0:0:0:
300,260,10749,2,0,P|312:200|280:148,1,120,0|8,0:0|0:0,0:0:0:0:
168,180,11565,6,0,P|148:173|100:125,2,90,4|0|0,0:0|0:0|0:0,0:0:0:0:
220,212,12382,2,0,P|263:246|283:306,1,120,0|8,0:0|0:0,0:0:0:0:
388,248,13198,6,0,P|432:200|464:184,2,90,4|2|2,0:0|0:0|0:0,0:0:0:0:
348,292,14014,2,0,P|284:312|228:300,1,120,0|4,0:0|0:0,0:0:0:0:
116,280,14831,5,0,0:0:0:0:
44,184,15239,1,8,0:0:0:0:
44,184,15647,1,0,0:0:0:0:
116,88,16055,1,8,0:0:0:0:
236,168,16463,6,0,P|280:172|328:196,2,90,8|8|8,0:0|0:0|0:0,0:0:0:0:
164,164,17280,2,0,P|120:160|72:136,2,90,8|8|8,0:0|0:0|0:0,0:0:0:0:
256,192,18096,12,4,20545,0:0:0:0:
136,264,21361,38,0,P|192:292|252:288,1,120,2|0,0:0|0:0,0:0:0:0:
340,264,22178,1,0,0:0:0:0:
340,264,22382,1,0,0:0:0:0:
364,124,22790,2,0,P|392:72|448:40,2,120
296,192,24014,1,0,0:0:0:0:
268,100,24423,1,0,0:0:0:0:
268,100,24627,2,0,P|204:88|144:100,1,120,2|0,0:0|0:0,0:0:0:0:
112,124,25239,2,0,L|72:168,1,60
128,300,26055,5,0,0:0:0:0:
128,300,26259,2,0,P|188:276|256:272,1,120,2|0,0:0|0:0,0:0:0:0:
292,276,26872,2,0,L|352:296,1,60
488,252,27484,1,4,0:0:0:0:
360,184,27892,2,0,P|300:166|233:177,2,120,2|0|0,0:0|0:0|0:0,0:0:0:0:
400,208,28912,1,0,0:0:0:0:
268,268,29321,1,0,0:0:0:0:
132,220,29729,2,0,L|76:244,2,60,0|2|0,0:0|0:0|0:0,0:0:0:0:
176,204,30341,2,0,P|244:192|296:200,1,120,0|4,0:0|0:0,0:0:0:0:
408,236,31157,6,0,L|408:332,2,90,2|0|0,0:0|0:0|0:0,0:0:0:0:
408,176,31974,1,8,0:0:0:0:
268,64,32586,1,0,0:0:0:0:
268,64,32790,2,0,P|204:68|148:92,1,120
104,100,33402,1,0,0:0:0:0:
104,100,33606,2,0,L|56:100,6,30
104,160,34423,5,4,0:0:0:0:
216,116,34831,1,8,0:0:0:0:
200,236,35239,1,0,0:0:0:0:
200,236,35443,2,0,P|156:284|152:340,2,120
256,216,36463,1,0,0:0:0:0:
256,216,36667,2,0,B|320:196|320:196|292:144|340:92,1,180,0|8,0:0|0:0,0:0:0:0:
220,72,37688,6,0,P|160:88|100:84,2,120,2|0|8,0:0|0:0|0:0,0:0:0:0:
328,120,38912,1,0,0:0:0:0:
252,212,39321,2,0,P|198:243|158:288,2,120,2|0|8,0:0|0:0|0:0,0:0:0:0:
372,204,40545,6,0,L|372:268,1,60,2|0,0:0|0:0,0:0:0:0:
372,324,40953,2,0,P|312:344|244:332,1,120,4|8,0:0|0:0,0:0:0:0:
156,276,41769,6,0,P|148:216|108:176,1,120,2|0,0:0|0:0,0:0:0:0:
148,60,42586,2,0,P|208:40|268:36,1,120,2|0,0:0|0:0,0:0:0:0:
348,124,43402,2,0,P|308:168|304:232,1,120,2|0,0:0|0:0,0:0:0:0:
208,300,44218,1,2,0:0:0:0:
208,300,44423,2,0,L|148:344,2,60,0|0|0,0:0|0:0|0:0,0:0:0:0:
256,192,45035,12,4,46259,0:0:0:0:
472,232,46667,5,2,0:0:0:0:
376,304,47076,2,0,P|308:324|252:320,1,120,8|4,0:0|0:0,0:0:0:0:
144,284,47892,1,8,0:0:0:0:
72,188,48300,2,0,P|40:168|12:160,2,60,0|0|8,0:0|0:0|0:0,0:0:0:0:
192,176,49116,2,0,P|239:174|303:142,1,120,2|8,0:0|0:0,0:0:0:0:
400,72,49933,6,0,P|424:48|456:40,2,60,2|0|0,0:0|0:0|0:0,0:0:0:0:
340,176,50749,1,8,0:0:0:0:
416,268,51157,1,0,0:0:0:0:
312,328,51565,5,0,0:0:0:0:
312,328,51769,2,0,L|240:296,1,60,0|0,0:0|0:0,0:0:0:0:
160,232,52382,1,8,0:0:0:0:
256,160,52790,1,0,0:0:0:0:
184,64,53198,1,4,0:0:0:0:
92,128,53606,6,0,L|128:184,1,60
156,228,54014,2,0,P|228:248|272:236,1,120,0|8,0:0|0:0,0:0:0:0:
344,144,54831,2,0,P|272:124|228:136,1,120,0|8,0:0|0:0,0:0:0:0:
120,184,55647,5,0,0:0:0:0:
76,296,56055,1,0,0:0:0:0:
188,340,56463,2,0,P|236:316|280:268,1,120,0|8,0:0|0:0,0:0:0:0:
404,196,57280,6,0,L|404:104,2,90,8|0|8,0:0|0:0|0:0,0:0:0:0:
268,240,58300,2,0,L|204:268,2,60,2|0|0,0:0|0:0|0:0,0:0:0:0:
332,204,58912,2,0,P|340:144|320:80,1,120,2|8,0:0|0:0,0:0:0:0:
204,168,59729,2,0,P|196:228|216:292,1,120,2|8,0:0|0:0,0:0:0:0:
356,264,60545,6,0,L|456:232,1,90,4|8,0:0|0:0,0:0:0:0:
372,152,61157,2,0,L|272:184,1,90,4|8,0:0|0:0,0:0:0:0:
56,80,62178,6,0,P|140:60|184:64,1,120
284,152,62994,2,0,P|200:172|156:168,1,120
108,172,63606,5,0,0:0:0:0:
108,172,63810,2,0,P|80:224|104:280,1,120
236,220,64627,2,0,B|272:192|272:192|320:188|344:168,1,120,8|0,2:0|2:0,0:0:0:0:
400,152,65239,6,0,L|472:176,2,60
332,136,65851,2,0,L|260:112,2,60
424,248,66667,1,8,2:0:0:0:
300,320,67076,5,0,0:0:0:0:
212,204,67484,1,0,0:0:0:0:
104,296,67892,2,0,L|48:352,2,60
112,152,68708,6,0,P|160:104|216:96,1,120
336,164,69525,2,0,P|288:212|232:220,1,120
108,276,70341,1,0,0:0:0:0:
236,344,70749,1,0,0:0:0:0:
252,200,71157,2,0,B|272:170|272:170|317:162|343:112,1,120,8|0,2:0|2:0,0:0:0:0:
396,104,71769,5,0,0:0:0:0:
396,104,71974,2,0,P|432:152|440:216,1,120
352,324,72790,2,0,P|292:292|240:296,1,120
104,256,73606,5,0,0:0:0:0:
104,256,73810,2,0,L|40:224,2,60,0|0|0,0:0|2:0|0:0,0:0:0:0:
172,236,74423,2,0,P|228:208|284:196,1,120,0|4,0:0|2:0,0:0:0:0:
360,72,75239,5,0,0:0:0:0:
244,36,75647,1,0,0:0:0:0:
268,152,76055,1,0,0:0:0:0:
152,124,76463,1,0,0:0:0:0:
96,256,76872,6,0,P|37:291|22:322,2,90
152,240,77688,2,0,P|200:200|208:144,1,120,0|8,0:0|2:0,0:0:0:0:
324,60,78504,5,0,0:0:0:0:
424,128,78912,1,0,0:0:0:0:
316,180,79321,1,0,0:0:0:0:
420,244,79729,1,0,0:0:0:0:
280,284,80137,6,0,P|320:336|348:344,2,90
248,216,80953,2,0,P|216:160|156:140,1,120,0|8,0:0|2:0,0:0:0:0:
88,260,81769,6,0,P|136:300|200:308,1,120
328,256,82586,2,0,P|280:216|216:208,1,120
176,72,83402,6,0,P|144:52|88:40,2,90
236,116,84218,2,0,P|268:136|324:148,2,90,0|0|0,0:0|0:0|0:0,0:0:0:0:
168,136,85035,5,0,0:0:0:0:
88,228,85443,1,0,0:0:0:0:
180,304,85851,1,0,0:0:0:0:
256,212,86259,1,0,0:0:0:0:
384,88,86769,2,0,P|415:59|465:47,2,90,0|0|4,0:0|0:0|0:0,0:0:0:0:
