osu file format v12

[General]
AudioFilename: Get goal!.mp3
AudioLeadIn: 2000
PreviewTime: 61984
Countdown: 0
SampleSet: Soft
StackLeniency: 0.7
Mode: 0
LetterboxInBreaks: 1
WidescreenStoryboard: 1

[Editor]
Bookmarks: 54831
DistanceSpacing: 1.2
BeatDivisor: 4
GridSize: 8

[Metadata]
Title:Get goal! (TV Size)
TitleUnicode:Get goal! (TV Size)
Artist:RO-KYU-BU!
ArtistUnicode:ロウきゅーぶ!
Creator:Grassvalley
Version:Easy
Source:RO-KYU-BU! SS
Tags:hanazawa kana hikasa youko ogura yui hidaka rina minato tomoka misawa maho nagatsuka saki hakamada hinata kasii airi ロウきゅーぶ! ts8zs
BeatmapID:287631
BeatmapSetID:110136

[Difficulty]
HPDrainRate:2
CircleSize:3
OverallDifficulty:2
ApproachRate:3
SliderMultiplier:0.8
SliderTickRate:1

[Events]
//Background and Video events
Video,0,"RO-KYU-BU! SS.avi"
0,0,"BG.jpg",0,0
//Break Periods
//Storyboard Layer 0 (Background)
//Storyboard Layer 1 (Fail)
//Storyboard Layer 2 (Pass)
//Storyboard Layer 3 (Foreground)
//Storyboard Sound Samples
//Background Colour Transformations
3,100,163,162,255

[TimingPoints]
1770,408.163265306122,4,2,1,70,1,0
1872,-100,4,2,1,50,0,0
3300,-100,4,2,1,70,0,0
3504,-100,4,2,1,50,0,0
4933,-100,4,2,1,70,0,0
5137,-100,4,2,1,50,0,0
6565,-100,4,2,1,70,0,0
6769,-100,4,2,1,50,0,0
8198,-100,4,2,1,60,0,0
8708,-100,4,2,2,60,0,0
8810,-100,4,2,1,60,0,0
10341,-100,4,2,2,60,0,0
10443,-100,4,2,1,60,0,0
16872,-100,4,2,2,60,0,0
16974,-100,4,2,1,60,0,0
17688,-100,4,2,2,60,0,0
17790,-100,4,2,1,60,0,0
18912,-100,4,2,1,40,0,0
19729,-100,4,2,1,30,0,0
21259,-100,4,2,1,50,0,0
34321,-100,4,2,1,60,0,0
40443,-100,4,2,1,50,0,0
45239,-100,4,2,1,40,0,0
45647,-100,4,2,1,30,0,0
46055,-100,4,2,1,20,0,0
46565,-100,4,2,1,50,0,0
53504,-100,4,2,1,60,0,0
54423,-100,4,2,2,60,0,0
54525,-100,4,2,1,60,0,0
56055,-100,4,2,2,60,0,0
56157,-100,4,2,1,60,0,0
59321,-100,4,2,2,60,0,0
59423,-100,4,2,1,60,0,0
60443,-100,4,2,1,70,0,0
60953,-100,4,2,2,60,0,0
61055,-100,4,2,1,60,0,0
62178,-100,4,1,1,70,0,1
62586,-100,4,2,2,70,0,1
62688,-100,4,1,1,70,0,1
69116,-100,4,2,2,70,0,1
69218,-100,4,1,1,70,0,1
72382,-100,4,2,2,70,0,1
72484,-100,4,1,1,70,0,1
75137,-100,4,1,1,60,0,1
77280,-100,4,2,2,60,0,1
77382,-100,4,1,1,60,0,1
80545,-100,4,2,2,60,0,1
80647,-100,4,1,1,60,0,1
83810,-100,4,2,2,60,0,1
83912,-100,4,1,1,60,0,1
84627,-100,4,2,2,60,0,1
84729,-100,4,1,1,60,0,1
85851,-100,4,1,1,40,0,1
86667,-100,4,1,1,30,0,1
87484,-100,4,2,1,50,0,0

[Colours]
Combo1 : 179,217,255
Combo2 : 255,70,255
Combo3 : 255,255,172
Combo4 : 255,203,151
Combo5 : 255,217,255

[HitObjects]
80,312,1770,2,0,B|152:296|196:328|196:328|244:320,1,160,0|0,1:0|0:0,0:0:0:0:
416,256,3402,2,0,B|432:184|400:140|400:140|406:101,1,160,0|4,1:0|0:0,0:0:0:0:
248,208,5035,6,0,P|204:204|160:184,1,80,0|0,1:0|0:0,0:0:0:0:
88,136,5851,2,0,P|84:92|100:56,1,80,2|0,0:0|0:0,0:0:0:0:
192,40,6667,2,0,B|240:100|240:100|328:100,1,160,0|0,1:0|1:0,0:0:0:0:
472,216,8300,6,0,B|425:278|425:278|336:255|274:330,1,240,4|8,0:0|0:0,0:0:0:0:
184,296,9933,2,0,B|134:246|134:246|194:167|104:94,1,240,4|8,0:0|0:0,0:0:0:0:
184,40,11565,6,0,L|269:41,2,80,2|8|2,0:0|0:0|0:0,0:0:0:0:
112,104,12790,1,8,0:0:0:0:
112,199,13198,2,0,L|113:283,2,80,2|8|2,0:0|0:0|0:0,0:0:0:0:
112,104,14423,1,8,0:0:0:0:
208,120,14831,6,0,P|252:127|300:123,1,80,0|8,0:0|0:0,0:0:0:0:
376,161,15647,2,0,P|383:205|379:253,1,80,0|8,0:0|0:0,0:0:0:0:
327,320,16463,2,0,P|251:290|178:328,2,160,4|4|2,0:0|0:0|0:0,0:0:0:0:
256,192,18300,12,4,20545,0:0:0:0:
328,128,21361,6,0,P|376:104|416:96,2,80,2|0|0,0:0|0:0|0:0,0:0:0:0:
256,192,22586,1,0,0:0:0:0:
176,248,22994,2,0,P|128:272|88:280,2,80,2|0|0,0:0|0:0|0:0,0:0:0:0:
272,272,24218,1,2,0:0:0:0:
368,288,24627,2,0,P|368:208|312:152,1,160,2|0,0:0|0:0,0:0:0:0:
136,96,26259,6,0,P|136:176|192:232,1,160,2|0,0:0|0:0,0:0:0:0:
280,272,27484,1,4,0:0:0:0:
352,208,27892,1,2,0:0:0:0:
264,176,28300,2,0,P|216:160|184:160,2,80,2|0|0,0:0|0:0|0:0,0:0:0:0:
352,208,29525,2,0,P|400:224|432:224,2,80,2|0|0,0:0|0:0|0:0,0:0:0:0:
280,272,30749,5,0,0:0:0:0:
200,328,31157,2,0,P|120:312|56:248,1,160,2|8,0:0|0:0,0:0:0:0:
48,168,32382,1,0,0:0:0:0:
96,80,32790,2,0,P|168:40|248:32,1,160,2|4,0:0|0:0,0:0:0:0:
432,64,34423,6,0,P|440:112|440:152,1,80,0|8,0:0|0:0,0:0:0:0:
352,176,35239,2,0,P|344:128|344:88,1,80,0|8,0:0|0:0,0:0:0:0:
256,56,36055,2,0,B|232:104|232:104|256:168|216:208,1,160,2|4,0:0|0:0,0:0:0:0:
168,288,37280,5,0,0:0:0:0:
256,248,37688,2,0,L|336:248,2,80,2|0|8,0:0|0:0|0:0,0:0:0:0:
168,200,38912,1,0,0:0:0:0:
88,144,39321,2,0,L|8:144,2,80,2|0|8,0:0|0:0|0:0,0:0:0:0:
168,88,40545,5,0,0:0:0:0:
264,64,40953,2,0,P|304:64|352:80,1,80,2|8,0:0|0:0,0:0:0:0:
408,144,41769,6,0,L|408:224,1,80,2|0,0:0|0:0,0:0:0:0:
320,272,42586,2,0,L|320:192,1,80,2|0,0:0|0:0,0:0:0:0:
232,144,43402,2,0,L|232:224,1,80,2|0,0:0|0:0,0:0:0:0:
144,272,44219,2,0,L|144:192,1,80,2|0,0:0|0:0,0:0:0:0:
256,192,45035,12,8,46259,0:0:0:0:
336,240,46667,6,0,L|416:240,2,80,2|8|4,0:0|0:0|0:0,0:0:0:0:
256,192,47892,1,8,0:0:0:0:
176,136,48300,2,0,L|96:136,2,80,2|8|2,0:0|0:0|0:0,0:0:0:0:
256,80,49525,1,8,0:0:0:0:
344,128,49933,6,0,L|416:176,1,80,0|8,0:0|0:0,0:0:0:0:
384,264,50749,2,0,L|312:216,1,80,4|8,0:0|0:0,0:0:0:0:
256,144,51565,2,0,P|184:104|112:128,2,160,2|0|4,0:0|0:0|0:0,0:0:0:0:
176,200,53606,5,2,0:0:0:0:
120,280,54014,2,0,P|192:320|280:320,1,160,4|0,0:0|0:0,0:0:0:0:
360,296,55239,1,0,0:0:0:0:
432,232,55647,2,0,P|464:152|432:88,1,160,4|4,0:0|0:0,0:0:0:0:
256,160,57280,6,0,P|192:144|152:104,2,120,8|8|0,0:0|0:0|0:0,0:0:0:0:
344,192,58912,2,0,P|384:264|344:328,1,160,2|0,0:0|0:0,0:0:0:0:
272,264,60137,1,0,0:0:0:0:
200,328,60545,2,0,P|164:266|204:194,1,160,4|0,0:0|0:0,0:0:0:0:
392,248,62178,6,0,P|368:160|304:120,1,160
216,136,63402,1,0,0:0:0:0:
136,80,63810,2,0,P|96:56|64:56,2,80,0|8|0,0:0|2:0|0:0,0:0:0:0:
160,176,65035,1,0,0:0:0:0:
136,272,65443,5,0,0:0:0:0:
216,320,65851,1,0,0:0:0:0:
288,256,66259,2,0,P|336:272|368:296,2,80,0|8|0,0:0|2:0|0:0,0:0:0:0:
208,200,67484,1,0,0:0:0:0:
288,144,67892,1,0,0:0:0:0:
96,192,68708,6,0,P|128:272|192:312,1,160
200,216,69933,1,0,0:0:0:0:
280,160,70341,2,0,P|320:136|360:128,2,80,0|8|0,0:0|2:0|0:0,0:0:0:0:
280,256,71565,1,0,0:0:0:0:
376,232,71974,6,0,B|400:192|400:192|360:136|392:80,1,160
304,40,73198,1,0,0:0:0:0:
256,128,73606,2,0,L|256:216,2,80,0|8|0,0:0|2:0|0:0,0:0:0:0:
184,64,74831,1,4,2:0:0:0:
128,144,75239,5,0,0:0:0:0:
80,232,75647,1,8,2:0:0:0:
176,224,76055,2,0,P|224:224|264:248,1,80,0|8,0:0|2:0,0:0:0:0:
344,272,76872,2,0,P|408:224|432:144,1,160
256,72,78504,6,0,P|208:64|160:64,2,80,0|8|0,0:0|2:0|0:0,0:0:0:0:
336,128,79729,1,8,2:0:0:0:
256,176,80137,2,0,P|216:249|227:328,1,160
88,192,81769,6,0,L|88:104,1,80,0|8,0:0|2:0,0:0:0:0:
176,72,82586,2,0,L|176:168,1,80,0|8,0:0|2:0,0:0:0:0:
256,200,83402,2,0,P|320:240|384:192,2,160
256,192,85239,12,4,87382,0:0:0:0:
