osu file format v12

[General]
AudioFilename: Get goal! (TV Size).mp3
AudioLeadIn: 0
PreviewTime: 62168
Countdown: 0
SampleSet: Soft
StackLeniency: 0.7
Mode: 0
LetterboxInBreaks: 0
WidescreenStoryboard: 0

[Editor]
DistanceSpacing: 1
BeatDivisor: 4
GridSize: 4

[Metadata]
Title:Get goal! (TV Size)
TitleUnicode:Get goal! (TV Size)
Artist:RO-KYU-BU!
ArtistUnicode:RO-KYU-BU!
Creator:AliomLoung
Version:Normal
Source:RO-KYU-BU! SS
Tags:ロウきゅーぶ! opening OP Fycho kana hanazawa rina hidaka yoko hikasa yuka iguchi yui ogura
BeatmapID:298525
BeatmapSetID:115521

[Difficulty]
HPDrainRate:4
CircleSize:3
OverallDifficulty:4
ApproachRate:5
SliderMultiplier:1
SliderTickRate:1

[Events]
//Background and Video events
Video,0,"tv.avi"
0,0,"bg.jpeg",0,0
//Break Periods
//Storyboard Layer 0 (Background)
//Storyboard Layer 1 (Fail)
//Storyboard Layer 2 (Pass)
//Storyboard Layer 3 (Foreground)
//Storyboard Sound Samples
//Background Colour Transformations
3,100,163,162,255

[TimingPoints]
1790,408.163265306122,4,2,1,90,1,0
10259,-100,4,2,2,90,0,0
10463,-100,4,2,1,90,0,0
20463,-100,4,2,1,90,0,0
24953,-100,4,2,2,60,0,0
25157,-100,4,2,1,70,0,0
26585,-100,4,2,2,60,0,0
26789,-100,4,2,1,70,0,0
31483,-100,4,2,1,70,0,0
31687,-100,4,2,1,70,0,0
34443,-100,4,2,1,80,0,0
57300,-100,4,2,1,85,0,0
62198,-100,4,2,1,90,0,1
85361,-100,4,2,2,90,0,1
85565,-100,4,2,1,90,0,1
86994,-100,4,2,2,90,0,1
87198,-100,4,2,1,90,0,1
87402,-100,4,2,1,90,0,0

[Colours]
Combo1 : 98,176,255
Combo2 : 255,0,128
Combo3 : 255,255,0
Combo4 : 166,83,83
Combo5 : 255,128,0

[HitObjects]
72,84,1790,2,0,P|148:88|164:112,2,100,4|0|0,0:0|0:0|0:0,0:0:0:0:
68,284,3422,2,0,P|144:280|160:256,2,100,4|0|0,0:0|0:0|0:0,0:0:0:0:
68,184,4647,1,0,0:0:0:0:
163,155,5055,6,0,B|251:155|283:99|283:99|335:131,1,200,4|0,0:0|0:0,0:0:0:0:
363,171,6075,2,0,L|366:262,1,75,0|0,0:0|0:0,0:0:0:0:
335,317,6687,2,0,B|283:349|283:349|251:293|163:293,1,200,4|0,0:0|0:0,0:0:0:0:
155,218,7810,2,0,P|126:198|92:149,1,75
88,118,8320,6,0,P|67:73|25:48,2,100,4|8|0,0:0|0:0|0:0,0:0:0:0:
140,206,9545,1,8,0:0:0:0:
40,205,9953,2,0,P|85:290|181:297,1,200,4|0,0:0|0:0,0:0:0:0:
140,206,11177,2,0,L|176:166,1,50,8|0,0:0|0:0,0:0:0:0:
220,146,11585,6,0,P|260:178|268:230,2,100,4|8|0,0:0|0:0|0:0,0:0:0:0:
120,130,12810,1,8,0:0:0:0:
72,218,13218,2,0,P|23:167|22:130,2,100,4|8|0,0:0|0:0|0:0,0:0:0:0:
152,278,14443,1,8,0:0:0:0:
252,290,14851,6,0,L|352:254,1,100,4|8,0:0|0:0,0:0:0:0:
260,202,15667,2,0,L|348:134,1,100,0|8,0:0|0:0,0:0:0:0:
244,110,16483,2,0,L|288:50,2,75,4|0|0,0:0|0:0|0:0,0:0:0:0:
192,110,17300,2,0,L|148:50,2,75,4|0|0,0:0|0:0|0:0,0:0:0:0:
256,192,18116,12,4,20463,0:0:0:0:
88,247,21381,6,0,P|51:280|35:327,2,100,2|8|0,0:0|0:0|0:0,0:0:0:0:
136,332,22606,1,8,0:0:0:0:
183,247,23014,2,0,P|219:280|235:327,2,100,2|8|0,0:0|0:0|0:0,0:0:0:0:
136,160,24238,1,8,0:0:0:0:
208,92,24647,6,0,B|256:80|288:116|328:112|356:92,1,150,2|0,0:0|0:0,0:0:0:0:
404,96,25463,1,0,0:0:0:0:
412,196,25871,1,8,0:0:0:0:
416,292,26279,2,0,B|390:310|350:314|318:278|270:290,1,150,2|0,0:0|0:0,0:0:0:0:
220,292,27096,1,0,0:0:0:0:
136,236,27504,1,8,0:0:0:0:
152,136,27912,6,0,P|176:93|223:81,1,100,4|8,0:0|0:0,0:0:0:0:
248,180,28728,2,0,L|300:232,1,50,0|2,0:0|0:0,0:0:0:0:
384,220,29341,1,2,0:0:0:0:
484,228,29749,1,2,0:0:0:0:
484,228,29953,2,0,L|484:120,1,100,8|0,0:0|0:0,0:0:0:0:
388,108,30769,6,0,L|336:104,1,50,8|0,0:0|0:0,0:0:0:0:
288,96,31177,2,0,P|240:68|125:130,1,200,4|0,0:0|0:0,0:0:0:0:
216,160,32402,2,0,L|228:216,1,50,8|0,0:0|0:0,0:0:0:0:
244,256,32810,2,0,P|320:248|348:232,2,100,4|8|0,0:0|0:0|0:0,0:0:0:0:
156,304,34034,1,8,0:0:0:0:
60,280,34443,6,0,L|60:180,1,100,4|8,0:0|0:0,0:0:0:0:
156,156,35259,2,0,L|156:224,1,50,0|2,0:0|0:0,0:0:0:0:
156,304,35871,1,2,0:0:0:0:
244,256,36279,1,2,0:0:0:0:
244,256,36483,2,0,L|344:256,1,100,8|0,0:0|0:0,0:0:0:0:
444,244,37300,6,0,L|444:184,1,50,8|0,0:0|0:0,0:0:0:0:
440,144,37708,2,0,P|412:96|352:84,2,100,4|8|0,0:0|0:0|0:0,0:0:0:0:
348,180,38932,2,0,L|304:216,1,50,8|0,0:0|0:0,0:0:0:0:
260,228,39341,2,0,P|208:176|216:136,2,100,4|8|0,0:0|0:0|0:0,0:0:0:0:
304,316,40565,2,0,L|240:316,1,50,8|0,0:0|0:0,0:0:0:0:
204,316,40973,6,0,P|136:304|112:268,1,100,4|8,0:0|0:0,0:0:0:0:
116,184,41789,2,0,P|152:151|201:150,1,100,2|8,0:0|0:0,0:0:0:0:
304,152,42606,2,0,P|353:153|389:185,1,100,2|8,0:0|0:0,0:0:0:0:
388,284,43422,2,0,P|351:316|302:317,1,100,2|8,0:0|0:0,0:0:0:0:
224,260,44238,2,0,L|224:188,2,50,4|0|8,0:0|0:0|0:0,0:0:0:0:
224,312,44851,1,0,0:0:0:0:
224,360,45055,1,8,0:0:0:0:
256,192,45259,12,0,46279,0:0:0:0:
88,228,46687,6,0,P|76:288|100:324,1,100,0|8,0:0|0:0,0:0:0:0:
180,264,47504,2,0,L|212:308,2,50,4|0|8,0:0|0:0|0:0,0:0:0:0:
232,176,48320,6,0,P|276:156|323:169,1,100,0|8,0:0|0:0,0:0:0:0:
284,256,49136,2,0,L|312:304|312:304,2,50,4|0|8,0:0|0:0|0:0,0:0:0:0:
232,176,49953,6,0,P|209:132|162:120,1,100,0|8,0:0|0:0,0:0:0:0:
72,156,50769,2,0,P|94:199|141:211,1,100,4|8,0:0|0:0,0:0:0:0:
232,256,51585,6,0,L|232:312,2,50,0|0|8,0:0|0:0|0:0,0:0:0:0:
224,156,52402,2,0,P|268:164|304:192,2,75,4|8|0,0:0|0:0|0:0,0:0:0:0:
176,160,53218,1,0,0:0:0:0:
88,204,53626,6,0,L|88:272,1,50,8|0,0:0|0:0,0:0:0:0:
104,300,54034,2,0,P|140:340|204:344,1,100,4|8,0:0|0:0,0:0:0:0:
188,248,54851,2,0,P|235:258|264:300,1,100,0|8,0:0|0:0,0:0:0:0:
364,308,55667,5,4,0:0:0:0:
436,240,56075,2,0,P|412:188|380:160,1,100,8|0,0:0|0:0,0:0:0:0:
280,148,56892,1,8,0:0:0:0:
192,100,57300,6,0,P|159:81|140:50,2,75,4|0|0,0:0|0:0|0:0,0:0:0:0:
192,176,58218,2,0,L|96:200,1,75,0|8,0:0|0:0,0:0:0:0:
96,236,58728,1,0,0:0:0:0:
128,276,58932,2,0,L|188:356,1,100,4|8,0:0|0:0,0:0:0:0:
288,356,59749,2,0,L|348:264|348:264,1,100,0|8,0:0|0:0,0:0:0:0:
420,336,60565,6,0,L|467:278,1,75,4|0,0:0|0:0,0:0:0:0:
424,216,61177,2,0,L|471:158,1,75,4|0,0:0|0:0,0:0:0:0:
336,44,62198,6,0,P|288:40|252:80,2,100,4|8|0,0:0|0:0|0:0,0:0:0:0:
328,144,63422,1,8,0:0:0:0:
312,244,63830,2,0,P|361:248|397:213,2,100,4|8|0,0:0|0:0|0:0,0:0:0:0:
240,176,65055,1,8,0:0:0:0:
172,252,65463,6,0,P|140:200|140:144,1,100,4|8,0:0|0:0,0:0:0:0:
36,148,66279,2,0,P|72:80|108:64,1,100,0|8,0:0|0:0,0:0:0:0:
188,68,67096,2,0,P|256:40|288:64,2,100,4|8|0,0:0|0:0|0:0,0:0:0:0:
164,164,68320,1,8,0:0:0:0:
136,260,68728,6,0,P|204:256|232:236,2,100,4|8|0,0:0|0:0|0:0,0:0:0:0:
164,164,69953,1,8,0:0:0:0:
74,118,70361,2,0,P|63:166|77:214,2,100,4|8|0,0:0|0:0|0:0,0:0:0:0:
164,164,71585,1,8,0:0:0:0:
248,216,71994,6,0,P|260:184|248:116,2,100,4|8|0,0:0|0:0|0:0,0:0:0:0:
256,316,73218,2,0,P|324:272|336:236,1,100,8|4,0:0|0:0,0:0:0:0:
432,252,74034,2,0,P|404:180|372:164,2,100,8|0|8,0:0|0:0|0:0,0:0:0:0:
332,256,75259,5,4,0:0:0:0:
244,208,75667,1,8,0:0:0:0:
296,124,76075,1,0,0:0:0:0:
384,176,76483,1,8,0:0:0:0:
380,76,76892,2,0,P|368:48|292:28,1,100,4|8,0:0|0:0,0:0:0:0:
296,124,77708,2,0,P|248:115|222:74,1,100,0|8,0:0|0:0,0:0:0:0:
124,52,78524,5,4,0:0:0:0:
24,52,78932,1,8,0:0:0:0:
24,152,79341,1,0,0:0:0:0:
124,152,79749,1,8,0:0:0:0:
176,236,80157,2,0,P|130:254|83:242,1,100,4|8,0:0|0:0,0:0:0:0:
124,152,80973,2,0,P|169:133|217:146,1,100,0|8,0:0|0:0,0:0:0:0:
268,236,81789,5,4,0:0:0:0:
352,292,82198,1,8,0:0:0:0:
408,208,82606,1,0,0:0:0:0:
324,152,83014,1,8,0:0:0:0:
232,116,83422,2,0,P|184:92|148:88,2,75,4|0|0,0:0|0:0|0:0,0:0:0:0:
232,164,84238,2,0,P|184:188|148:192,2,75,4|0|0,0:0|0:0|0:0,0:0:0:0:
264,204,85055,6,0,P|360:236|408:160,1,200,4|0,0:0|0:0,0:0:0:0:
356,80,86279,1,8,0:0:0:0:
264,116,86687,2,0,P|192:68|108:100,1,175,4|4,0:0|0:0,0:0:0:0:
