osu file format v12

[General]
AudioFilename: Get goal! (TV Size).mp3
AudioLeadIn: 0
PreviewTime: 62168
Countdown: 0
SampleSet: Soft
StackLeniency: 0.7
Mode: 0
LetterboxInBreaks: 0
WidescreenStoryboard: 0

[Editor]
DistanceSpacing: 1.2
BeatDivisor: 4
GridSize: 4

[Metadata]
Title:Get goal! (TV Size)
TitleUnicode:Get goal! (TV Size)
Artist:RO-KYU-BU!
ArtistUnicode:RO-KYU-BU!
Creator:AliomLoung
Version:Hard
Source:RO-KYU-BU! SS
Tags:ロウきゅーぶ! opening OP Fycho kana hanazawa rina hidaka yoko hikasa yuka iguchi yui ogura
BeatmapID:299338
BeatmapSetID:115521

[Difficulty]
HPDrainRate:5
CircleSize:4
OverallDifficulty:6
ApproachRate:7
SliderMultiplier:1.4
SliderTickRate:1

[Events]
//Background and Video events
Video,0,"tv.avi"
0,0,"bg.jpeg",0,0
//Break Periods
//Storyboard Layer 0 (Background)
//Storyboard Layer 1 (Fail)
//Storyboard Layer 2 (Pass)
//Storyboard Layer 3 (Foreground)
//Storyboard Sound Samples
//Background Colour Transformations
3,100,163,162,255

[TimingPoints]
1790,408.163265306122,4,2,1,90,1,0
16381,-100,4,2,1,65,0,0
18218,-100,4,2,1,90,0,0
20463,-100,4,2,1,70,0,0
33524,-100,4,2,1,55,0,0
34443,-100,4,2,1,80,0,0
57300,-100,4,2,1,85,0,0
62198,-100,4,2,1,90,0,1
87402,-100,4,2,1,90,0,0

[Colours]
Combo1 : 98,176,255
Combo2 : 255,0,128
Combo3 : 255,255,0
Combo4 : 166,83,83
Combo5 : 255,128,0

[HitObjects]
256,40,1790,5,4,0:0:0:0:
256,192,2810,2,0,P|312:208|364:224,2,105,4|4|4,0:0|0:0|0:0,0:0:0:0:
256,344,5055,5,4,0:0:0:0:
256,192,6075,2,0,P|200:208|148:224,2,105,4|4|4,0:0|0:0|0:0,0:0:0:0:
256,136,7504,2,0,L|256:28|256:28,2,105,4|4|4,0:0|0:0|0:0,0:0:0:0:
300,208,8320,6,0,B|272:252|288:308|288:308|256:340,1,140,4|8,0:0|0:0,0:0:0:0:
180,352,8932,1,0,0:0:0:0:
100,332,9136,2,0,B|74:306|74:306|90:250|62:206,1,140,0|8,0:0|0:0,0:0:0:0:
124,148,9749,1,0,0:0:0:0:
194,102,9953,6,0,P|106:67|75:77,2,105,4|0|0,0:0|0:0|0:0,0:0:0:0:
252,160,10769,1,8,0:0:0:0:
236,244,10973,2,0,P|308:268|324:272,1,70,0|8,0:0|0:0,0:0:0:0:
372,312,11381,1,8,0:0:0:0:
444,354,11585,6,0,P|450:293|426:249,2,105,2|0|0,0:0|0:0|0:0,0:0:0:0:
372,312,12402,2,0,P|300:240|256:244,1,140,2|8,0:0|0:0,0:0:0:0:
200,288,13014,1,0,0:0:0:0:
124,252,13218,2,0,P|112:216|64:164,2,105,4|0|0,0:0|0:0|0:0,0:0:0:0:
200,288,14034,2,0,P|248:276|336:288,1,140,2|8,0:0|0:0,0:0:0:0:
368,124,14851,6,0,P|368:63|349:40,1,70,2|0,0:0|0:0,0:0:0:0:
288,96,15259,2,0,P|250:47|222:41,1,70,8|0,0:0|0:0,0:3:0:0:
208,120,15667,2,0,P|148:109|122:123,1,70,2|0,0:0|0:0,0:3:0:0:
168,192,16075,2,0,P|109:211|91:243,1,70,8|0,0:0|0:0,0:3:0:0:
168,280,16483,6,0,B|204:280|204:280|240:260|240:260|296:260,2,105,4|12|12,0:0|0:0|0:0,0:0:0:0:
168,192,17300,2,0,B|140:192|140:192|104:172|104:172|68:172,2,105,4|12|12,0:0|0:0|0:0,0:0:0:0:
239,235,18116,5,12,0:0:0:0:
296,292,18320,1,0,0:0:0:0:
380,296,18524,2,0,P|420:244|432:212,1,70,2|0,0:0|0:0,0:0:0:0:
384,164,18932,2,0,P|360:189|342:219,1,70,2|0,0:0|0:0,0:0:0:0:
296,292,19341,2,0,P|278:321|254:347,1,70,2|0,0:0|0:0,0:0:0:0:
140,296,19749,5,0,0:0:0:0:
140,296,19851,2,0,P|68:300|20:340,2,105,4|4|4,0:0|0:0|0:0,0:0:0:0:
55,58,21381,6,0,P|59:112|135:163,1,140,4|8,0:0|0:0,0:0:0:0:
180,100,21994,1,0,0:0:0:0:
196,182,22198,2,0,P|168:227|126:235,2,70,0|0|8,0:0|0:0|0:0,0:0:0:0:
124,160,22810,1,0,0:0:0:0:
180,100,23014,5,0,0:0:0:0:
260,120,23218,2,0,P|280:76|324:64,2,70,0|8|0,0:0|0:0|0:0,0:0:0:0:
340,143,23830,2,0,P|356:179|328:271,1,140,0|8,0:0|0:0,0:0:0:0:
248,248,24443,1,0,0:0:0:0:
248,331,24647,2,0,P|188:304|168:226,1,140,2|8,0:0|0:0,0:0:0:0:
81,243,25259,1,0,0:0:0:0:
81,243,25463,1,0,0:0:0:0:
96,120,25871,5,8,0:0:0:0:
56,44,26075,1,0,0:0:0:0:
96,120,26279,2,0,B|168:144|168:144|216:200,1,140,2|8,0:0|0:0,0:0:0:0:
284,152,26892,2,0,L|284:76,2,70,0|0|0,0:0|0:0|0:0,0:0:0:0:
368,156,27504,1,8,0:0:0:0:
412,224,27708,1,8,0:0:0:0:
478,274,27912,6,0,P|424:304|336:260,1,140,4|8,0:0|0:0,0:0:0:0:
185,274,28728,2,0,P|136:305|99:303,2,70,0|0|8,0:0|0:0|0:0,0:0:0:0:
124,224,29341,2,0,L|76:136,1,70,0|0,0:0|0:0,0:0:0:0:
104,84,29749,2,0,P|128:43|172:31,1,70,0|8,0:0|0:0,0:0:0:0:
224,16,30157,1,0,0:0:0:0:
300,49,30361,2,0,P|309:116|266:178,1,140,0|8,0:0|0:0,0:0:0:0:
220,96,30973,1,0,0:0:0:0:
188,172,31177,6,0,P|144:228|144:244,1,70,2|0,0:0|0:0,0:0:0:0:
224,244,31585,2,0,L|224:332,2,70,8|0|0,0:0|0:0|0:0,0:0:0:0:
271,173,32198,2,0,P|299:141|351:137,1,70,0|8,0:0|0:0,0:0:0:0:
344,220,32606,1,0,0:0:0:0:
352,304,32810,2,0,P|411:337|472:304,1,140,2|8,0:0|0:0,0:0:0:0:
412,256,33422,1,0,0:0:0:0:
420,180,33626,6,2,L|448:156,7,35
412,256,34443,6,0,L|397:332,1,70,4|0,0:0|0:0,0:0:0:0:
316,344,34851,2,0,L|332:268,1,70,8|0,0:0|0:0,0:0:0:0:
336,192,35259,1,0,0:0:0:0:
264,224,35463,1,0,0:0:0:0:
268,144,35667,6,0,L|268:52,2,70,8|0|0,0:0|0:0|0:0,0:0:0:0:
196,184,36279,1,0,0:0:0:0:
124,144,36483,1,8,0:0:0:0:
40,144,36687,2,0,P|72:217|140:222,1,140
200,264,37300,1,8,0:0:0:0:
272,304,37504,1,0,0:0:0:0:
344,260,37708,5,4,0:0:0:0:
408,312,37912,2,0,P|424:264|412:224,1,70,0|8,0:0|0:0,0:0:0:0:
404,168,38320,1,0,0:0:0:0:
484,148,38524,2,0,P|440:92|348:104,1,140,0|8,0:0|0:0,0:0:0:0:
308,140,39136,1,0,0:0:0:0:
248,200,39341,2,0,P|221:138|250:76,2,140,4|8|2,0:0|0:0|0:0,0:0:0:0:
332,212,40361,1,0,0:0:0:0:
276,276,40565,2,0,L|276:364,1,70,8|0,0:0|0:0,0:0:0:0:
192,344,40973,6,0,B|128:308|100:404|40:320,1,140,4|8,0:0|0:0,0:0:0:0:
36,260,41585,1,0,0:0:0:0:
80,188,41789,2,0,P|132:164|220:205,1,140,2|8,0:0|0:0,0:0:0:0:
276,240,42402,1,0,0:0:0:0:
270,323,42606,6,2,P|316:312|356:224,1,140,2|8,0:0|0:0,0:0:0:0:
308,168,43218,1,0,0:0:0:0:
372,112,43422,2,2,P|346:48|282:26,1,140,2|8,0:0|0:0,0:0:0:0:
200,28,44034,1,0,0:0:0:0:
136,84,44238,5,2,0:0:0:0:
204,132,44443,1,0,0:0:0:0:
136,180,44647,1,10,0:0:0:0:
196,240,44851,1,2,0:0:0:0:
256,192,45055,12,8,46279,0:0:0:0:
104,332,46687,6,0,L|28:364,2,70,0|0|8,0:0|0:0|0:0,0:0:0:0:
152,264,47300,1,0,0:0:0:0:
224,304,47504,2,0,B|280:252|300:344|356:288,1,140,4|8,0:0|0:0,0:0:0:0:
396,224,48116,1,0,0:0:0:0:
428,148,48320,6,0,L|496:80,2,70,0|0|8,0:0|0:0|0:0,0:0:0:0:
360,96,48932,1,0,0:0:0:0:
292,144,49136,2,0,B|248:200|200:108|140:176,1,140,2|8,0:0|0:0,0:0:0:0:
136,240,49749,1,0,0:0:0:0:
80,304,49953,6,0,L|33:356,2,70,0|0|8,0:0|0:0|0:0,0:0:0:0:
136,240,50565,1,0,0:0:0:0:
184,308,50769,2,0,L|231:360,2,70,4|0|8,0:0|0:0|0:0,0:0:0:0:
340,248,51585,6,0,L|396:196,1,70
312,168,51994,2,0,L|256:224,1,70,8|0,0:0|0:0,0:0:0:0:
180,232,52402,2,0,P|192:280|264:292,2,105,2|8|0,0:0|0:0|0:0,0:0:0:0:
172,148,53218,2,0,P|203:133|244:96,1,70,8|0,0:0|0:0,0:0:0:0:
316,112,53626,2,0,P|343:133|375:148,1,70,8|0,0:0|0:0,0:0:0:0:
368,232,54034,6,0,P|436:240|484:312,1,140,4|8,0:0|0:0,0:0:0:0:
396,320,54647,1,0,0:0:0:0:
312,304,54851,2,0,P|276:268|284:172,1,140,0|8,0:0|0:0,0:0:0:0:
348,140,55463,1,0,0:0:0:0:
302,69,55667,6,0,P|350:53|398:73,2,105,4|0|0,0:0|0:0|0:0,0:0:0:0:
262,143,56483,2,0,L|192:171,1,70
162,245,56892,1,8,0:0:0:0:
237,281,57096,1,8,0:0:0:0:
324,272,57300,6,0,L|394:272,1,70,4|0,0:0|0:0,0:0:0:0:
436,264,57606,2,0,L|436:194,1,70
432,152,57912,2,0,L|372:88,1,70
344,100,58218,2,0,L|292:147,1,70
288,188,58524,2,0,L|288:258,1,70,0|0,0:0|0:0,0:0:0:0:
372,259,58932,6,0,P|349:322|284:340,1,140,4|8,0:0|0:0,0:0:0:0:
200,324,59545,2,0,L|200:376|200:376,2,35,0|0|8,0:0|0:0|0:0,0:0:0:0:
112,236,60055,1,8,0:0:0:0:
112,236,60361,1,8,0:0:0:0:
195,213,60565,6,0,L|216:240,1,35,4|0,0:0|0:0,0:0:0:0:
364,240,60871,2,0,L|385:212,1,35,4|0,0:0|0:0,0:0:0:0:
385,70,61177,2,0,L|363:42,1,35,4|0,0:0|0:0,0:0:0:0:
216,44,61483,2,0,L|194:71,1,35,4|0,0:0|0:0,0:0:0:0:
236,288,62198,6,0,P|196:352|128:352,1,140,4|8,0:0|0:0,0:0:0:0:
160,280,62810,1,0,0:0:0:0:
80,271,63014,2,0,P|113:213|180:202,1,140,0|8,0:0|0:0,0:0:0:0:
264,196,63626,1,0,0:0:0:0:
343,161,63830,2,0,P|312:119|251:108,2,105,4|8|0,0:0|0:0|0:0,0:0:0:0:
428,172,64647,2,0,P|384:240|316:240,1,140,8|8,0:0|0:0,0:0:0:0:
264,196,65259,6,0,P|276:163|264:132,2,70,0|4|0,0:0|0:0|0:0,0:0:0:0:
180,196,65871,2,0,P|150:178|117:186,2,70,8|0|0,0:0|0:0|0:0,0:0:0:0:
180,280,66483,2,0,P|162:309|166:344,2,70,0|8|0,0:0|0:0|0:0,0:0:0:0:
264,280,67096,2,0,P|336:252|344:188,2,140,4|8|0,0:0|0:0|0:0,0:0:0:0:
96,284,68320,1,8,0:0:0:0:
87,116,68728,6,0,P|155:89|216:122,1,140,4|8,0:0|0:0,0:0:0:0:
148,180,69341,1,0,0:0:0:0:
210,235,69545,2,0,P|269:262|336:231,1,140,0|8,0:0|0:0,0:0:0:0:
272,180,70157,1,0,0:0:0:0:
349,148,70361,2,0,P|417:120|469:148,2,105,4|8|0,0:0|0:0|0:0,0:0:0:0:
339,231,71177,1,8,0:0:0:0:
261,264,71381,1,0,0:0:0:0:
220,337,71585,1,8,0:0:0:0:
144,302,71789,5,0,0:0:0:0:
80,356,71994,2,0,P|67:279|99:231,1,140,4|8,0:0|0:0,0:0:0:0:
140,160,72606,1,0,0:0:0:0:
208,112,72810,2,0,L|280:148,1,70,2|0,0:0|0:0,0:0:0:0:
208,200,73218,2,0,L|276:236,1,70,8|0,0:0|0:0,0:0:0:0:
348,204,73626,2,0,P|360:256|284:316,1,140,4|8,0:0|0:0,0:0:0:0:
220,316,74238,1,0,0:0:0:0:
136,316,74443,2,0,P|84:272|92:205,1,140,2|8,0:0|0:0,0:0:0:0:
228,104,75259,6,0,P|268:96|296:112,1,70,4|0,0:0|0:0,0:0:0:0:
258,185,75667,2,0,P|218:193|186:181,1,70,8|0,0:0|0:0,0:0:0:0:
144,116,76075,2,0,P|160:56|232:20,1,140,4|8,0:0|0:0,0:0:0:0:
258,185,76892,2,0,P|310:205|362:197,2,105,4|8|0,0:0|0:0|0:0,0:0:0:0:
224,108,77708,2,0,P|168:168|184:224,1,140,2|8,0:0|0:0,0:0:0:0:
176,300,78320,1,8,0:0:0:0:
96,280,78524,6,0,L|32:212,1,70,4|0,0:0|0:0,0:0:0:0:
124,192,78932,2,0,L|88:124,1,70,8|0,0:0|0:0,0:0:0:0:
176,116,79341,2,0,L|176:60,2,35,4|0|0,0:0|0:0|0:0,0:0:0:0:
260,120,79749,1,8,0:0:0:0:
304,192,79953,1,0,0:0:0:0:
348,264,80157,2,0,P|398:258|440:216,2,105,4|8|0,0:0|0:0|0:0,0:0:0:0:
304,336,80973,2,0,P|260:280|288:208,1,140,2|8,0:0|0:0,0:0:0:0:
360,206,81585,1,8,0:0:0:0:
440,180,81789,6,0,P|480:128|492:96,1,70,2|0,0:0|0:0,0:0:0:0:
444,48,82198,2,0,P|404:100|392:132,1,70,2|0,0:0|0:0,0:0:0:0:
310,227,82606,2,0,P|328:197|352:172,1,70,2|0,0:0|0:0,0:0:0:0:
392,247,83014,2,0,P|373:277|349:303,1,70,2|0,0:0|0:0,0:0:0:0:
268,304,83422,2,0,B|228:304|228:304|200:320|200:320|140:320,2,105,4|12|12,0:0|0:0|0:0,0:0:0:0:
352,304,84238,2,0,B|392:304|392:304|420:320|420:320|480:320,2,105,4|12|12,0:0|0:0|0:0,0:0:0:0:
312,232,85055,5,4,0:0:0:0:
236,200,85259,1,0,0:0:0:0:
216,280,85463,2,0,P|198:309|174:335,1,70,2|0,0:0|0:0,0:0:0:0:
112,280,85871,2,0,P|129:250|153:224,1,70,2|0,0:0|0:0,0:0:0:0:
236,200,86279,2,0,P|253:170|277:144,1,70,2|0,0:0|0:0,0:0:0:0:
284,272,86687,5,0,0:0:0:0:
284,272,86789,2,0,L|319:272,1,35,4|0,0:0|0:0,0:0:0:0:
384,216,87096,2,0,L|419:216,1,35,4|0,0:0|0:0,0:0:0:0:
472,152,87402,2,0,L|507:152,1,35,4|0,0:0|0:0,0:0:0:0:
