osu file format v12

[General]
AudioFilename: Get goal! (TV Size).mp3
AudioLeadIn: 0
PreviewTime: 62168
Countdown: 0
SampleSet: Soft
StackLeniency: 0.7
Mode: 0
LetterboxInBreaks: 0
WidescreenStoryboard: 0

[Editor]
DistanceSpacing: 1.1
BeatDivisor: 4
GridSize: 4

[Metadata]
Title:Get goal! (TV Size)
TitleUnicode:Get goal! (TV Size)
Artist:RO-KYU-BU!
ArtistUnicode:RO-KYU-BU!
Creator:AliomLoung
Version:Easy
Source:RO-KYU-BU! SS
Tags:ロウきゅーぶ! opening OP Fycho kana hanazawa rina hidaka yoko hikasa yuka iguchi yui ogura
BeatmapID:298524
BeatmapSetID:115521

[Difficulty]
HPDrainRate:2
CircleSize:3
OverallDifficulty:2
ApproachRate:3
SliderMultiplier:0.8
SliderTickRate:1

[Events]
//Background and Video events
0,0,"bg.jpeg",0,0
Video,0,"tv.avi"
//Break Periods
//Storyboard Layer 0 (Background)
//Storyboard Layer 1 (Fail)
//Storyboard Layer 2 (Pass)
//Storyboard Layer 3 (Foreground)
//Storyboard Sound Samples
//Background Colour Transformations
3,100,163,162,255

[TimingPoints]
1790,408.163265306122,4,2,1,90,1,0
8626,-100,4,2,2,90,0,0
8830,-100,4,2,1,90,0,0
11892,-100,4,2,2,90,0,0
12912,-100,4,2,1,90,0,0
16789,-100,4,2,2,90,0,0
17810,-100,4,2,1,90,0,0
20463,-100,4,2,1,70,0,0
24953,-100,4,2,2,70,0,0
25157,-100,4,2,1,70,0,0
26585,-100,4,2,2,70,0,0
26789,-100,4,2,1,70,0,0
31483,-100,4,2,2,70,0,0
31687,-100,4,2,1,70,0,0
33116,-100,4,2,2,70,0,0
33320,-100,4,2,1,70,0,0
34443,-100,4,2,1,80,0,0
38014,-100,4,2,2,80,0,0
38218,-100,4,2,1,80,0,0
39647,-100,4,2,2,80,0,0
39851,-100,4,2,1,80,0,0
44545,-100,4,2,2,80,0,0
45565,-100,4,2,1,80,0,0
55973,-100,4,2,2,80,0,0
56177,-100,4,2,1,80,0,0
57300,-100,4,2,1,85,0,0
59238,-100,4,2,2,85,0,0
59443,-100,4,2,1,85,0,0
62198,-100,4,2,1,90,0,1
65769,-100,4,2,2,90,0,1
65973,-100,4,2,1,90,0,1
67402,-100,4,2,2,90,0,1
67606,-100,4,2,1,90,0,1
69034,-100,4,2,2,90,0,1
69238,-100,4,2,1,90,0,1
73932,-100,4,2,2,90,0,1
74136,-100,4,2,1,90,0,1
75973,-100,4,2,1,80,0,1
76177,-100,4,2,1,90,0,1
79238,-100,4,2,1,80,0,1
79443,-100,4,2,1,90,0,1
82504,-100,4,2,1,80,0,1
82708,-100,4,2,1,90,0,1
87402,-100,4,2,1,90,0,0

[Colours]
Combo1 : 98,176,255
Combo2 : 255,0,128
Combo3 : 255,255,0
Combo4 : 166,83,83
Combo5 : 255,128,0

[HitObjects]
48,264,1790,2,0,P|96:328|188:328,1,160,4|0,0:0|0:0,0:0:0:0:
348,336,3422,2,0,P|425:327|471:264,1,160,4|0,0:0|0:0,0:0:0:0:
368,120,5055,6,0,L|368:40,1,80,4|0,0:0|0:0,0:0:0:0:
280,40,5871,2,0,L|280:132,1,80
192,120,6687,2,0,P|148:112|104:132,2,80,4|0|0,0:0|0:0|0:0,0:0:0:0:
368,124,8320,6,0,P|344:176|244:196,1,160,4|0,0:0|0:0,0:0:0:0:
164,200,9545,1,8,0:0:0:0:
76,200,9953,2,0,L|76:108,2,80,4|8|0,0:0|0:0|0:0,0:0:0:0:
104,288,11177,1,8,0:0:0:0:
115,375,11585,6,0,P|170:343|183:254,2,160,4|0|2,0:0|0:0|0:0,0:0:0:0:
104,288,13626,1,8,0:0:0:0:
108,200,14034,1,0,0:0:0:0:
152,124,14443,1,8,0:0:0:0:
228,84,14851,6,0,P|264:100|296:148,1,80,4|8,0:0|0:0,0:0:0:0:
376,128,15667,2,0,P|401:97|437:81,1,80,0|8,0:0|0:0,0:0:0:0:
452,168,16483,2,0,B|408:232|338:206|338:206|312:240,2,160,4|4|4,0:0|0:0|0:0,0:0:0:0:
256,192,18320,12,4,20463,0:0:0:0:
340,248,21381,6,0,P|376:232|424:248,2,80,2|8|0,0:0|0:0|0:0,0:0:0:0:
252,252,22606,1,8,0:0:0:0:
164,248,23014,2,0,P|128:232|80:248,2,80,2|8|0,0:0|0:0|0:0,0:0:0:0:
252,252,24238,1,8,0:0:0:0:
296,328,24647,6,0,P|336:264|312:188,1,160,2|0,0:0|0:0,0:0:0:0:
224,172,25871,1,8,0:0:0:0:
168,240,26279,2,0,B|128:212|88:212|88:212|48:148,1,160,2|0,0:0|0:0,0:0:0:0:
224,172,27912,6,0,P|260:148|304:144,2,80,4|8|0,0:0|0:0|0:0,0:0:0:0:
168,241,29136,1,8,0:0:0:0:
246,280,29545,2,0,P|285:273|317:251,2,80,2|8|0,0:0|0:0|0:0,0:0:0:0:
168,241,30769,1,8,0:0:0:0:
103,181,31177,6,0,P|119:153|235:117,1,160,2|0,0:0|0:0,0:0:0:0:
299,175,32402,1,8,0:0:0:0:
365,117,32810,2,0,P|442:123|495:181,1,160,2|0,0:0|0:0,0:0:0:0:
380,312,34443,6,0,P|419:310|454:329,2,80,4|8|0,0:0|0:0|0:0,0:0:0:0:
312,367,35667,1,8,0:0:0:0:
245,309,36075,2,0,P|205:307|170:326,2,80,2|8|0,0:0|0:0|0:0,0:0:0:0:
312,252,37300,1,8,0:0:0:0:
253,186,37708,6,0,P|203:127|124:134,1,160,2|0,0:0|0:0,0:0:0:0:
168,216,38932,1,8,0:0:0:0:
209,294,39341,2,0,P|132:299|83:241,1,160,2|0,0:0|0:0,0:0:0:0:
51,157,40565,2,0,L|-5:157,2,40,8|0|4,0:0|0:0|0:0,0:0:0:0:
107,89,41381,1,8,0:0:0:0:
187,57,41789,6,0,P|227:41|275:57,1,80,0|8,0:0|0:0,0:0:0:0:
239,133,42606,2,0,P|263:177|307:189,1,80,0|8,0:0|0:0,0:0:0:0:
327,109,43422,2,0,P|359:77|403:73,1,80,0|8,0:0|0:0,0:0:0:0:
403,157,44238,2,0,P|467:125|471:37,2,160,4|0|2,0:0|0:0|0:0,0:0:0:0:
461,309,46687,6,0,P|433:345|389:349,1,80,0|8,0:0|0:0,0:0:0:0:
353,277,47504,1,2,0:0:0:0:
305,353,47912,1,8,0:0:0:0:
265,273,48320,6,0,P|242:240|205:230,1,80,0|8,0:0|0:0,0:0:0:0:
141,293,49136,1,2,0:0:0:0:
81,229,49545,1,8,0:0:0:0:
145,169,49953,6,0,P|167:136|204:126,1,80,0|8,0:0|0:0,0:0:0:0:
285,93,50769,1,2,0:0:0:0:
280,180,51177,1,8,0:0:0:0:
285,269,51585,6,0,P|317:305|357:313,1,80,0|8,0:0|0:0,0:0:0:0:
433,313,52402,2,0,P|470:299|494:268,2,80,4|8|0,0:0|0:0|0:0,0:0:0:0:
417,225,53626,6,0,P|438:192|439:152,2,80,8|4|8,0:0|0:0|0:0,0:0:0:0:
329,217,54851,1,0,0:0:0:0:
249,249,55259,1,8,0:0:0:0:
201,321,55667,2,0,P|165:237|197:181,1,160,4|0,0:0|0:0,0:0:0:0:
261,121,56892,1,8,0:0:0:0:
345,93,57300,6,0,P|314:43|258:30,2,120,4|4|8,0:0|0:0|0:0,0:0:0:0:
261,121,58932,2,0,P|213:113|117:173,1,160,4|0,0:0|0:0,0:0:0:0:
93,249,60157,1,8,0:0:0:0:
181,253,60565,2,0,B|221:309|221:309|265:265|265:265|305:301,1,180,4|4,0:0|0:0,0:0:0:0:
405,181,62198,6,0,L|465:125,2,80,4|8|0,0:0|0:0|0:0,0:0:0:0:
329,137,63422,1,8,0:0:0:0:
257,185,63830,2,0,L|197:129,2,80,2|8|0,0:0|0:0|0:0,0:0:0:0:
333,229,65055,1,8,0:0:0:0:
421,221,65463,6,0,P|385:303|254:270,1,240,2|8,0:0|0:0,0:0:0:0:
333,229,67096,2,0,P|250:183|196:209,1,160,2|0,0:0|0:0,0:0:0:0:
119,248,68320,1,8,0:0:0:0:
53,305,68728,6,0,P|33:233|89:165,1,160,4|0,0:0|0:0,0:0:0:0:
119,248,69953,1,8,0:0:0:0:
206,249,70361,2,0,L|206:345,2,80,2|8|0,0:0|0:0|0:0,0:0:0:0:
293,249,71585,1,8,0:0:0:0:
293,337,71994,6,0,L|388:336,1,80,4|8,0:0|0:0,0:0:0:0:
460,332,72810,2,0,L|459:243,1,80,0|8,0:0|0:0,0:0:0:0:
371,250,73626,2,0,P|351:186|267:162,1,160,4|0,0:0|0:0,0:0:0:0:
104,224,75259,5,4,0:0:0:0:
192,72,76075,1,4,0:0:0:0:
368,72,76892,2,0,P|405:63|448:76,2,80,4|0|4,0:0|0:0|0:0,0:0:0:0:
372,248,78524,5,4,0:0:0:0:
196,248,79341,1,4,0:0:0:0:
196,72,80157,2,0,P|148:60|108:80,2,80,4|0|4,0:0|0:0|0:0,0:0:0:0:
372,76,81789,5,4,0:0:0:0:
372,252,82606,1,4,0:0:0:0:
196,252,83422,2,0,P|119:241|85:172,2,160,4|4|4,0:0|0:0|0:0,0:0:0:0:
256,192,85463,12,4,87402,0:0:0:0:
