osu file format v6

[General]
AudioFilename: agaloku.mp3
AudioLeadIn: 0
PreviewTime: -1
Countdown: 1
SampleSet: Normal
StackLeniency: 0.7
Mode: 0
LetterboxInBreaks: 1

[Editor]
DistanceSpacing: 0.800000011920929
BeatDivisor: 6
GridSize: 32

[Metadata]
Title:Aganoku
Artist:RITA
Creator:Afterstory
Version:Normal
Source:
Tags:

[Difficulty]
HPDrainRate:6
CircleSize:6
OverallDifficulty:6
SliderMultiplier:0.999999999999999
SliderTickRate:4

[Events]
//Background and Video events
0,0,"23eec73e17dca2c655e7238a.jpg"
//Break Periods
2,24656,35580
//Storyboard Layer 0 (Background)
//Storyboard Layer 1 (Fail)
//Storyboard Layer 2 (Pass)
//Storyboard Layer 3 (Foreground)
//Storyboard Sound Samples
//Background Colour Transformations
3,100,163,162,255

[TimingPoints]
0,434.782608695652,4,1,1,100,1,0

[Colours]
Combo1 : 240,5,5
Combo2 : 5,240,5
Combo3 : 5,5,240

[HitObjects]
96,64,2173,2,4,B|96:256|96:224,1,150
256,64,3586,2,4,B|256:256|256:224,1,150
416,32,4999,5,0
416,96,5326,1,0
416,192,5760,2,4,B|96:192,1,300
160,64,7826,5,0
352,64,9239,1,0
256,128,10760,1,0
256,192,11413,1,0
288,96,13478,5,0
288,160,14891,1,0
192,160,16304,1,0
192,224,17717,1,0
448,224,19130,1,0
448,64,19891,2,0,B|64:320,1,450
256,192,22608,1,4
256,208,23260,12,0,24456
384,64,36630,5,8
320,128,37065,1,8
256,192,37499,1,8
192,256,37934,1,8
256,208,38369,12,0,39456
256,192,39673,5,0
256,160,41847,1,0
128,128,43586,1,8
128,64,45326,2,0,B|128:288,1,200
224,192,46630,5,0
256,160,47681,5,0
288,160,47898,1,0
256,96,48804,1,0
160,96,49673,1,0
64,192,50543,2,0,B|288:192,1,200
320,96,53586,5,8
320,224,54021,1,0
256,160,54891,1,2
160,96,55326,1,0
160,224,55760,2,4,B|384:224|384:224,1,200
192,32,57499,1,0
128,128,57934,1,0
192,224,58369,1,0
320,192,58804,1,0
320,64,59239,2,0,B|160:192,1,200
256,192,60942,1,0
320,128,61847,1,0
256,96,62717,1,0
128,128,63586,1,0
192,160,64456,1,0
288,160,64891,1,0
288,96,65326,2,2,B|128:96,1,150
256,208,66304,12,0,69239
64,224,69673,6,0,B|288:224,1,200
352,224,70978,2,0,B|416:128,4,99.9999999999999
416,96,73152,2,0,B|96:96,1,300
96,160,74891,2,0,B|288:256,1,200
352,288,76195,1,0
480,192,76630,5,4
448,128,77065,1,4
416,192,77499,1,4
384,128,77934,1,4
352,192,78369,1,4
320,128,78804,1,4
288,192,79239,1,4
256,128,79673,1,4
224,192,80108,2,0,B|160:160,7,50
256,256,81847,5,4
320,256,82173,1,12
384,224,82391,2,0,B|448:288,1,74.9999999999999
384,160,83152,6,0,B|320:160,1,50
288,160,83586,1,8
384,96,83985,1,0
320,96,84202,2,0,B|288:32,1,62.4999999999999
224,96,84891,1,8
224,96,85072,1,8
160,96,85289,1,0
96,160,85507,2,0,B|256:160,1,150
416,192,86630,5,0
352,192,87065,1,0
256,192,87499,2,0,B|256:160|224:160|224:192|224:224|256:224|288:224|288:192|288:160|288:128|256:128|224:128|192:128|192:160|192:192|192:224|192:256|224:256|256:256|288:256|320:256|320:224|320:192|320:160|320:128|320:96|288:96|256:96|224:96|192:96,1,499.999999999999
256,192,90054,6,0,B|352:128,1,99.9999999999999
288,256,90923,2,0,B|384:192,1,99.9999999999999
480,224,91847,2,0,B|448:128,1,99.9999999999999
480,64,92499,1,0
352,64,92934,1,0
288,64,93152,1,0
256,192,93586,5,0
160,96,94456,2,0,B|128:160,5,50
96,192,95760,1,8
128,224,96195,1,8
160,192,96630,1,8
192,224,97065,6,0,B|288:160,1,99.9999999999999
256,256,97934,2,0,B|352:192,1,99.9999999999999
480,224,98804,2,0,B|448:128,1,99.9999999999999
480,64,99456,1,0
352,64,99891,1,0
288,64,100109,1,0
256,128,100543,6,0,B|192:224,1,99.9999999999999
192,288,101413,2,8,B|96:288|224:320,5,99.9999999999999
256,192,104021,5,0
256,256,104456,1,4
384,192,104891,5,0
384,256,105326,1,4
480,128,105760,5,8
448,64,106195,1,8
416,128,106630,1,8
384,64,107065,1,8
352,128,107499,1,8
320,32,107934,2,2,B|32:320,1,400
256,208,110326,12,0,111521
