osu file format v14

[General]
AudioFilename: Overkill.mp3
AudioLeadIn: 0
PreviewTime: 303817
Countdown: 0
SampleSet: Soft
StackLeniency: 0.7
Mode: 2
LetterboxInBreaks: 1
WidescreenStoryboard: 0

[Editor]
DistanceSpacing: 1.5
BeatDivisor: 4
GridSize: 8
TimelineZoom: 2.2

[Metadata]
Title:Overkill
TitleUnicode:Overkill
Artist:RIOT
ArtistUnicode:RIOT
Creator:Mrbinking
Version:KILL'EM ALL
Source:
Tags:electronic metal dubstep hardcore drumstep bass metalstep Monstercat Uncaged Vol. 6 volume edm
BeatmapID:1933361
BeatmapSetID:925599

[Difficulty]
HPDrainRate:7.2
CircleSize:4
OverallDifficulty:9.6
ApproachRate:9.6
SliderMultiplier:1.73
SliderTickRate:1

[Events]
//Background and Video events
0,0,"583353.jpg",0,0
//Break Periods
2,177499,182135
2,315213,315878
//Storyboard Layer 0 (Background)
//Storyboard Layer 1 (Fail)
//Storyboard Layer 2 (Pass)
//Storyboard Layer 3 (Foreground)
//Storyboard Sound Samples

[TimingPoints]
4886,344.827586206897,4,2,0,30,1,0
26954,-158.730158730159,4,2,0,30,0,0
60058,-136.986301369863,4,2,0,30,0,0
71092,-107.52688172043,4,2,0,30,0,0
93161,-81.3008130081301,4,2,0,30,0,0
104196,-107.52688172043,4,2,0,30,0,0
105230,-65.359477124183,4,2,0,30,0,0
106265,-188.679245283019,4,2,0,30,0,0
106610,-65.359477124183,4,2,0,30,0,0
107644,-188.679245283019,4,2,0,30,0,0
107989,-65.359477124183,4,2,0,30,0,0
109023,-75.187969924812,4,2,0,30,0,0
109713,-107.52688172043,4,2,0,30,0,0
110058,-88.4955752212389,4,2,0,30,0,0
110403,-75.187969924812,4,2,0,30,0,0
111092,-97.0873786407767,4,2,0,30,0,0
112127,-65.359477124183,4,2,0,30,0,1
116265,-54.6448087431694,4,2,0,30,0,0
116610,-75.187969924812,4,2,0,30,0,0
116954,-65.359477124183,4,2,0,30,0,0
117299,-65.359477124183,4,2,0,30,0,1
119368,-54.6448087431694,4,2,0,30,0,1
119713,-65.359477124183,4,2,0,30,0,1
121437,-54.6448087431694,4,2,0,30,0,0
122127,-75.187969924812,4,2,0,30,0,0
122472,-65.359477124183,4,2,0,30,0,0
122817,-54.6448087431694,4,2,0,30,0,0
123161,-65.359477124183,4,2,0,30,0,1
126954,-54.6448087431694,4,2,0,30,0,1
127299,-75.187969924812,4,2,0,30,0,1
127644,-81.3008130081301,4,2,0,30,0,0
131782,-65.359477124183,4,2,0,30,0,0
132127,-81.3008130081301,4,2,0,30,0,0
132817,-97.0873786407767,4,2,0,30,0,0
133506,-65.359477124183,4,2,0,30,0,0
133679,-97.0873786407766,4,2,0,30,0,0
134023,-65.359477124183,4,2,0,30,0,0
134196,-65.359477124183,4,2,0,30,0,1
138334,-54.6448087431694,4,2,0,30,0,0
138679,-65.359477124183,4,2,0,30,0,0
139023,-54.6448087431694,4,2,0,30,0,0
139368,-65.359477124183,4,2,0,30,0,1
141437,-54.6448087431694,4,2,0,30,0,0
141782,-65.359477124183,4,2,0,30,0,1
143506,-54.6448087431694,4,2,0,30,0,0
144196,-75.187969924812,4,2,0,30,0,0
144541,-65.359477124183,4,2,0,30,0,0
144886,-54.6448087431694,4,2,0,30,0,0
145230,-65.359477124183,4,2,0,30,0,1
149023,-49.2610837438424,4,2,0,30,0,0
149368,-75.187969924812,4,2,0,30,0,0
149713,-54.6448087431694,4,2,0,30,0,0
150058,-65.359477124183,4,2,0,30,0,1
152472,-54.6448087431694,4,2,0,30,0,1
152817,-65.359477124183,4,2,0,30,0,0
155230,-88.4955752212389,4,2,0,30,0,0
177299,-136.986301369863,4,2,0,30,0,0
188334,-107.52688172043,4,2,0,30,0,0
210058,-107.52688172043,4,2,0,5,0,0
210403,-107.52688172043,4,2,0,30,0,0
213161,-88.4955752212389,4,2,0,30,0,0
232472,-120.481927710843,4,2,0,30,0,0
236610,-97.0873786407767,4,2,0,30,0,0
242127,-61.3496932515337,4,2,0,30,0,0
243506,-75.187969924812,4,2,0,30,0,0
251782,-61.3496932515337,4,2,0,30,0,0
253161,-75.187969924812,4,2,0,30,0,0
254541,-97.0873786407767,4,2,0,30,0,0
254886,-75.187969924812,4,2,0,30,0,0
255230,-61.3496932515337,4,2,0,30,0,0
255575,-51.8134715025907,4,2,0,30,0,0
260058,-75.187969924812,4,2,0,30,0,0
265575,-54.6448087431694,4,2,0,30,0,0
266954,-54.6448087431694,4,2,0,30,0,0
267299,-61.3496932515337,4,2,0,30,0,1
271782,-75.187969924812,4,2,0,30,0,0
272127,-65.359477124183,4,2,0,30,0,0
272472,-54.6448087431694,4,2,0,30,0,0
272817,-61.3496932515337,4,2,0,30,0,1
277299,-54.6448087431694,4,2,0,30,0,0
277989,-75.187969924812,4,2,0,30,0,0
278334,-61.3496932515337,4,2,0,30,0,0
278679,-54.6448087431694,4,2,0,30,0,0
279023,-65.359477124183,4,2,0,30,0,1
283161,-54.6448087431694,4,2,0,30,0,0
283506,-61.3496932515337,4,2,0,30,0,0
284196,-61.3496932515337,4,2,0,30,0,1
286265,-54.6448087431694,4,2,0,30,0,0
286610,-65.359477124183,4,2,0,30,0,1
288334,-54.6448087431694,4,2,0,30,0,0
289023,-75.187969924812,4,2,0,30,0,0
289368,-61.3496932515337,4,2,0,30,0,0
289713,-54.6448087431694,4,2,0,30,0,0
290058,-61.3496932515337,4,2,0,30,0,1
293851,-49.2610837438424,4,2,0,30,0,0
294196,-75.187969924812,4,2,0,30,0,0
294541,-54.6448087431694,4,2,0,30,0,0
294886,-61.3496932515337,4,2,0,30,0,1
297299,-54.6448087431694,4,2,0,30,0,1
297644,-61.3496932515337,4,2,0,30,0,0
300058,-97.0873786407767,4,2,0,30,0,0
302127,422.535211267606,4,2,0,100,1,0

[HitObjects]
176,264,4886,5,0,0:0:0:0:
128,200,5058,5,0,0:0:0:0:
208,160,5230,5,0,0:0:0:0:
288,168,5403,5,0,0:0:0:0:
192,216,5575,5,0,0:0:0:0:
304,272,5748,5,0,0:0:0:0:
424,240,5920,5,0,0:0:0:0:
384,216,6092,5,0,0:0:0:0:
120,176,6265,5,0,0:0:0:0:
136,96,6437,5,0,0:0:0:0:
232,80,6610,5,0,0:0:0:0:
136,128,6782,5,0,0:0:0:0:
256,160,6954,5,0,0:0:0:0:
312,168,7127,5,0,0:0:0:0:
416,216,7299,5,0,0:0:0:0:
312,256,7472,5,0,0:0:0:0:
32,248,7644,5,0,0:0:0:0:
112,200,7817,5,0,0:0:0:0:
24,128,7989,5,0,0:0:0:0:
136,128,8161,5,0,0:0:0:0:
56,80,8334,5,0,0:0:0:0:
24,80,8506,5,0,0:0:0:0:
128,80,8679,5,0,0:0:0:0:
224,80,8851,5,0,0:0:0:0:
464,160,9023,5,0,0:0:0:0:
464,232,9196,5,0,0:0:0:0:
464,296,9368,5,0,0:0:0:0:
368,288,9541,5,0,0:0:0:0:
112,256,9713,5,0,0:0:0:0:
224,192,9886,5,0,0:0:0:0:
176,120,10058,5,0,0:0:0:0:
48,136,10230,5,0,0:0:0:0:
368,232,10403,5,0,0:0:0:0:
456,232,10575,5,0,0:0:0:0:
496,224,10748,5,0,0:0:0:0:
376,160,10920,5,0,0:0:0:0:
128,120,11092,5,0,0:0:0:0:
248,104,11265,5,0,0:0:0:0:
152,88,11437,5,0,0:0:0:0:
56,136,11610,5,0,0:0:0:0:
392,280,11782,5,0,0:0:0:0:
392,280,11954,5,0,0:0:0:0:
272,240,12127,5,0,0:0:0:0:
184,272,12299,5,0,0:0:0:0:
504,288,12472,5,0,0:0:0:0:
360,224,12644,5,0,0:0:0:0:
464,192,12817,5,0,0:0:0:0:
344,112,12989,5,0,0:0:0:0:
64,272,13161,5,0,0:0:0:0:
64,192,13334,5,0,0:0:0:0:
168,200,13506,5,0,0:0:0:0:
264,200,13679,5,0,0:0:0:0:
24,80,13851,5,0,0:0:0:0:
96,64,14023,5,0,0:0:0:0:
368,72,14196,5,0,0:0:0:0:
0,104,14368,5,0,0:0:0:0:
392,240,14541,5,0,0:0:0:0:
304,264,14713,5,0,0:0:0:0:
272,192,14886,5,0,0:0:0:0:
360,152,15058,5,0,0:0:0:0:
72,136,15230,5,0,0:0:0:0:
160,112,15403,5,0,0:0:0:0:
408,112,15575,5,0,0:0:0:0:
392,192,15748,5,0,0:0:0:0:
88,272,15920,5,0,0:0:0:0:
168,240,16092,5,0,0:0:0:0:
96,176,16265,5,0,0:0:0:0:
176,136,16437,5,0,0:0:0:0:
312,96,16610,5,0,0:0:0:0:
240,64,16782,5,0,0:0:0:0:
320,24,16954,5,0,0:0:0:0:
240,8,17127,5,0,0:0:0:0:
480,208,17299,5,0,0:0:0:0:
408,200,17472,5,0,0:0:0:0:
264,184,17644,5,0,0:0:0:0:
224,176,17817,5,0,0:0:0:0:
512,72,17989,5,0,0:0:0:0:
384,64,18161,5,0,0:0:0:0:
448,144,18334,5,0,0:0:0:0:
320,112,18506,5,0,0:0:0:0:
56,136,18679,5,0,0:0:0:0:
144,216,18851,5,0,0:0:0:0:
256,232,19023,5,0,0:0:0:0:
136,216,19196,5,0,0:0:0:0:
280,160,19368,5,0,0:0:0:0:
208,128,19541,5,0,0:0:0:0:
160,56,19713,5,0,0:0:0:0:
256,48,19886,5,0,0:0:0:0:
16,152,20058,5,0,0:0:0:0:
144,208,20230,5,0,0:0:0:0:
48,232,20403,5,0,0:0:0:0:
144,208,20575,5,0,0:0:0:0:
272,128,20748,5,0,0:0:0:0:
216,96,20920,5,0,0:0:0:0:
344,80,21092,5,0,0:0:0:0:
256,32,21265,5,0,0:0:0:0:
504,216,21437,5,0,0:0:0:0:
488,120,21610,5,0,0:0:0:0:
376,112,21782,5,0,0:0:0:0:
488,120,21954,5,0,0:0:0:0:
208,184,22127,5,0,0:0:0:0:
288,104,22299,5,0,0:0:0:0:
184,104,22472,5,0,0:0:0:0:
288,104,22644,5,0,0:0:0:0:
32,176,22817,5,0,0:0:0:0:
120,240,22989,5,0,0:0:0:0:
48,280,23161,5,0,0:0:0:0:
48,224,23334,5,0,0:0:0:0:
184,200,23506,5,0,0:0:0:0:
104,144,23679,5,0,0:0:0:0:
216,120,23851,5,0,0:0:0:0:
216,48,24023,5,0,0:0:0:0:
448,224,24196,5,0,0:0:0:0:
328,192,24368,5,0,0:0:0:0:
408,128,24541,5,0,0:0:0:0:
296,88,24713,5,0,0:0:0:0:
48,144,24886,5,0,0:0:0:0:
144,192,25058,5,0,0:0:0:0:
16,224,25230,5,0,0:0:0:0:
112,272,25403,5,0,0:0:0:0:
368,240,25575,6,0,L|304:216,1,43.25
168,152,25748,6,0,L|96:128,1,43.25
288,128,25920,6,0,L|400:112,1,86.5
120,200,26265,6,0,L|184:224,1,43.25
352,240,26437,6,0,L|416:264,1,43.25
96,120,26610,5,0,0:0:0:0:
360,272,26954,6,0,B|88:136|96:104|168:72|296:64|416:80|464:176|368:256|192:272|32:216|-16:128|-8:64|64:40|72:56,1,844.672474222642
400,104,29713,6,0,B|376:208|304:232|168:176|192:104|216:40|248:80|224:120|176:160|96:144,1,408.712487527085
352,288,31092,6,0,B|400:320|456:272|432:216|312:96|224:96|176:152|224:200|304:208,1,408.712487527085
144,296,32472,6,0,B|40:272|-8:200|8:88|80:64|160:72|216:104|176:160|56:192|-48:136|-16:56|64:24|160:32|240:40|328:136|520:160|224:232,1,844.672474222642
56,224,35230,6,0,B|48:112|112:64|248:96|280:192|544:248|184:272|-16:192|64:320|32:80|384:80,1,844.672474222642
144,72,37989,6,0,B|160:152|176:176|424:248|416:184|400:104|392:48|116:22|88:32|32:104|-24:160|-8:184|112:32|336:96|104:224,1,844.672474222642
328,304,40748,6,0,B|432:272|432:240|400:200|328:160|248:144|296:96|376:88|440:104|456:176,1,408.712487527085
240,224,42127,6,0,B|144:184|80:112|168:80|280:56|448:88|224:96,1,408.712487527085
440,256,43506,6,0,B|88:176|256:64|416:64|496:112|496:192|544:200|104:192|168:256|312:24|512:64,1,844.672474222642
168,144,46265,6,0,B|112:200|32:184|-8:312|-48:232|48:208|-56:96|64:80|176:72|192:96|200:192|160:384|96:344|-8:328|-48:288|-80:208|248:128|360:128|336:144|288:240,1,844.672474222642
88,288,49023,6,0,B|88:64|120:56|176:64|224:72|256:48|232:264|424:136|88:344|24:192|8:152|112:104|392:96,1,844.672474222642
136,264,51782,6,0,B|104:160|128:96|216:72|304:120|176:184|104:200|32:80,1,408.712487527085
216,80,53161,6,0,B|288:144|208:184|200:40|384:64|416:120|384:176|400:224|360:256|320:248|240:248,1,408.712487527085
48,248,54541,6,0,B|120:200|176:136|272:0|128:80|88:56|-24:104|56:160|144:176|96:328|304:216|408:40|112:152|200:48|432:80|496:224|264:312|104:320|24:280|192:192,1,871.919973391114
256,192,57386,12,0,59973,0:0:0:0:
80,208,60058,5,0,0:0:0:0:
296,144,60144,5,0,0:0:0:0:
296,144,60230,5,0,0:0:0:0:
392,200,60575,5,0,0:0:0:0:
112,112,60661,5,0,0:0:0:0:
112,112,60748,5,0,0:0:0:0:
264,192,61092,5,0,0:0:0:0:
352,280,61437,5,0,0:0:0:0:
192,320,61782,5,0,0:0:0:0:
48,224,62127,5,0,0:0:0:0:
176,184,62472,5,0,0:0:0:0:
368,200,62817,5,0,0:0:0:0:
120,120,62903,5,0,0:0:0:0:
120,120,62989,5,0,0:0:0:0:
416,88,63334,5,0,0:0:0:0:
152,96,63420,5,0,0:0:0:0:
152,96,63506,5,0,0:0:0:0:
352,224,63851,5,0,0:0:0:0:
280,296,64023,5,0,0:0:0:0:
32,224,64196,6,0,P|56:160|96:136,1,94.7175026014939
320,160,64541,6,0,L|368:160|304:160,1,94.7175026014939
64,176,64886,5,0,0:0:0:0:
184,208,65058,6,0,P|184:136|144:128,1,94.7175026014939
328,96,65403,6,0,L|296:100,1,31.5725008671646
88,80,65575,5,0,0:0:0:0:
344,176,65661,5,0,0:0:0:0:
344,176,65748,5,0,0:0:0:0:
464,256,66092,5,0,0:0:0:0:
88,160,66179,5,0,0:0:0:0:
88,160,66265,5,0,0:0:0:0:
192,168,66437,5,0,0:0:0:0:
232,88,66610,5,0,0:0:0:0:
96,80,66782,5,0,0:0:0:0:
176,104,66954,5,0,0:0:0:0:
288,104,67127,5,0,0:0:0:0:
24,216,67299,5,0,0:0:0:0:
128,248,67472,5,0,0:0:0:0:
64,136,67644,5,0,0:0:0:0:
384,112,67817,5,0,0:0:0:0:
304,152,67989,5,0,0:0:0:0:
432,216,68161,6,0,L|463:210,1,31.5725008671646
152,208,68334,5,0,0:0:0:0:
80,176,68420,5,0,0:0:0:0:
112,112,68506,5,0,0:0:0:0:
208,112,68592,5,0,0:0:0:0:
208,48,68679,5,0,0:0:0:0:
144,48,68765,5,0,0:0:0:0:
352,216,68851,5,0,0:0:0:0:
416,216,68937,5,0,0:0:0:0:
336,216,69023,6,0,L|280:216,1,31.5725008671646
104,168,69196,6,0,L|160:160,1,31.5725008671646
408,144,69368,6,0,L|360:120,1,31.5725008671646
216,184,69541,6,0,L|264:200,1,31.5725008671646
440,240,69713,6,0,L|480:240,3,31.5725008671646
304,168,70058,5,0,0:0:0:0:
240,112,70144,5,0,0:0:0:0:
344,96,70230,5,0,0:0:0:0:
392,48,70317,5,0,0:0:0:0:
88,152,70403,6,0,L|144:176,1,31.5725008671646
432,248,70575,5,0,0:0:0:0:
488,296,70661,5,0,0:0:0:0:
440,288,70748,5,0,0:0:0:0:
360,240,70834,5,0,0:0:0:0:
424,200,70920,5,0,0:0:0:0:
368,176,71006,5,0,0:0:0:0:
48,232,71092,6,0,P|72:152|120:136,1,120.667503774542
280,144,71437,6,0,L|352:136,1,40.2225012581807
400,88,71610,6,0,L|344:80,1,40.2225012581807
136,96,71782,6,0,P|152:136|240:160,1,120.667503774542
448,184,72127,6,0,L|410:198,1,40.2225012581807
232,208,72299,6,0,L|144:88,1,120.667503774542
352,120,72644,2,0,L|296:120,1,40.2225012581807
464,128,72817,2,0,B|488:192|480:224|400:240,1,120.667503774542
80,96,73161,2,0,L|80:160,1,40.2225012581807
240,152,73334,6,0,P|280:200|336:208,1,120.667503774542
56,192,73679,6,0,L|21:212,1,40.2225012581807
288,200,73851,6,0,L|280:152,1,40.2225012581807
376,128,74023,6,0,L|336:104,1,40.2225012581807
232,88,74196,6,0,L|280:72,1,40.2225012581807
360,56,74368,6,0,L|416:56,1,40.2225012581807
112,88,74540,6,0,L|256:56,1,120.667503774542
80,152,74886,6,0,L|136:168,1,40.2225012581807
376,128,75058,6,0,L|304:120,1,40.2225012581807
152,224,75230,5,0,0:0:0:0:
104,160,75317,5,0,0:0:0:0:
168,136,75403,5,0,0:0:0:0:
208,128,75489,5,0,0:0:0:0:
128,88,75575,5,0,0:0:0:0:
80,48,75661,5,0,0:0:0:0:
144,32,75748,5,0,0:0:0:0:
216,32,75834,5,0,0:0:0:0:
416,176,75920,5,0,0:0:0:0:
160,208,76092,5,0,0:0:0:0:
160,208,76179,5,0,0:0:0:0:
96,208,76265,1,0,0:0:0:0:
0,176,76437,6,0,L|56:168,1,40.2225012581807
264,176,76610,6,0,L|272:120,1,40.2225012581807
368,120,76782,6,0,L|368:56,1,40.2225012581807
456,48,76954,6,0,L|408:48,1,40.2225012581807
168,64,77127,6,0,L|232:56,1,40.2225012581807
424,160,77299,6,0,P|400:208|328:232,1,120.667503774542
128,168,77644,6,0,L|192:160,1,40.2225012581807
392,152,77817,6,0,L|504:104,1,120.667503774542
88,184,78161,2,0,L|136:176,1,40.2225012581807
352,128,78334,1,0,0:0:0:0:
336,168,78420,1,0,0:0:0:0:
296,200,78506,1,0,0:0:0:0:
240,216,78592,1,0,0:0:0:0:
48,80,78679,2,0,L|112:72,1,40.2225012581807
392,144,78851,6,0,P|368:200|288:224,1,120.667503774542
111,154,79196,6,0,L|72:160,1,40.2225012581807
424,192,79368,1,0,0:0:0:0:
432,192,79454,1,0,0:0:0:0:
424,192,79541,1,0,0:0:0:0:
440,192,79627,1,0,0:0:0:0:
424,192,79713,1,0,0:0:0:0:
448,192,79799,1,0,0:0:0:0:
424,192,79886,1,0,0:0:0:0:
456,192,79972,1,0,0:0:0:0:
240,200,80058,5,0,0:0:0:0:
280,200,80144,5,0,0:0:0:0:
312,200,80230,6,0,L|360:200,1,40.2225012581807
112,192,80403,6,0,L|112:136,1,40.2225012581807
360,128,80575,5,0,0:0:0:0:
192,96,80661,5,0,0:0:0:0:
24,168,80748,6,0,L|64:192,1,40.2225012581807
280,208,80920,6,0,L|328:224,1,40.2225012581807
112,128,81092,5,0,0:0:0:0:
416,112,81265,5,0,0:0:0:0:
64,72,81437,6,0,L|128:88,1,40.2225012581807
264,160,81610,6,0,L|216:104,1,40.2225012581807
72,128,81782,5,0,0:0:0:0:
480,128,81954,5,0,0:0:0:0:
248,216,82127,6,0,L|344:192,1,80.4450025163613
184,160,82472,6,0,L|144:144,1,40.2225012581807
0,112,82644,6,0,L|64:112,1,40.2225012581807
280,104,82817,6,0,P|272:144|192:192,1,120.667503774542
440,184,83161,6,0,L|480:168,1,40.2225012581807
256,160,83334,5,0,0:0:0:0:
320,144,83420,5,0,0:0:0:0:
376,128,83506,5,0,0:0:0:0:
112,112,83679,5,0,0:0:0:0:
232,96,83851,5,0,0:0:0:0:
184,96,83937,5,0,0:0:0:0:
136,96,84023,5,0,0:0:0:0:
384,176,84196,5,0,0:0:0:0:
56,224,84368,5,0,0:0:0:0:
8,224,84454,5,0,0:0:0:0:
56,280,84541,5,0,0:0:0:0:
120,224,84627,1,0,0:0:0:0:
264,200,84713,2,0,L|223:200,1,40.2225012581807
392,160,84886,6,0,L|280:128,1,80.4450025163613
256,120,85144,5,0,0:0:0:0:
480,128,85230,6,0,P|464:192|432:192,1,80.4450025163613
400,192,85489,5,0,0:0:0:0:
108,147,85575,6,0,L|184:176,1,80.4450025163613
240,200,85834,5,0,0:0:0:0:
64,80,85920,6,0,L|112:112,1,40.2225012581807
328,144,86092,5,0,0:0:0:0:
328,144,86179,5,0,0:0:0:0:
328,144,86265,5,0,0:0:0:0:
448,120,86437,5,0,0:0:0:0:
144,104,86610,5,0,0:0:0:0:
136,104,86696,5,0,0:0:0:0:
208,104,86782,5,0,0:0:0:0:
464,72,86954,5,0,0:0:0:0:
88,168,87127,5,0,0:0:0:0:
24,176,87213,5,0,0:0:0:0:
88,168,87299,5,0,0:0:0:0:
152,168,87386,5,0,0:0:0:0:
384,160,87472,6,0,L|320:144,1,40.2225012581807
80,160,87644,6,0,P|96:224|128:224,1,80.4450025163613
160,216,87903,5,0,0:0:0:0:
400,192,87989,6,0,L|304:152,1,80.4450025163613
264,152,88248,5,0,0:0:0:0:
416,104,88334,6,0,L|504:144,1,80.4450025163613
424,152,88592,5,0,0:0:0:0:
144,88,88679,6,0,L|208:104,1,40.2225012581807
400,192,88851,5,0,0:0:0:0:
384,240,88937,5,0,0:0:0:0:
336,248,89023,5,0,0:0:0:0:
104,160,89196,5,0,0:0:0:0:
304,136,89368,5,0,0:0:0:0:
264,184,89454,5,0,0:0:0:0:
208,192,89541,5,0,0:0:0:0:
464,200,89713,5,0,0:0:0:0:
160,136,89886,5,0,0:0:0:0:
112,104,89972,5,0,0:0:0:0:
56,72,90058,5,0,0:0:0:0:
136,48,90144,5,0,0:0:0:0:
392,96,90230,6,0,L|336:120,1,40.2225012581807
64,224,90403,5,0,0:0:0:0:
96,168,90489,5,0,0:0:0:0:
152,144,90575,5,0,0:0:0:0:
208,136,90661,5,0,0:0:0:0:
304,168,90748,5,0,0:0:0:0:
312,224,90834,5,0,0:0:0:0:
240,224,90920,5,0,0:0:0:0:
304,224,91006,5,0,0:0:0:0:
70,171,91092,6,0,L|94:123,1,40.2225012581807
296,96,91265,6,0,L|256:80,1,40.2225012581807
32,96,91437,5,0,0:0:0:0:
88,136,91523,5,0,0:0:0:0:
32,168,91610,5,0,0:0:0:0:
88,192,91696,5,0,0:0:0:0:
272,200,91782,6,0,L|328:184,1,40.2225012581807
488,144,91954,5,0,0:0:0:0:
128,128,92127,6,0,L|184:128,1,40.2225012581807
352,112,92299,5,0,0:0:0:0:
24,88,92472,6,0,L|88:72,1,40.2225012581807
280,128,92644,6,0,L|232:144,1,40.2225012581807
16,208,92817,6,0,L|80:224,1,40.2225012581807
496,208,92989,6,0,L|432:224,1,40.2225012581807
104,192,93161,6,0,L|240:192,2,106.395001623459
368,104,93679,6,0,L|256:104,2,106.395001623459
104,160,94196,5,0,0:0:0:0:
360,224,94368,5,0,0:0:0:0:
72,256,94541,6,0,L|200:224,2,106.395001623459
480,160,95058,6,0,L|352:128,1,106.395001623459
56,152,95403,6,0,L|120:136,1,53.1975008117294
360,136,95576,6,0,L|296:120,1,53.1975008117294
96,88,95748,5,0,0:0:0:0:
368,216,95920,6,0,L|240:216,2,106.395001623459
192,120,96437,6,0,L|64:120,2,106.395001623459
24,168,96954,5,0,0:0:0:0:
464,200,97127,5,0,0:0:0:0:
192,152,97299,6,0,L|304:128,2,106.395001623459
424,80,97817,1,0,0:0:0:0:
80,96,97989,1,0,0:0:0:0:
344,232,98161,2,0,L|290:232,1,53.1975008117294
488,120,98334,5,0,0:0:0:0:
368,128,98506,5,0,0:0:0:0:
72,224,98679,6,0,L|96:168,1,53.1975008117294
176,152,98851,6,0,L|232:144,1,53.1975008117294
328,120,99023,6,0,L|256:96,1,53.1975008117294
480,152,99196,6,0,L|416:192,1,53.1975008117294
344,240,99368,6,0,L|408:264,1,53.1975008117294
488,288,99541,6,0,L|424:312,1,53.1975008117294
224,224,99713,6,0,L|160:224,3,53.1975008117294
408,168,100058,6,0,L|336:144,1,53.1975008117294
192,128,100230,6,0,L|128:104,1,53.1975008117294
408,88,100403,6,0,L|336:72,1,53.1975008117294
56,152,100575,6,0,L|128:136,1,53.1975008117294
264,80,100748,6,0,L|336:64,1,53.1975008117294
64,72,100920,6,0,L|128:64,1,53.1975008117294
352,104,101092,6,0,L|432:128,3,53.1975008117294
168,200,101437,6,0,L|88:200,2,53.1975008117294
400,208,101696,5,0,0:0:0:0:
72,208,101782,6,0,L|0:216,2,53.1975008117294
232,208,102041,5,0,0:0:0:0:
384,168,102127,6,0,L|436:157,2,53.1975008117294
176,160,102386,5,0,0:0:0:0:
456,176,102472,6,0,L|508:165,2,53.1975008117294
136,104,102730,5,0,0:0:0:0:
392,112,102817,6,0,L|96:176,1,265.987504058647
504,216,103334,6,0,L|192:272,1,265.987504058647
32,160,103851,6,0,L|200:88,1,159.592502435188
400,216,104196,6,0,L|464:192,1,40.2225012581807
256,168,104368,6,0,L|208:160,1,40.2225012581807
504,120,104541,5,0,0:0:0:0:
498,139,104584,5,0,0:0:0:0:
489,157,104627,5,0,0:0:0:0:
475,171,104670,5,0,0:0:0:0:
459,183,104713,5,0,0:0:0:0:
440,190,104756,5,0,0:0:0:0:
420,192,104799,5,0,0:0:0:0:
248,144,104886,5,0,0:0:0:0:
254,125,104929,5,0,0:0:0:0:
263,107,104972,5,0,0:0:0:0:
277,93,105015,5,0,0:0:0:0:
293,81,105058,5,0,0:0:0:0:
312,74,105101,5,0,0:0:0:0:
332,72,105144,5,0,0:0:0:0:
168,232,105230,6,0,L|136:192,22,33.0862514893256
312,176,106265,6,0,L|384:176,1,68.7675001049309
120,152,106610,6,0,L|80:128,22,33.0862514893256
448,176,107644,6,0,L|376:176,1,68.7675001049309
48,104,107989,6,0,L|8:104,22,33.0862514893256
216,168,109023,6,0,L|312:168,1,57.5224976301461
440,104,109196,6,0,L|376:104,1,57.5224976301461
56,128,109368,6,0,L|152:128,1,57.5224976301461
288,64,109541,6,0,L|224:64,1,57.5224976301461
80,160,109713,6,0,L|216:192,1,120.667503774542
40,208,110058,6,0,L|216:248,1,146.617500447441
0,256,110403,6,0,L|408:320,1,402.657483411023
160,152,111092,6,0,B|104:104|104:88|232:88,1,133.642498878428
384,144,111437,6,0,L|304:136,1,44.5474996261425
32,128,111610,6,0,L|120:128,1,44.5474996261425
280,96,111782,5,0,0:0:0:0:
56,216,112127,6,0,L|136:216,1,66.1725029786512
344,144,112299,6,0,L|256:144,1,66.1725029786512
120,96,112472,6,0,L|208:96,1,66.1725029786512
440,72,112644,6,0,L|368:72,1,66.1725029786512
176,176,112817,6,0,L|256:176,1,66.1725029786512
472,152,112989,6,0,L|392:152,1,66.1725029786512
32,136,113161,6,0,L|104:136,1,66.1725029786512
328,96,113334,6,0,L|248:96,1,66.1725029786512
96,64,113506,6,0,L|200:64,1,66.1725029786512
376,80,113679,6,0,L|304:80,1,66.1725029786512
64,192,113851,6,0,L|160:192,1,66.1725029786512
464,152,114023,6,0,L|384:152,1,66.1725029786512
112,128,114196,6,0,L|216:128,1,66.1725029786512
328,128,114368,6,0,L|248:128,1,66.1725029786512
8,96,114541,6,0,L|104:96,1,66.1725029786512
400,104,114713,6,0,L|320:104,1,66.1725029786512
184,104,114886,6,0,L|256:104,1,66.1725029786512
488,64,115058,6,0,L|416:64,1,66.1725029786512
120,144,115230,6,0,L|208:144,1,66.1725029786512
416,128,115403,6,0,L|328:128,1,66.1725029786512
24,72,115575,6,0,L|112:72,1,66.1725029786512
464,64,115748,6,0,L|384:64,1,66.1725029786512
48,144,115920,6,0,L|128:144,1,66.1725029786512
328,144,116092,6,0,L|248:144,1,66.1725029786512
56,96,116265,6,0,L|328:72,1,237.442495742875
120,176,116610,5,0,0:0:0:0:
130,202,116653,1,0,0:0:0:0:
146,226,116696,1,0,0:0:0:0:
167,245,116739,1,0,0:0:0:0:
192,259,116782,1,0,0:0:0:0:
220,266,116825,1,0,0:0:0:0:
249,266,116868,1,0,0:0:0:0:
408,144,116954,6,0,L|176:128,1,198.517508935954
496,184,117299,6,0,P|416:72|344:72,1,198.517508935954
136,200,117644,6,0,P|233:193|210:88,1,198.517508935954
24,144,117989,6,0,L|104:144,1,66.1725029786512
304,120,118161,6,0,L|208:120,1,66.1725029786512
80,72,118334,6,0,L|288:72,1,198.517508935954
424,104,118679,6,0,L|312:280,1,198.517508935954
512,208,119023,6,0,P|475:294|368:344,1,198.517508935954
120,152,119368,5,0,0:0:0:0:
159,150,119411,1,0,0:0:0:0:
199,149,119454,1,0,0:0:0:0:
238,148,119497,1,0,0:0:0:0:
278,147,119540,1,0,0:0:0:0:
317,146,119583,1,0,0:0:0:0:
357,145,119626,1,0,0:0:0:0:
32,96,119713,6,0,L|128:96,1,66.1725029786512
352,80,119886,6,0,L|280:80,1,66.1725029786512
96,64,120058,6,0,L|184:64,1,66.1725029786512
488,64,120230,6,0,L|408:64,1,66.1725029786512
64,192,120403,6,0,L|160:192,1,66.1725029786512
496,192,120575,6,0,L|424:192,1,66.1725029786512
120,184,120748,6,0,L|200:184,1,66.1725029786512
336,112,120920,6,0,L|240:112,1,66.1725029786512
8,256,121092,6,0,L|80:256,1,66.1725029786512
384,232,121265,6,0,L|304:232,1,66.1725029786512
56,152,121437,6,0,L|344:120,1,237.442495742875
128,64,121782,6,0,L|384:40,1,237.442495742875
88,176,122127,6,0,L|216:48,1,172.567492890438
456,80,122472,6,0,L|368:80,1,66.1725029786512
128,80,122644,6,0,L|216:80,1,66.1725029786512
400,176,122817,6,0,L|104:152,1,237.442495742875
480,96,123161,6,0,L|400:96,1,66.1725029786512
160,96,123334,6,0,L|240:96,1,66.1725029786512
448,184,123506,6,0,L|360:184,1,66.1725029786512
56,184,123679,6,0,L|128:184,1,66.1725029786512
320,120,123851,6,0,L|240:120,1,66.1725029786512
0,96,124023,6,0,L|72:96,1,66.1725029786512
504,152,124196,6,0,L|416:152,1,66.1725029786512
232,136,124368,6,0,L|320:136,1,66.1725029786512
504,80,124541,6,0,L|432:80,1,66.1725029786512
16,72,124713,6,0,L|104:72,1,66.1725029786512
328,96,124886,5,0,0:0:0:0:
294,96,124929,5,0,0:0:0:0:
261,96,124972,5,0,0:0:0:0:
80,104,125058,6,0,L|160:104,1,66.1725029786512
384,176,125230,6,0,L|312:176,1,66.1725029786512
40,240,125403,6,0,L|112:240,1,66.1725029786512
504,184,125575,6,0,L|416:184,1,66.1725029786512
56,112,125748,6,0,L|152:112,1,66.1725029786512
432,88,125920,6,0,L|344:88,1,66.1725029786512
208,72,126092,6,0,L|296:72,1,66.1725029786512
512,72,126265,6,0,L|432:72,1,66.1725029786512
32,88,126437,6,0,L|120:88,1,66.1725029786512
504,184,126610,6,0,L|416:184,1,66.1725029786512
8,192,126782,6,0,L|80:192,1,66.1725029786512
360,168,126954,6,0,L|96:144,1,237.442495742875
360,168,127299,6,0,L|208:64,1,172.567492890438
448,152,127644,5,0,0:0:0:0:
224,104,127989,5,0,0:0:0:0:
320,104,128161,5,0,0:0:0:0:
48,176,128334,5,0,0:0:0:0:
480,136,128506,5,0,0:0:0:0:
216,248,128679,6,0,L|400:168,1,159.592502435188
88,144,129023,6,0,L|272:120,1,159.592502435188
448,192,129368,5,0,0:0:0:0:
400,264,129541,5,0,0:0:0:0:
120,200,129713,5,0,0:0:0:0:
416,104,129886,2,0,L|352:96,1,53.1975008117294
112,112,130058,1,0,0:0:0:0:
103,163,130144,1,0,0:0:0:0:
133,205,130230,1,0,0:0:0:0:
184,213,130316,1,0,0:0:0:0:
408,248,130403,6,0,P|408:176|304:120,1,159.592502435188
96,152,130748,5,0,0:0:0:0:
192,184,130920,5,0,0:0:0:0:
432,176,131092,6,0,L|360:160,1,53.1975008117294
120,112,131265,6,0,L|208:104,1,53.1975008117294
488,136,131437,6,0,L|400:120,1,53.1975008117294
208,80,131610,6,0,L|304:72,1,53.1975008117294
64,168,131782,6,0,L|264:136,1,198.517508935954
80,104,132127,6,0,B|448:32|272:48|136:96,1,372.382505682106
320,200,132817,6,0,L|360:200,4,22.2737498130713
48,160,133161,6,0,L|208:128,1,133.642498878428
480,136,133506,6,0,L|464:40,1,66.1725029786512
220,75,133679,6,0,L|88:96,1,133.642498878428
384,112,134023,6,0,L|360:40,1,66.1725029786512
48,80,134196,6,0,L|160:80,1,66.1725029786512
424,200,134368,6,0,L|352:200,1,66.1725029786512
96,192,134541,6,0,L|200:192,1,66.1725029786512
16,136,134713,6,0,L|96:136,1,66.1725029786512
352,120,134886,6,0,L|264:120,1,66.1725029786512
128,80,135058,6,0,L|208:80,1,66.1725029786512
456,232,135230,6,0,L|376:232,1,66.1725029786512
144,216,135403,6,0,L|232:216,1,66.1725029786512
456,112,135575,6,0,L|389:112,1,66.1725029786512
208,128,135748,6,0,L|274:128,1,66.1725029786512
24,72,135920,6,0,L|104:72,1,66.1725029786512
288,192,136092,6,0,L|221:192,1,66.1725029786512
400,128,136265,6,0,L|333:128,1,66.1725029786512
496,64,136437,6,0,L|429:64,1,66.1725029786512
88,136,136610,6,0,L|168:136,1,66.1725029786512
416,128,136782,6,0,L|328:128,1,66.1725029786512
136,72,136954,6,0,L|240:72,1,66.1725029786512
512,72,137127,6,0,L|440:72,1,66.1725029786512
112,200,137299,6,0,L|40:200,1,66.1725029786512
352,192,137472,6,0,L|418:192,1,66.1725029786512
224,128,137644,6,0,L|290:128,1,66.1725029786512
88,64,137817,6,0,L|16:64,1,66.1725029786512
440,208,137989,6,0,L|552:208,1,66.1725029786512
0,144,138161,6,0,L|104:144,1,66.1725029786512
320,160,138334,6,0,L|40:112,1,237.442495742875
424,112,138679,5,0,0:0:0:0:
390,109,138722,1,0,0:0:0:0:
357,107,138765,1,0,0:0:0:0:
324,104,138808,1,0,0:0:0:0:
291,102,138851,1,0,0:0:0:0:
258,100,138894,1,0,0:0:0:0:
225,97,138937,1,0,0:0:0:0:
16,168,139023,6,0,L|144:160,1,79.1474985809584
392,120,139196,6,0,L|256:112,1,79.1474985809584
56,120,139368,6,0,L|280:216,1,198.517508935954
48,232,139713,6,0,P|120:304|224:304,1,198.517508935954
512,176,140058,6,0,L|408:176,1,66.1725029786512
280,160,140230,6,0,L|200:160,1,66.1725029786512
40,112,140403,6,0,L|176:256,1,198.517508935954
440,144,140748,6,0,L|288:280,1,198.517508935954
512,224,141092,6,0,L|368:368,1,198.517508935954
40,160,141437,5,0,0:0:0:0:
79,160,141480,1,0,0:0:0:0:
119,160,141523,1,0,0:0:0:0:
158,160,141566,1,0,0:0:0:0:
198,160,141609,1,0,0:0:0:0:
237,160,141652,1,0,0:0:0:0:
277,160,141695,1,0,0:0:0:0:
488,144,141782,6,0,L|392:144,1,66.1725029786512
120,104,141954,6,0,L|208:104,1,66.1725029786512
504,256,142127,6,0,L|416:256,1,66.1725029786512
192,192,142299,6,0,L|288:192,1,66.1725029786512
88,128,142472,6,0,L|184:128,1,66.1725029786512
0,48,142644,6,0,L|96:48,1,66.1725029786512
368,152,142817,6,0,L|440:152,1,66.1725029786512
88,88,142989,6,0,L|160:88,1,66.1725029786512
488,80,143161,6,0,L|376:80,1,66.1725029786512
0,48,143334,6,0,L|88:48,1,66.1725029786512
432,200,143506,6,0,L|128:168,1,237.442495742875
496,128,143851,6,0,L|200:88,1,237.442495742875
24,104,144196,6,0,L|96:288,1,172.567492890438
312,256,144541,6,0,L|440:248,1,66.1725029786512
24,208,144713,6,0,L|120:192,1,66.1725029786512
376,160,144886,6,0,L|120:128,1,237.442495742875
400,216,145230,6,0,L|496:216,1,66.1725029786512
288,152,145403,6,0,L|376:152,1,66.1725029786512
16,120,145575,6,0,L|104:120,1,66.1725029786512
304,88,145748,6,0,L|224:88,1,66.1725029786512
48,64,145920,6,0,L|144:64,1,66.1725029786512
448,152,146092,6,0,L|344:152,1,66.1725029786512
24,192,146265,6,0,L|120:192,1,66.1725029786512
328,160,146437,6,0,L|256:160,1,66.1725029786512
464,112,146610,6,0,L|392:112,1,66.1725029786512
40,136,146782,6,0,L|128:136,1,66.1725029786512
496,200,146954,5,0,0:0:0:0:
462,200,146997,1,0,0:0:0:0:
429,200,147040,1,0,0:0:0:0:
200,192,147127,6,0,L|288:192,1,66.1725029786512
104,144,147299,6,0,L|192:144,1,66.1725029786512
8,96,147472,6,0,L|104:96,1,66.1725029786512
416,176,147644,6,0,L|304:176,1,66.1725029786512
128,128,147817,6,0,L|224:128,1,66.1725029786512
504,104,147989,6,0,L|432:104,1,66.1725029786512
8,88,148161,6,0,L|80:88,1,66.1725029786512
240,192,148334,6,0,L|152:192,1,66.1725029786512
328,120,148506,6,0,L|248:120,1,66.1725029786512
96,112,148679,6,0,L|162:112,1,66.1725029786512
0,40,148851,6,0,L|66:40,1,66.1725029786512
488,96,149023,6,0,L|227:132,1,263.392490555231
16,168,149368,6,0,L|136:24,1,172.567492890438
432,208,149713,5,0,0:0:0:0:
393,197,149756,5,0,0:0:0:0:
355,187,149799,5,0,0:0:0:0:
317,177,149842,5,0,0:0:0:0:
278,167,149885,5,0,0:0:0:0:
240,157,149928,5,0,0:0:0:0:
202,147,149971,5,0,0:0:0:0:
8,104,150058,6,0,L|88:104,1,66.1725029786512
392,96,150230,6,0,L|296:96,1,66.1725029786512
64,240,150403,6,0,L|304:240,1,198.517508935954
0,176,150748,6,0,L|208:176,1,198.517508935954
432,136,151092,6,0,L|344:136,1,66.1725029786512
80,128,151265,6,0,L|184:128,1,66.1725029786512
320,96,151437,6,0,L|544:96,1,198.517508935954
208,176,151782,6,0,L|152:176|328:176,1,198.517508935954
56,104,152127,6,0,L|0:104|143:104,1,198.517508935954
352,200,152472,5,0,0:0:0:0:
318,178,152515,5,0,0:0:0:0:
285,157,152558,5,0,0:0:0:0:
251,136,152601,5,0,0:0:0:0:
218,115,152644,5,0,0:0:0:0:
184,94,152687,5,0,0:0:0:0:
151,73,152730,5,0,0:0:0:0:
416,256,152817,6,0,L|320:256,1,66.1725029786512
104,176,152989,6,0,L|192:176,1,66.1725029786512
392,176,153161,6,0,P|352:72|248:56,1,198.517508935954
48,88,153506,6,0,L|144:112,1,66.1725029786512
344,112,153679,6,0,L|432:144,1,66.1725029786512
128,232,153851,5,0,0:0:0:0:
169,282,153937,5,0,0:0:0:0:
228,311,154023,5,0,0:0:0:0:
294,312,154109,5,0,0:0:0:0:
496,176,154196,5,0,0:0:0:0:
432,157,154282,5,0,0:0:0:0:
368,139,154368,5,0,0:0:0:0:
200,177,154454,6,0,L|136:192,2,66.1725029786512
400,112,154713,2,0,L|320:104,1,66.1725029786512
152,104,154886,6,0,L|248:88,1,66.1725029786512
0,72,155058,6,0,L|96:56,1,66.1725029786512
384,120,155230,5,0,0:0:0:0:
248,216,155403,1,0,0:0:0:0:
408,216,155575,2,0,L|408:320,1,97.7450002982941
88,176,155920,1,0,0:0:0:0:
320,288,156092,5,0,0:0:0:0:
200,256,156265,1,0,0:0:0:0:
448,192,156437,1,0,0:0:0:0:
152,168,156610,6,0,B|72:120|88:80|240:80,1,195.490000596588
344,112,157127,1,0,0:0:0:0:
88,176,157299,2,0,L|-8:264,1,97.7450002982941
400,181,157644,6,0,L|256:208,1,146.617500447441
74,141,157989,2,0,L|168:112,1,97.7450002982941
440,144,158334,2,0,L|354:97,1,97.7450002982941
16,176,158679,1,0,0:0:0:0:
320,128,158851,5,0,0:0:0:0:
208,176,159023,1,0,0:0:0:0:
96,224,159196,1,0,0:0:0:0:
376,240,159368,6,0,P|424:168|328:112,1,195.490000596588
296,96,159886,1,0,0:0:0:0:
24,112,160058,2,0,L|136:32,1,97.7450002982941
256,96,160403,6,0,L|144:208,1,146.617500447441
400,248,160748,2,0,P|440:223|448:176,1,97.7450002982941
288,184,161092,2,0,L|392:152,1,97.7450002982941
80,128,161437,1,0,0:0:0:0:
376,112,161610,5,0,0:0:0:0:
496,80,161782,1,0,0:0:0:0:
376,112,161954,1,0,0:0:0:0:
80,272,162127,6,0,L|96:152,1,97.7450002982941
248,160,162472,1,0,0:0:0:0:
144,112,162644,1,0,0:0:0:0:
400,192,162817,2,0,L|493:164,1,97.7450002982941
216,176,163161,6,0,L|96:144,1,97.7450002982941
400,96,163506,2,0,B|480:136|408:160|296:192,1,195.490000596588
152,224,164023,1,0,0:0:0:0:
488,128,164196,1,0,0:0:0:0:
256,128,164368,5,0,0:0:0:0:
160,64,164541,1,0,0:0:0:0:
312,56,164713,1,0,0:0:0:0:
72,128,164886,6,0,B|16:144|48:192|160:200,1,146.617500447441
320,192,165230,5,0,0:0:0:0:
88,120,165403,1,0,0:0:0:0:
496,96,165575,2,0,L|504:224,1,97.7450002982941
344,168,165920,6,0,L|260:116,1,97.7450002982941
96,120,166265,2,0,P|112:192|184:216,1,146.617500447441
432,176,166610,2,0,L|312:136,1,97.7450002982941
32,144,166954,1,0,0:0:0:0:
288,144,167127,5,0,0:0:0:0:
152,144,167299,1,0,0:0:0:0:
240,144,167472,1,0,0:0:0:0:
504,144,167644,6,0,P|456:224|344:248,1,195.490000596588
256,224,168161,1,0,0:0:0:0:
16,144,168334,2,0,L|144:128,1,97.7450002982941
424,104,168679,6,0,L|424:256,1,146.617500447441
208,168,169023,2,0,L|96:144,1,97.7450002982941
360,96,169368,5,0,0:0:0:0:
448,56,169541,1,0,0:0:0:0:
32,200,169713,1,0,0:0:0:0:
280,96,169886,5,0,0:0:0:0:
136,144,170058,1,0,0:0:0:0:
248,192,170230,1,0,0:0:0:0:
480,120,170403,6,0,B|584:88|488:40|384:64,1,195.490000596588
80,72,170920,1,0,0:0:0:0:
328,120,171092,1,0,0:0:0:0:
8,264,171265,1,0,0:0:0:0:
8,264,171437,6,0,L|168:264,1,146.617500447441
360,168,171782,1,0,0:0:0:0:
224,136,171954,2,0,L|360:112,2,97.7450002982941
480,72,172472,1,0,0:0:0:0:
160,168,172644,5,0,0:0:0:0:
160,232,172817,1,0,0:0:0:0:
264,232,172990,1,0,0:0:0:0:
496,224,173161,6,0,L|480:112,1,97.7450002982941
152,104,173506,2,0,L|55:122,1,97.7450002982941
352,160,173851,1,0,0:0:0:0:
112,152,174023,1,0,0:0:0:0:
488,168,174196,6,0,P|496:104|424:56,1,146.617500447441
112,232,174541,2,0,B|144:136|200:104|360:112,1,293.235000894882
80,112,175230,1,0,0:0:0:0:
344,80,175403,5,0,0:0:0:0:
232,80,175575,1,0,0:0:0:0:
120,80,175748,1,0,0:0:0:0:
448,176,175920,2,0,P|424:240|344:240,1,146.617500447441
152,208,176265,1,0,0:0:0:0:
168,208,176437,6,0,L|400:136,1,195.490000596588
504,104,176954,2,0,L|336:80,1,146.617500447441
152,112,177299,5,0,0:0:0:0:
104,184,182644,5,0,0:0:0:0:
176,168,182730,1,0,0:0:0:0:
432,184,182817,2,0,P|424:224|344:256,1,126.290003468659
200,208,183506,2,0,L|344:176,1,126.290003468659
200,120,184196,5,0,0:0:0:0:
96,104,184541,1,0,0:0:0:0:
152,48,184886,1,0,0:0:0:0:
352,104,185230,1,0,0:0:0:0:
192,216,185575,6,0,L|67:196,3,126.290003468659
256,152,186954,5,0,0:0:0:0:
464,128,187299,1,0,0:0:0:0:
48,136,187644,1,0,0:0:0:0:
88,264,188334,6,0,P|128:184|184:176,1,120.667503774542
376,152,188679,2,0,L|280:152,1,80.4450025163613
432,104,189023,1,0,0:0:0:0:
264,96,189196,1,0,0:0:0:0:
384,112,189368,6,0,P|360:208|304:216,1,160.890005032723
96,208,190058,1,0,0:0:0:0:
232,176,190230,1,0,0:0:0:0:
288,64,190403,1,0,0:0:0:0:
16,96,190575,6,0,L|88:80,1,40.2225012581807
240,96,190748,2,0,L|216:200,1,80.4450025163613
496,184,191092,6,0,L|328:264,1,160.890005032723
208,216,191610,1,0,0:0:0:0:
256,128,191782,1,0,0:0:0:0:
368,104,191954,1,0,0:0:0:0:
96,112,192127,5,0,0:0:0:0:
216,72,192299,1,0,0:0:0:0:
160,48,192386,1,0,0:0:0:0:
104,24,192472,1,0,0:0:0:0:
368,168,192644,5,0,0:0:0:0:
304,176,192817,1,0,0:0:0:0:
152,216,192989,1,0,0:0:0:0:
464,176,193161,5,0,0:0:0:0:
453,215,193247,1,0,0:0:0:0:
427,245,193333,1,0,0:0:0:0:
391,262,193419,1,0,0:0:0:0:
72,232,193506,5,0,0:0:0:0:
96,184,193592,1,0,0:0:0:0:
144,160,193679,1,0,0:0:0:0:
200,152,193765,1,0,0:0:0:0:
408,128,193851,6,0,L|424:264,1,120.667503774542
128,224,194196,2,0,L|203:251,1,80.4450025163613
40,176,194541,1,0,0:0:0:0:
152,128,194713,1,0,0:0:0:0:
48,112,194886,5,0,0:0:0:0:
352,144,195058,1,0,0:0:0:0:
16,64,195230,1,0,0:0:0:0:
112,80,195403,1,0,0:0:0:0:
392,176,195575,5,0,0:0:0:0:
288,144,195748,1,0,0:0:0:0:
248,56,195920,1,0,0:0:0:0:
512,48,196092,6,0,L|448:48,1,40.2225012581807
160,128,196265,1,0,0:0:0:0:
288,176,196437,1,0,0:0:0:0:
224,192,196523,1,0,0:0:0:0:
288,224,196610,6,0,L|400:208,1,80.4450025163613
120,184,196954,2,0,L|32:128,1,80.4450025163613
344,112,197299,2,0,L|296:112,1,40.2225012581807
120,32,197472,2,0,L|184:48,1,40.2225012581807
448,168,197644,5,0,0:0:0:0:
480,224,197730,1,0,0:0:0:0:
312,240,197817,1,0,0:0:0:0:
248,208,197903,1,0,0:0:0:0:
288,144,197989,1,0,0:0:0:0:
352,120,198075,1,0,0:0:0:0:
87,168,198161,2,0,L|128:168,1,40.2225012581807
288,88,198334,6,0,L|305:123,1,40.2225012581807
384,152,198506,2,0,L|398:189,1,40.2225012581807
88,120,198679,5,0,0:0:0:0:
32,104,198765,1,0,0:0:0:0:
112,128,198851,2,0,L|160:144,1,40.2225012581807
304,96,199023,5,0,0:0:0:0:
360,80,199109,1,0,0:0:0:0:
285,96,199195,2,0,L|237:112,1,40.2225012581807
448,128,199368,5,0,0:0:0:0:
450,147,199411,5,0,0:0:0:0:
449,168,199454,5,0,0:0:0:0:
446,187,199497,5,0,0:0:0:0:
440,206,199540,5,0,0:0:0:0:
431,224,199583,5,0,0:0:0:0:
420,241,199626,5,0,0:0:0:0:
406,256,199669,5,0,0:0:0:0:
390,269,199712,5,0,0:0:0:0:
373,279,199755,5,0,0:0:0:0:
355,287,199799,5,0,0:0:0:0:
335,292,199842,5,0,0:0:0:0:
315,294,199885,5,0,0:0:0:0:
295,293,199928,5,0,0:0:0:0:
275,290,199971,5,0,0:0:0:0:
48,168,200058,2,0,L|160:128,1,80.4450025163613
280,152,200403,2,0,P|256:192|184:224,1,120.667503774542
352,216,200748,2,0,L|496:200,1,120.667503774542
272,160,201092,5,0,0:0:0:0:
168,144,201265,1,0,0:0:0:0:
240,104,201437,1,0,0:0:0:0:
0,72,201610,2,0,L|64:72,1,40.2225012581807
304,64,201782,2,0,L|208:88,1,80.4450025163613
80,144,202127,6,0,P|72:176|216:280,1,241.335007549084
344,240,202817,1,0,0:0:0:0:
272,208,202989,1,0,0:0:0:0:
416,136,203161,2,0,L|240:136,1,160.890005032723
128,120,203851,6,0,L|232:120,1,80.4450025163613
352,168,204196,1,0,0:0:0:0:
256,200,204311,1,0,0:0:0:0:
216,120,204426,1,0,0:0:0:0:
400,96,204541,5,0,0:0:0:0:
464,144,204627,1,0,0:0:0:0:
408,200,204713,1,0,0:0:0:0:
328,200,204799,1,0,0:0:0:0:
32,224,204886,5,0,0:0:0:0:
31,203,204929,5,0,0:0:0:0:
34,183,204972,5,0,0:0:0:0:
39,164,205015,5,0,0:0:0:0:
47,145,205058,5,0,0:0:0:0:
57,128,205101,5,0,0:0:0:0:
69,112,205144,5,0,0:0:0:0:
83,98,205187,5,0,0:0:0:0:
99,85,205230,5,0,0:0:0:0:
116,75,205273,5,0,0:0:0:0:
134,67,205317,5,0,0:0:0:0:
154,62,205360,5,0,0:0:0:0:
174,59,205403,5,0,0:0:0:0:
194,59,205446,5,0,0:0:0:0:
214,61,205489,5,0,0:0:0:0:
456,216,205575,2,0,L|352:184,2,80.4450025163613
368,128,206092,1,0,0:0:0:0:
304,120,206179,1,0,0:0:0:0:
96,168,206265,6,0,P|112:232|208:264,1,160.890005032723
480,224,206782,1,0,0:0:0:0:
96,208,206954,1,0,0:0:0:0:
352,144,207127,2,0,L|311:144,1,40.2225012581807
16,112,207299,2,0,L|72:112,1,40.2225012581807
296,56,207472,6,0,L|256:56,1,40.2225012581807
64,176,207644,1,0,0:0:0:0:
200,184,207817,1,0,0:0:0:0:
144,224,207903,1,0,0:0:0:0:
80,240,207989,2,0,L|176:232,1,80.4450025163613
312,216,208334,5,0,0:0:0:0:
320,128,208506,1,0,0:0:0:0:
184,112,208679,1,0,0:0:0:0:
176,192,208851,1,0,0:0:0:0:
448,248,209023,5,0,0:0:0:0:
448,152,209196,1,0,0:0:0:0:
152,112,209368,1,0,0:0:0:0:
432,72,209541,1,0,0:0:0:0:
40,72,209713,6,0,L|224:96,1,160.890005032723
136,240,210403,2,0,L|176:160,1,80.4450025163613
280,136,210748,2,0,L|312:32,1,80.4450025163613
32,48,211092,6,0,L|136:56,2,80.4450025163613
184,128,211610,2,0,L|272:128,2,80.4450025163613
480,48,212127,6,0,L|376:56,2,80.4450025163613
328,128,212645,2,0,L|240:128,1,80.4450025163613
400,64,212989,2,0,L|336:64,1,40.2225012581807
63,200,213161,6,0,L|112:200,1,48.872500149147
296,200,213334,1,0,0:0:0:0:
343,189,213420,1,0,0:0:0:0:
391,178,213506,1,0,0:0:0:0:
288,120,213679,1,0,0:0:0:0:
40,176,213851,5,0,0:0:0:0:
160,112,214023,1,0,0:0:0:0:
32,56,214196,1,0,0:0:0:0:
288,184,214368,5,0,0:0:0:0:
416,120,214540,1,0,0:0:0:0:
280,64,214713,1,0,0:0:0:0:
8,96,214886,5,0,0:0:0:0:
88,96,215058,1,0,0:0:0:0:
168,96,215230,1,0,0:0:0:0:
472,208,215403,5,0,0:0:0:0:
360,240,215575,1,0,0:0:0:0:
8,232,215748,2,0,L|96:232,1,48.872500149147
352,176,215920,6,0,L|416:176,2,48.872500149147
112,160,216179,1,0,0:0:0:0:
40,152,216265,1,0,0:0:0:0:
40,96,216351,1,0,0:0:0:0:
112,80,216437,1,0,0:0:0:0:
160,80,216523,1,0,0:0:0:0:
376,208,216610,5,0,0:0:0:0:
328,144,216782,1,0,0:0:0:0:
208,128,216954,1,0,0:0:0:0:
480,64,217126,5,0,0:0:0:0:
344,64,217299,1,0,0:0:0:0:
480,64,217471,1,0,0:0:0:0:
424,64,217558,1,0,0:0:0:0:
208,192,217644,5,0,0:0:0:0:
320,192,217817,1,0,0:0:0:0:
376,192,217903,1,0,0:0:0:0:
120,176,217989,1,0,0:0:0:0:
424,80,218161,5,0,0:0:0:0:
320,64,218334,1,0,0:0:0:0:
80,112,218506,2,0,L|122:136,1,48.872500149147
488,176,218679,5,0,0:0:0:0:
474,222,218765,1,0,0:0:0:0:
437,253,218851,1,0,0:0:0:0:
389,259,218937,1,0,0:0:0:0:
200,224,219023,5,0,0:0:0:0:
112,184,219196,1,0,0:0:0:0:
392,168,219368,5,0,0:0:0:0:
152,88,219541,1,0,0:0:0:0:
448,56,219713,1,0,0:0:0:0:
0,88,219886,5,0,0:0:0:0:
256,120,220058,5,0,0:0:0:0:
312,160,220144,1,0,0:0:0:0:
256,200,220230,1,0,0:0:0:0:
192,200,220317,1,0,0:0:0:0:
392,248,220403,6,0,L|456:232,1,48.872500149147
96,128,220575,2,0,L|143:139,1,48.872500149147
424,160,220748,6,0,L|368:112,1,48.872500149147
288,112,220920,2,0,L|216:88,1,48.872500149147
504,112,221092,6,0,L|448:64,1,48.872500149147
368,64,221264,2,0,L|296:40,1,48.872500149147
120,168,221437,5,0,0:0:0:0:
64,192,221523,1,0,0:0:0:0:
48,240,221610,1,0,0:0:0:0:
112,248,221696,1,0,0:0:0:0:
328,224,221782,6,0,L|312:168,1,48.872500149147
216,128,221954,2,0,L|272:112,1,48.872500149147
504,104,222127,6,0,L|352:88,1,146.617500447441
358,88,222472,1,0,0:0:0:0:
120,144,222644,6,0,L|288:176,1,146.617500447441
264,171,222989,1,0,0:0:0:0:
8,152,223161,6,0,L|168:200,1,146.617500447441
148,194,223506,1,0,0:0:0:0:
392,160,223679,6,0,L|240:112,1,146.617500447441
408,72,224023,2,0,L|472:72,1,48.872500149147
224,152,224196,5,0,0:0:0:0:
152,152,224282,1,0,0:0:0:0:
152,224,224368,1,0,0:0:0:0:
224,224,224454,1,0,0:0:0:0:
0,128,224541,6,0,L|48:80,1,48.872500149147
200,72,224713,2,0,L|184:144,1,48.872500149147
376,240,224886,5,0,0:0:0:0:
440,208,224972,1,0,0:0:0:0:
392,160,225058,1,0,0:0:0:0:
328,152,225144,1,0,0:0:0:0:
512,88,225230,2,0,L|463:81,1,48.872500149147
56,128,225403,6,0,L|232:120,1,146.617500447441
202,121,225748,1,0,0:0:0:0:
480,96,225920,6,0,L|333:109,1,146.617500447441
333,109,226265,1,0,0:0:0:0:
24,56,226437,1,0,0:0:0:0:
440,192,226610,1,0,0:0:0:0:
64,136,226782,2,0,L|108:155,1,48.872500149147
384,168,226954,5,0,0:0:0:0:
440,144,227040,1,0,0:0:0:0:
416,96,227126,1,0,0:0:0:0:
360,72,227212,1,0,0:0:0:0:
208,168,227299,5,0,0:0:0:0:
152,144,227385,1,0,0:0:0:0:
176,96,227471,1,0,0:0:0:0:
232,72,227557,1,0,0:0:0:0:
432,200,227644,6,0,L|424:144,1,48.872500149147
128,128,227817,2,0,L|104:56,1,48.872500149147
280,64,227989,2,0,L|368:64,1,48.872500149147
88,120,228161,6,0,L|296:192,1,195.490000596588
408,128,228679,6,0,L|184:88,1,195.490000596588
488,56,229196,6,0,L|328:48,1,146.617500447441
64,136,229541,2,0,L|128:128,1,48.872500149147
288,192,229713,1,0,0:0:0:0:
280,240,229799,1,0,0:0:0:0:
248,272,229885,1,0,0:0:0:0:
200,288,229971,1,0,0:0:0:0:
48,216,230058,6,0,L|96:184,1,48.872500149147
184,152,230230,6,0,L|248:144,1,48.872500149147
48,128,230403,5,0,0:0:0:0:
0,104,230489,1,0,0:0:0:0:
0,56,230575,1,0,0:0:0:0:
47,27,230661,1,0,0:0:0:0:
320,80,230748,6,0,L|240:96,1,48.872500149147
176,112,230920,2,0,L|104:128,1,48.872500149147
400,176,231092,6,0,L|392:248,1,48.872500149147
496,248,231265,2,0,L|472:320,1,48.872500149147
168,184,231437,6,0,L|184:264,1,48.872500149147
280,232,231610,2,0,L|296:296,1,48.872500149147
48,184,231782,5,0,0:0:0:0:
408,112,231954,2,0,L|344:96,1,48.872500149147
112,80,232127,5,0,0:0:0:0:
448,184,232299,6,0,L|368:176,1,48.872500149147
64,248,232472,6,0,B|88:176|352:96|352:144|336:344|336:344|445:233|512:248|512:248|496:80|160:152,1,1076.92501561094
400,224,235230,1,0,0:0:0:0:
448,136,235403,1,0,0:0:0:0:
368,104,235575,1,0,0:0:0:0:
296,88,235748,1,0,0:0:0:0:
136,112,235920,6,0,P|152:168|240:200,1,143.590002081459
328,136,236610,5,0,0:0:0:0:
384,128,236696,1,0,0:0:0:0:
328,136,236782,1,0,0:0:0:0:
224,96,236954,5,0,0:0:0:0:
280,80,237041,1,0,0:0:0:0:
224,96,237127,1,0,0:0:0:0:
504,192,237299,5,0,0:0:0:0:
272,224,237472,1,0,0:0:0:0:
504,192,237644,1,0,0:0:0:0:
192,216,237817,1,0,0:0:0:0:
328,168,237989,6,0,L|152:136,1,178.18999850457
216,96,238506,1,0,0:0:0:0:
408,136,238679,2,0,L|320:200,1,89.094999252285
72,136,239023,5,0,0:0:0:0:
96,136,239196,1,0,0:0:0:0:
256,128,239368,1,0,0:0:0:0:
304,128,239540,1,0,0:0:0:0:
352,128,239713,5,0,0:0:0:0:
400,128,239886,1,0,0:0:0:0:
256,128,240058,1,0,0:0:0:0:
400,128,240230,1,0,0:0:0:0:
80,168,240403,2,0,L|240:120,1,133.642498878428
400,144,240748,5,0,0:0:0:0:
320,208,240920,1,0,0:0:0:0:
256,200,241006,1,0,0:0:0:0:
320,208,241092,5,0,0:0:0:0:
424,232,241207,1,0,0:0:0:0:
328,288,241322,1,0,0:0:0:0:
120,264,241437,5,0,0:0:0:0:
32,216,241552,1,0,0:0:0:0:
128,168,241667,1,0,0:0:0:0:
320,112,241782,5,0,0:0:0:0:
80,56,241897,1,0,0:0:0:0:
176,40,242012,1,0,0:0:0:0:
464,192,242127,6,0,L|32:136,2,422.984999677288
120,240,243506,6,0,L|120:168,1,57.5224976301461
224,160,243679,2,0,L|168:128,1,57.5224976301461
72,104,243851,6,0,L|128:96,1,57.5224976301461
296,96,244023,1,0,0:0:0:0:
304,151,244109,1,0,0:0:0:0:
272,197,244195,5,0,0:0:0:0:
217,210,244281,1,0,0:0:0:0:
400,256,244368,2,0,L|488:256,1,57.5224976301461
376,256,244541,6,0,L|312:256,1,57.5224976301461
400,256,244713,2,0,L|464:256,1,57.5224976301461
184,200,244886,6,0,L|184:120,1,57.5224976301461
280,112,245058,2,0,L|280:48,1,57.5224976301461
184,48,245230,6,0,L|120:48,1,57.5224976301461
384,64,245403,1,0,0:0:0:0:
440,64,245489,1,0,0:0:0:0:
384,64,245575,5,0,0:0:0:0:
328,64,245661,1,0,0:0:0:0:
88,192,245748,2,0,L|176:192,1,57.5224976301461
352,192,245920,6,0,L|280:192,1,57.5224976301461
88,192,246092,2,0,L|176:192,1,57.5224976301461
464,208,246265,6,0,L|488:136,1,57.5224976301461
400,128,246437,2,0,L|336:72,1,57.5224976301461
272,104,246610,6,0,L|360:112,1,57.5224976301461
96,144,246782,1,0,0:0:0:0:
32,136,246868,1,0,0:0:0:0:
32,72,246954,5,0,0:0:0:0:
96,56,247041,1,0,0:0:0:0:
320,200,247127,2,0,L|320:128,1,57.5224976301461
240,152,247299,6,0,L|240:88,1,57.5224976301461
320,72,247472,2,0,L|320:8,1,57.5224976301461
24,192,247644,2,0,L|88:192,1,57.5224976301461
272,192,247817,2,0,L|200:192,1,57.5224976301461
57,88,247989,2,0,L|0:88,1,57.5224976301461
272,96,248161,2,0,L|329:89,1,57.5224976301461
488,144,248334,6,0,L|424:168,1,57.5224976301461
192,208,248506,2,0,L|192:296,1,57.5224976301461
288,288,248679,6,0,L|224:288,1,57.5224976301461
24,216,248851,2,0,L|96:224,1,57.5224976301461
320,176,249023,6,0,L|392:176,3,57.5224976301461
224,128,249368,2,0,L|160:120,1,57.5224976301461
0,72,249541,6,0,L|72:72,3,57.5224976301461
216,80,249886,5,0,0:0:0:0:
296,104,249972,1,0,0:0:0:0:
368,144,250058,1,0,0:0:0:0:
432,208,250144,1,0,0:0:0:0:
344,224,250230,1,0,0:0:0:0:
256,224,250317,1,0,0:0:0:0:
424,272,250403,6,0,L|488:272,1,57.5224976301461
424,272,250575,2,0,L|472:208,1,57.5224976301461
184,160,250748,6,0,L|112:160,1,57.5224976301461
376,120,250920,2,0,L|312:120,1,57.5224976301461
376,120,251092,2,0,L|328:56,1,57.5224976301461
56,200,251265,6,0,L|64:120,1,57.5224976301461
256,136,251437,6,0,L|264:72,1,57.5224976301461
472,104,251610,6,0,L|488:32,1,57.5224976301461
104,192,251782,5,0,0:0:0:0:
173,180,251868,1,0,0:0:0:0:
242,168,251954,1,0,0:0:0:0:
312,156,252040,1,0,0:0:0:0:
96,104,252127,6,0,L|16:104,3,70.4974999462147
288,88,252472,5,0,0:0:0:0:
218,75,252558,1,0,0:0:0:0:
149,62,252644,1,0,0:0:0:0:
80,49,252730,1,0,0:0:0:0:
320,120,252817,6,0,L|400:120,3,70.4974999462147
40,224,253161,6,0,B|200:160|200:160|0:80,2,345.134985780877
400,216,254541,6,0,L|248:176,1,133.642498878428
72,160,254886,2,0,L|288:136,1,172.567492890438
472,112,255230,2,0,L|208:72,1,211.492499838644
80,200,255575,6,0,L|16:192,39,41.7362489969697
248,208,257299,6,0,L|296:208,44,41.7362489969697
480,176,259282,2,0,L|208:120,2,250.417493981818
152,208,260058,5,0,0:0:0:0:
240,200,260403,1,0,0:0:0:0:
152,208,260748,1,0,0:0:0:0:
240,200,261092,1,0,0:0:0:0:
80,224,261437,5,0,0:0:0:0:
336,184,261782,1,0,0:0:0:0:
80,224,262127,1,0,0:0:0:0:
336,184,262472,1,0,0:0:0:0:
48,192,262817,5,0,0:0:0:0:
160,160,262989,1,0,0:0:0:0:
48,192,263161,1,0,0:0:0:0:
160,160,263334,1,0,0:0:0:0:
464,192,263506,5,0,0:0:0:0:
352,160,263678,1,0,0:0:0:0:
464,192,263850,1,0,0:0:0:0:
352,160,264023,1,0,0:0:0:0:
72,200,264196,5,0,0:0:0:0:
0,200,264282,1,0,0:0:0:0:
80,200,264368,1,0,0:0:0:0:
152,200,264454,1,0,0:0:0:0:
440,200,264541,5,0,0:0:0:0:
512,200,264627,1,0,0:0:0:0:
432,200,264713,1,0,0:0:0:0:
360,200,264799,1,0,0:0:0:0:
128,136,264886,5,0,0:0:0:0:
88,136,264943,1,0,0:0:0:0:
48,136,265000,1,0,0:0:0:0:
8,136,265058,1,0,0:0:0:0:
48,136,265115,1,0,0:0:0:0:
88,136,265173,1,0,0:0:0:0:
384,136,265230,5,0,0:0:0:0:
424,136,265287,1,0,0:0:0:0:
464,136,265344,1,0,0:0:0:0:
504,136,265402,1,0,0:0:0:0:
464,136,265459,1,0,0:0:0:0:
424,136,265517,1,0,0:0:0:0:
64,160,265575,2,0,L|408:120,3,316.589994323834
480,192,266954,6,0,B|320:192|320:192|400:192,1,237.442495742875
80,176,267299,6,0,L|200:176,1,70.4974999462147
408,112,267472,6,0,L|312:112,1,70.4974999462147
136,136,267644,6,0,L|136:56,1,70.4974999462147
344,56,267817,6,0,L|264:56,1,70.4974999462147
464,152,267989,6,0,L|464:56,1,70.4974999462147
208,80,268161,6,0,L|288:80,1,70.4974999462147
8,184,268334,6,0,L|96:184,1,70.4974999462147
288,192,268506,6,0,L|208:192,1,70.4974999462147
24,128,268679,6,0,L|128:128,1,70.4974999462147
432,168,268851,6,0,L|432:80,1,70.4974999462147
224,96,269023,6,0,L|136:96,1,70.4974999462147
440,96,269196,6,0,L|360:96,1,70.4974999462147
88,160,269368,6,0,L|176:160,1,70.4974999462147
376,160,269541,6,0,L|456:160,1,70.4974999462147
96,240,269713,6,0,L|96:136,1,70.4974999462147
280,144,269886,6,0,L|176:144,1,70.4974999462147
424,96,270058,6,0,L|344:96,1,70.4974999462147
112,88,270230,6,0,L|112:168,1,70.4974999462147
320,224,270403,6,0,L|448:224,1,70.4974999462147
184,208,270575,6,0,L|184:288,1,70.4974999462147
464,224,270748,6,0,L|376:224,1,70.4974999462147
64,208,270920,6,0,L|64:288,1,70.4974999462147
256,136,271092,6,0,L|326:136,1,70.4974999462147
504,128,271265,6,0,L|416:128,1,70.4974999462147
112,128,271437,6,0,L|208:128,1,70.4974999462147
512,128,271610,6,0,L|424:128,1,70.4974999462147
104,216,271782,6,0,L|192:48,1,172.567492890438
40,120,272127,6,0,L|288:88,1,198.517508935954
480,136,272472,5,0,0:0:0:0:
440,141,272515,5,0,0:0:0:0:
401,146,272558,5,0,0:0:0:0:
362,151,272601,5,0,0:0:0:0:
323,157,272644,5,0,0:0:0:0:
283,162,272687,5,0,0:0:0:0:
244,167,272730,5,0,0:0:0:0:
16,240,272817,6,0,L|120:240,1,70.4974999462147
272,216,272989,6,0,L|360:216,1,70.4974999462147
48,128,273161,6,0,L|128:128,1,70.4974999462147
400,136,273334,6,0,L|480:136,1,70.4974999462147
200,192,273506,6,0,L|200:96,1,70.4974999462147
16,192,273679,6,0,L|16:96,1,70.4974999462147
384,176,273851,6,0,L|288:176,1,70.4974999462147
16,192,274023,6,0,L|16:112,1,70.4974999462147
336,272,274196,6,0,L|456:272,1,70.4974999462147
128,232,274368,6,0,L|40:232,1,70.4974999462147
304,208,274541,6,0,L|304:128,1,70.4974999462147
504,104,274713,6,0,L|416:104,1,70.4974999462147
64,104,274886,6,0,L|152:104,1,70.4974999462147
304,104,275058,6,0,L|304:192,1,70.4974999462147
8,176,275230,6,0,L|8:248,1,70.4974999462147
200,208,275403,6,0,L|128:208,1,70.4974999462147
504,176,275575,6,0,L|504:248,1,70.4974999462147
312,208,275748,6,0,L|384:208,1,70.4974999462147
40,200,275920,6,0,L|40:120,1,70.4974999462147
280,184,276092,6,0,L|280:112,1,70.4974999462147
24,56,276265,6,0,L|112:56,1,70.4974999462147
248,56,276437,6,0,L|336:56,1,70.4974999462147
504,72,276610,6,0,L|504:160,1,70.4974999462147
248,144,276782,6,0,L|248:232,1,70.4974999462147
494,208,276954,6,0,L|406:208,1,70.4974999462147
270,208,277126,6,0,L|182:208,1,70.4974999462147
0,152,277299,6,0,L|304:128,1,237.442495742875
504,96,277644,6,0,L|192:72,1,237.442495742875
64,80,277989,6,0,L|64:280,1,172.567492890438
280,240,278334,6,0,L|209:240,1,70.4974999462147
480,152,278506,6,0,L|409:152,1,70.4974999462147
56,200,278679,5,0,0:0:0:0:
95,200,278722,5,0,0:0:0:0:
135,200,278765,5,0,0:0:0:0:
174,200,278808,5,0,0:0:0:0:
214,200,278851,5,0,0:0:0:0:
253,200,278894,5,0,0:0:0:0:
293,200,278937,5,0,0:0:0:0:
496,136,279023,6,0,L|424:136,1,66.1725029786512
128,120,279196,6,0,L|224:120,1,66.1725029786512
416,80,279368,6,0,L|320:80,1,66.1725029786512
128,208,279541,6,0,L|208:208,1,66.1725029786512
8,136,279713,6,0,L|80:136,1,66.1725029786512
392,112,279886,6,0,L|296:112,1,66.1725029786512
8,64,280058,6,0,L|112:64,1,66.1725029786512
464,72,280230,6,0,L|360:72,1,66.1725029786512
184,112,280403,6,0,L|272:112,1,66.1725029786512
488,112,280575,6,0,L|400:112,1,66.1725029786512
224,192,280748,6,0,L|304:192,1,66.1725029786512
112,144,280920,6,0,L|200:144,1,66.1725029786512
0,80,281092,6,0,L|80:80,1,66.1725029786512
360,136,281265,6,0,L|272:136,1,66.1725029786512
8,160,281437,6,0,L|112:160,1,66.1725029786512
288,192,281610,6,0,L|208:192,1,66.1725029786512
400,144,281782,6,0,L|312:144,1,66.1725029786512
512,80,281954,6,0,L|432:80,1,66.1725029786512
72,160,282127,6,0,L|152:160,1,66.1725029786512
328,152,282299,6,0,L|256:152,1,66.1725029786512
8,160,282472,6,0,L|88:160,1,66.1725029786512
504,160,282644,6,0,L|408:160,1,66.1725029786512
192,160,282817,6,0,L|272:160,1,66.1725029786512
504,160,282989,6,0,L|416:160,1,66.1725029786512
80,200,283161,5,0,0:0:0:0:
82,160,283204,5,0,0:0:0:0:
97,124,283247,5,0,0:0:0:0:
122,93,283290,5,0,0:0:0:0:
155,71,283333,5,0,0:0:0:0:
193,61,283376,5,0,0:0:0:0:
232,62,283419,5,0,0:0:0:0:
488,144,283506,5,0,0:0:0:0:
453,148,283549,5,0,0:0:0:0:
418,152,283592,5,0,0:0:0:0:
383,157,283635,5,0,0:0:0:0:
348,161,283678,5,0,0:0:0:0:
313,165,283721,5,0,0:0:0:0:
278,170,283764,5,0,0:0:0:0:
32,96,283851,6,0,L|136:96,1,70.4974999462147
448,72,284023,6,0,L|344:72,1,70.4974999462147
72,216,284196,6,0,P|104:112|224:80,1,211.492499838644
448,128,284541,6,0,L|224:184,1,211.492499838644
488,200,284886,6,0,L|488:288,1,70.4974999462147
304,272,285058,6,0,L|216:272,1,70.4974999462147
48,176,285230,6,0,L|288:176,1,211.492499838644
48,88,285575,6,0,L|272:88,1,211.492499838644
440,96,285920,6,0,P|424:168|296:224,1,211.492499838644
56,152,286265,5,0,0:0:0:0:
95,146,286308,5,0,0:0:0:0:
134,140,286351,5,0,0:0:0:0:
173,134,286394,5,0,0:0:0:0:
212,128,286437,5,0,0:0:0:0:
251,122,286480,5,0,0:0:0:0:
290,116,286523,5,0,0:0:0:0:
64,72,286610,6,0,L|144:72,1,66.1725029786512
296,64,286782,6,0,L|224:64,1,66.1725029786512
496,64,286954,6,0,L|416:64,1,66.1725029786512
96,80,287127,6,0,L|224:80,1,66.1725029786512
456,192,287299,6,0,L|344:192,1,66.1725029786512
56,200,287472,6,0,L|160:200,1,66.1725029786512
368,176,287644,6,0,L|280:176,1,66.1725029786512
480,112,287817,6,0,L|408:112,1,66.1725029786512
144,176,287989,6,0,L|232:176,1,66.1725029786512
32,112,288162,6,0,L|104:112,1,66.1725029786512
432,216,288334,6,0,L|248:0,1,237.442495742875
448,72,288679,6,0,L|168:72,1,237.442495742875
456,144,289023,6,0,B|504:144|504:144|368:144,1,172.567492890438
160,168,289368,6,0,L|64:168,1,70.4974999462147
312,104,289541,6,0,L|224:104,1,70.4974999462147
488,96,289713,6,0,L|224:96,1,237.442495742875
40,192,290058,6,0,L|40:104,1,70.4974999462147
208,120,290230,6,0,L|208:40,1,70.4974999462147
376,208,290403,6,0,L|464:208,1,70.4974999462147
208,160,290575,6,0,L|312:160,1,70.4974999462147
32,112,290748,6,0,L|144:112,1,70.4974999462147
424,88,290920,6,0,L|312:88,1,70.4974999462147
80,72,291092,6,0,L|176:72,1,70.4974999462147
440,120,291265,6,0,L|440:192,1,70.4974999462147
240,200,291437,6,0,L|352:200,1,70.4974999462147
504,176,291610,6,0,L|400:176,1,70.4974999462147
128,208,291782,5,0,0:0:0:0:
92,208,291825,5,0,0:0:0:0:
57,208,291868,5,0,0:0:0:0:
336,144,291954,6,0,L|248:144,1,70.4974999462147
504,88,292127,6,0,L|416:88,1,70.4974999462147
32,120,292299,6,0,L|128:120,1,70.4974999462147
328,136,292472,6,0,L|400:136,1,70.4974999462147
160,112,292644,6,0,L|248:112,1,70.4974999462147
8,80,292817,6,0,L|88:80,1,70.4974999462147
336,80,292989,6,0,L|424:80,1,70.4974999462147
48,208,293161,6,0,L|48:136,1,70.4974999462147
216,192,293334,6,0,L|184:112,1,70.4974999462147
368,136,293506,6,0,L|280:96,1,70.4974999462147
512,144,293679,6,0,L|432:144,1,70.4974999462147
48,144,293851,6,0,L|344:144,1,263.392490555231
48,64,294196,6,0,L|240:64,1,172.567492890438
488,152,294541,5,0,0:0:0:0:
448,152,294584,5,0,0:0:0:0:
408,152,294627,5,0,0:0:0:0:
369,152,294670,5,0,0:0:0:0:
329,152,294713,5,0,0:0:0:0:
290,152,294756,5,0,0:0:0:0:
250,152,294799,5,0,0:0:0:0:
480,72,294886,6,0,L|408:72,1,70.4974999462147
128,64,295058,6,0,L|208:64,1,70.4974999462147
432,112,295230,6,0,L|200:240,1,211.492499838644
0,96,295575,6,0,L|208:132,1,211.492499838644
408,208,295920,6,0,L|320:208,1,70.4974999462147
64,208,296092,6,0,L|160:208,1,70.4974999462147
496,216,296265,6,0,B|344:216|344:216|408:216,1,211.492499838644
216,216,296610,6,0,B|64:216|64:216|128:216,1,211.492499838644
296,216,296954,6,0,B|448:216|448:216|384:216,1,211.492499838644
48,120,297299,5,0,0:0:0:0:
87,120,297342,5,0,0:0:0:0:
127,120,297385,5,0,0:0:0:0:
166,120,297428,5,0,0:0:0:0:
206,120,297471,5,0,0:0:0:0:
245,120,297514,5,0,0:0:0:0:
285,120,297557,5,0,0:0:0:0:
472,184,297644,6,0,L|400:176,1,70.4974999462147
144,128,297817,6,0,L|240:112,1,70.4974999462147
464,112,297989,6,0,P|416:184|296:208,1,211.492499838644
80,136,298334,6,0,L|160:120,1,70.4974999462147
344,80,298506,6,0,L|424:88,1,70.4974999462147
184,176,298679,6,0,L|112:176,3,70.4974999462147
352,160,299023,6,0,L|432:160,1,70.4974999462147
496,112,299196,6,0,L|424:112,1,70.4974999462147
232,72,299368,6,0,L|312:72,1,70.4974999462147
136,136,299541,6,0,L|224:136,1,70.4974999462147
16,88,299713,5,0,0:0:0:0:
432,144,299886,5,0,0:0:0:0:
80,208,300058,1,0,0:0:0:0:
208,200,300748,5,0,0:0:0:0:
240,192,300791,1,0,0:0:0:0:
272,168,300834,1,0,0:0:0:0:
240,144,300877,1,0,0:0:0:0:
40,144,300920,5,0,0:0:0:0:
152,256,302127,6,0,L|224:160,2,86.5
24,200,302760,2,0,L|128:144,1,86.5
192,128,303077,2,0,L|288:112,1,86.5
480,152,303394,2,0,P|464:216|352:264,1,173
232,240,304028,6,0,P|248:152|352:120,1,173
144,144,304662,1,0,0:0:0:0:
56,184,304873,1,0,0:0:0:0:
200,232,305084,6,0,L|280:224,1,43.25
432,144,305401,2,0,L|248:160,1,173
128,184,306246,1,0,0:0:0:0:
240,160,306457,6,0,L|304:152,1,43.25
472,184,306669,1,0,0:0:0:0:
392,248,306845,1,0,0:0:0:0:
272,232,306986,2,0,L|96:176,1,173
232,184,308993,6,0,L|384:144,1,129.75
280,104,309627,2,0,L|64:112,1,216.25
288,192,311211,6,0,L|296:96,1,86.5
152,112,311528,2,0,L|56:128,1,86.5
264,184,311845,2,0,B|120:240|328:240,1,173
256,184,313218,5,0,0:0:0:0:
368,136,313429,2,0,L|208:120,1,129.75
80,128,313852,2,0,L|232:232,1,173
432,200,314380,2,0,L|160:120,1,259.5
64,176,316387,6,0,L|176:144,1,86.5
408,176,316704,5,0,0:0:0:0:
256,192,316810,12,0,317866,0:0:0:0:
96,176,317972,5,0,0:0:0:0:
256,192,318077,12,0,342056,0:0:0:0:
