osu file format v4

[General]
AudioFilename: RF_Online - What shall I do.mp3
AudioLeadIn: 0
AudioHash: e00cd6991fdb2858cfbc9a2b18e35593
PreviewTime: -1
Countdown: 1
SampleSet: Soft

[Metadata]
Title:What shall I do
Artist:RF Online OST
Creator:DS-Deluxe
Version:Normal

[Difficulty]
HPDrainRate:6
CircleSize:5
OverallDifficulty:5
SliderMultiplier: 1.4
SliderTickRate: 1

[Events]
//Background and Video events
0,-100000,"Image17.jpg"
//Break Periods
2,47475,62700
2,114600,131200
//Storyboard Layer 0 (Background)
//Storyboard Layer 1 (Failing)
//Storyboard Layer 2 (Passing)
//Storyboard Layer 3 (Foreground)
//Storyboard Sound Samples
//Background Colour Transformations
3,0,163,162,255

[TimingPoints]
16330,500,4,2,0,100

[HitObjects]
256,88,16337,1,0
200,240,17837,5,0
256,240,18087,1,0
312,240,18337,1,0
64,136,19837,5,0
64,208,20337,2,0,B|64:208|64:344|288:344,1,280
376,296,21837,1,0
464,224,22337,1,0
256,40,23775,5,0
256,152,24275,2,0,B|256:152|256:312,3,140
88,328,26587,5,0
144,328,26837,1,0
200,328,27087,1,0
256,328,27337,1,0
480,328,28400,2,0,B|480:328|480:176|296:88|168:88,1,420
64,88,30337,1,0
64,200,30837,1,0
176,200,31337,1,0
176,96,31837,1,0
272,152,32400,6,0,B|272:152|424:304,1,210
464,336,33400,1,0
352,336,33837,5,0
296,336,34087,1,0
240,336,34337,1,0
48,224,35816,5,0
48,168,36066,1,0
256,56,37775,5,0
256,128,38275,2,0,B|256:128|256:280|48:280|40:280,1,280
48,280,39775,2,0,B|48:280|336:280,1,280
384,280,41275,1,0
384,168,41775,1,0
272,168,42275,1,0
152,168,42775,6,0,B|152:168|152:312,2,140
152,56,44275,1,0
264,56,44775,1,0
376,56,45275,1,0
376,168,45775,1,0
376,336,46525,5,0
320,336,46775,1,0
264,336,47025,1,0
208,336,47275,1,0
256,56,63837,5,0
256,112,64087,1,0
256,168,64337,2,0,B|256:168|104:168,1,140
120,280,65337,2,0,B|120:280|264:280,1,140
368,280,66337,1,0
424,88,67337,5,0
368,88,67587,1,0
312,88,67837,1,0
256,88,68087,1,0
200,88,68337,1,0
80,160,69087,5,0
120,192,69337,1,0
192,232,69837,1,0
272,264,70337,1,0
408,80,71816,5,0
352,80,72066,1,0
296,80,72316,2,0,B|296:80|384:312|104:312|200:72,1,420
248,144,74316,1,0
256,256,74816,1,0
144,256,75316,1,0
64,128,76400,2,0,B|64:128|64:32|448:32|448:128,1,420
384,192,78337,5,0
256,192,78837,1,0
128,192,79337,1,0
64,256,79900,2,0,B|64:256|90:351|448:352|448:256,1,420
256,192,81900,12,0,84400
88,88,86337,1,0
120,160,86775,1,0
152,208,87025,1,0
216,264,87525,1,0
384,264,88275,2,0,B|384:264|384:104|184:104,1,280
56,96,89775,1,0
56,208,90275,1,0
256,48,91566,5,0
256,104,91816,1,0
256,160,92066,1,0
256,216,92316,2,0,B|256:216|152:216|152:344|256:344|352:344|352:216|248:216,1,350
256,272,93816,5,0
256,160,94400,2,0,B|256:160|256:16,2,140
200,256,95837,1,0
312,256,96337,1,0
448,80,97337,5,0
336,80,97837,1,0
224,80,98337,2,0,B|224:80|80:80,1,140
88,192,99337,2,0,B|88:192|88:336,1,140
200,336,100337,1,0
312,336,100837,5,0
312,280,101087,1,0
312,224,101337,1,0
312,112,101837,5,0
424,112,102337,1,0
424,224,102837,1,0
432,336,103337,1,0
320,336,103837,1,0
320,224,104400,2,0,B|320:224|320:48|144:48,1,280
144,160,105900,5,0
144,216,106150,1,0
224,344,107587,5,0
280,344,107837,1,0
336,344,108087,1,0
392,344,108337,1,0
456,248,108816,1,0
456,192,109066,1,0
320,64,109837,5,0
208,64,110337,1,0
208,176,110837,1,0
320,176,111337,1,0
328,288,111837,1,0
216,288,112337,2,0,B|216:288|32:288|32:40|232:40,1,420
336,40,114337,1,0
400,144,132400,5,0
344,240,132900,1,0
296,272,133150,1,0
192,320,133650,1,0
80,192,134337,5,0
80,80,134837,1,0
192,80,135337,1,0
192,192,135837,1,0
192,304,136400,2,0,B|192:304|376:304|376:136,1,280
288,64,137837,5,0
176,64,138337,1,0
232,160,138900,1,0
232,216,139150,1,0
232,272,139400,1,0
344,280,139837,5,0
344,224,140087,1,0
344,168,140337,1,0
344,56,140837,1,0
232,56,141337,1,0
120,56,141837,2,0,B|120:56|120:216,3,140
120,304,143837,5,0
232,304,144337,1,0
232,192,144837,1,0
120,192,145337,1,0
120,80,145837,2,0,B|120:80|336:80|336:248,1,280
336,328,147337,5,0
336,328,147837,1,0
448,328,148337,1,0
448,216,148837,5,0
448,160,149087,1,0
448,104,149337,1,0
344,48,149816,1,0
288,48,150066,1,0
232,48,150316,1,0
232,144,150816,5,0
232,200,151066,1,0
232,256,151316,1,0
344,256,151837,2,0,B|344:256|416:256,2,70
344,128,152837,5,0
232,128,153400,2,0,B|232:128|80:128|80:328,1,280
192,320,154837,1,0
304,320,155337,1,0
472,264,156337,5,0
472,208,156587,1,0
472,152,156837,1,0
400,64,157337,2,0,B|400:64|64:64|64:264,1,420
64,240,159337,2,0,B|64:240|208:240,1,140
208,240,160337,2,0,B|208:240|360:240,1,140
424,160,161337,5,0
424,48,161837,1,0
312,48,162337,1,0
200,48,162837,5,0
200,104,163087,1,0
200,160,163337,1,0
256,208,163712,5,0
312,256,164025,1,0
368,304,164337,2,0,B|368:304|152:120,1,280
40,112,165837,1,0
40,224,166337,1,0
40,336,166837,5,0
96,336,167087,1,0
152,336,167337,1,0
208,336,167587,1,0
264,336,167837,1,0
392,224,168587,1,0
392,168,168837,1,0
328,72,169337,5,0
216,72,169837,1,0
216,184,170337,1,0
320,184,170837,5,0
320,184,171087,1,0
320,296,171566,1,0
256,296,171816,1,0
192,296,172066,1,0
128,296,172316,2,0,B|128:296|16:296|16:120,1,210
256,192,173587,12,0,176400
256,56,177525,1,0
256,56,177775,1,0
256,168,178275,1,0
256,280,178775,1,0
360,240,179275,1,0
456,184,179775,2,0,B|456:184|24:184,2,420
456,72,183337,1,0
344,72,183837,1,0
232,72,184337,2,0,B|232:72|232:360,2,280
344,72,186837,5,0
344,184,187337,1,0
232,184,187837,1,0
120,184,188337,2,0,B|120:184|120:312,1,122.5
248,304,189337,1,0
360,304,189837,1,0
416,304,190087,1,0
416,136,190837,5,0
360,136,191087,1,0
304,136,191337,1,0
176,136,191837,1,0
176,192,192087,1,0
176,248,192337,1,0
288,248,192837,1,0
288,248,193087,1,0
432,248,193837,5,0
432,192,194087,1,0
432,136,194337,2,0,B|432:136|432:32|272:32,1,210
224,32,195337,1,0
112,32,195837,1,0
112,144,196337,1,0
112,256,196837,5,0
168,256,197087,1,0
224,256,197337,1,0
336,256,197837,1,0
336,200,198087,1,0
336,144,198337,2,0,B|336:144|192:144,1,140
192,32,199337,2,0,B|192:32|336:32,1,140
440,40,200337,6,0,B|440:40|440:280|328:280,1,280
232,280,201837,1,0
176,280,202087,1,0
120,280,202337,1,0
120,168,202837,1,0
120,56,203337,1,0
232,56,203837,1,0
344,56,204337,2,0,B|344:56|344:352,1,280
232,344,205837,5,0
176,344,206087,1,0
176,176,206837,1,0
176,120,207087,1,0
176,64,207337,1,0
400,64,208337,5,0
400,176,208837,1,0
400,288,209337,1,0
288,288,209837,1,0
176,296,210337,2,0,B|176:296|176:32|448:32,1,420
432,144,212337,1,0
256,192,212837,12,0,216400
256,40,217337,1,0
256,96,217587,1,0
256,152,217837,1,0
256,208,218087,1,0
256,264,218337,1,0
144,264,218837,1,0
144,152,219337,1,0
288,64,220087,1,0
344,64,220337,2,0,B|344:64|344:208,3,140
424,280,222337,5,0
368,280,222587,1,0
312,280,222837,1,0
256,280,223087,1,0
200,280,223337,1,0
96,224,223837,1,0
96,168,224087,1,0
224,64,224837,1,0
280,64,225087,1,0
256,192,225837,12,4,230900
