osu file format v14

[General]
AudioFilename: No title.mp3
AudioLeadIn: 0
PreviewTime: 50132
Countdown: 0
SampleSet: Soft
StackLeniency: 0.7
Mode: 0
LetterboxInBreaks: 0
WidescreenStoryboard: 0

[Editor]
Bookmarks: 12032,31232,40682,50432,60032,69632,79232,88832,98432,117632,136832,156032,165632,176432,195632,214832,234032
DistanceSpacing: 1.2
BeatDivisor: 2
GridSize: 4
TimelineZoom: 1

[Metadata]
Title:No title
TitleUnicode:No title
Artist:REOL
ArtistUnicode:れをる
Creator:Sonnyc
Version:Hard
Source:
Tags:Sure ykcarrot Giga_p Hatsune Miku
BeatmapID:800488
BeatmapSetID:364692

[Difficulty]
HPDrainRate:5
CircleSize:4.5
OverallDifficulty:6
ApproachRate:6
SliderMultiplier:1
SliderTickRate:1

[Events]
//Background and Video events
0,0,"BG.jpg",0,0
//Break Periods
2,69832,78182
2,156231,164432
//Storyboard Layer 0 (Background)
//Storyboard Layer 1 (Fail)
//Storyboard Layer 2 (Pass)
//Storyboard Layer 3 (Foreground)
//Storyboard Sound Samples

[TimingPoints]
2432,300,4,2,18,50,1,0
12032,-100,4,2,19,50,0,0
50432,-100,4,2,18,60,0,1
55232,-100,4,2,18,60,0,0
60032,-100,4,2,18,60,0,1
64832,-100,4,2,18,60,0,0
69632,-100,4,2,19,60,0,0
98432,-100,4,2,18,60,0,0
117632,-100,4,2,18,60,0,1
122432,-100,4,2,18,60,0,0
127232,-100,4,2,18,60,0,1
132032,-100,4,2,18,60,0,0
136832,-100,4,2,18,60,0,1
141632,-100,4,2,18,60,0,0
146432,-100,4,2,18,60,0,1
151232,-100,4,2,18,60,0,0
156032,-100,4,2,19,60,0,0
176432,-100,4,2,18,60,0,1
195332,-100,4,2,18,60,0,0
195632,-100,4,2,18,60,0,1
214832,-100,4,2,18,60,0,0

[Colours]
Combo1 : 255,128,64
Combo2 : 128,255,128
Combo3 : 0,255,255
Combo4 : 255,0,128

[HitObjects]
144,102,2432,5,0,0:0:0:0:
104,231,2882,1,0,0:0:0:0:
238,202,3332,2,0,L|286:213,2,50,0|0|2,0:0|0:0|0:0,0:0:0:0:
372,180,4082,2,0,P|372:248|328:296,2,100
340,116,4832,5,2,0:0:0:0:
196,36,5282,2,0,P|140:36|96:84,2,100
168,104,6032,2,0,L|176:156,1,50,2|0,0:0|0:0,0:0:0:0:
244,240,6482,2,0,P|300:240|344:288,1,100,2|0,0:0|0:0,0:0:0:0:
273,308,6932,1,0,0:0:0:0:
376,344,7232,6,0,P|416:304|408:216,1,150,2|0,0:0|0:0,0:0:0:0:
328,72,8132,2,0,P|356:80|388:76,1,50
364,8,8432,2,0,P|424:24|436:120,1,150,2|0,0:0|0:0,0:0:0:0:
400,260,9332,1,8,0:0:0:0:
296,228,9632,6,0,L|152:268,2,150,2|2|2,0:0|0:0|0:0,0:0:0:0:
320,336,10832,2,2,L|176:376,2,150,0|0|8,0:0|0:0|0:0,0:0:0:0:
424,368,12032,5,4,0:0:0:0:
484,216,12482,2,0,P|404:216|376:136,1,150,0|2,0:0|0:0,0:0:0:0:
444,156,13082,2,0,P|460:148|516:152,1,50
356,52,13682,2,0,P|316:111|244:106,1,150,0|8,0:0|0:0,0:0:0:0:
156,172,14432,6,0,P|84:176|44:117,2,150,0|0|2,0:0|0:0|0:0,0:0:0:0:
256,216,15632,1,0,0:0:0:0:
216,320,15932,2,0,L|164:312,2,50
324,304,16532,1,8,0:0:0:0:
416,364,16832,6,0,P|432:296|388:212,1,150
456,68,17732,1,2,0:0:0:0:
348,60,18032,2,0,P|281:80|230:160,1,150
73,175,18932,1,10,0:0:0:0:
121,272,19232,2,0,P|171:319|266:323,2,150,0|0|2,0:0|0:0|0:0,0:0:0:0:
219,223,20432,2,0,P|336:264|356:352,1,200
444,256,21332,1,8,0:0:0:0:
472,148,21632,6,0,P|412:152|348:92,1,150,2|2,0:0|0:0,0:0:0:0:
196,152,22532,1,0,0:0:0:0:
128,128,22682,1,0,0:0:0:0:
140,200,22832,1,2,0:0:0:0:
20,312,23282,2,0,P|80:308|144:368,1,150,2|8,0:0|0:0,0:0:0:0:
232,304,24032,5,2,0:0:0:0:
388,352,24482,2,0,P|384:292|444:228,1,150,2|0,0:0|0:0,0:0:0:0:
392,132,25232,1,2,0:0:0:0:
416,64,25382,1,0,0:0:0:0:
316,20,25682,2,0,P|264:40|220:36,1,100,2|0,0:0|0:0,0:0:0:0:
152,16,26132,1,8,0:0:0:0:
88,108,26432,6,0,P|128:108|176:156,1,100,2|0,0:0|0:0,0:0:0:0:
108,176,26882,2,0,P|168:216|240:164,1,150,2|0,0:0|0:0,0:0:0:0:
292,92,27632,2,0,P|355:59|415:99,2,150,2|2|8,0:0|0:0|0:0,0:0:0:0:
348,188,28832,6,0,B|360:236|360:236|396:272|396:272|408:320,2,150,2|2|0,0:0|0:0|0:0,0:0:0:0:
272,264,30032,2,0,B|260:216|260:216|224:180|224:180|212:132,1,150,2|2,0:0|0:0,0:0:0:0:
192,64,30632,1,0,3:0:0:0:
88,104,30932,1,8,0:0:0:0:
99,31,31082,6,0,P|18:126|140:156,1,300,4|0,0:0|0:0,0:0:0:0:
228,88,32282,2,0,P|349:117|268:212,1,300,4|0,0:0|0:0,0:0:0:0:
372,256,33482,6,0,P|416:200|424:112,1,150,4|2,0:0|0:0,0:0:0:0:
408,16,34232,1,0,0:0:0:0:
304,56,34532,1,2,0:0:0:0:
304,56,34682,2,0,L|152:40,1,150,0|2,0:0|0:0,0:0:0:0:
72,112,35432,2,0,P|84:164|72:208,1,100,0|8,0:0|0:0,0:0:0:0:
28,264,35882,5,4,0:0:0:0:
116,332,36182,2,0,P|160:280|252:384,1,250,0|2,0:0|0:0,0:0:0:0:
188,348,37082,1,4,0:0:0:0:
420,200,37832,2,0,P|427:248|402:290,1,100,0|8,0:0|0:0,0:0:0:0:
354,234,38282,2,0,P|394:130|491:183,1,250,4|0,0:0|0:0,0:0:0:0:
300,292,39632,6,0,P|272:228|316:92,1,200,2|2,0:0|0:0,0:0:0:0:
192,124,40532,1,8,0:0:0:0:
144,68,40682,6,0,P|120:112|148:184,1,100,4|0,0:0|0:0,0:0:0:0:
160,224,41132,2,0,P|167:272|143:315,2,100,2|0|2,0:0|0:0|0:0,0:0:0:0:
96,260,41882,1,4,0:0:0:0:
108,380,42182,2,0,P|176:380|208:348,1,100,2|0,0:0|0:0,0:0:0:0:
244,304,42632,2,0,P|286:329|334:322,1,100,2|8,0:0|0:0,0:0:0:0:
300,256,43082,6,0,P|404:296|388:376,1,200,2|2,0:0|0:0,0:0:0:0:
476,276,43982,1,0,0:0:0:0:
452,208,44132,2,0,L|456:152,1,50,2|0,0:0|0:0,0:0:0:0:
460,84,44432,6,0,B|412:96|412:96|312:76,1,150,2|0,0:0|0:0,0:0:0:0:
244,96,45032,1,2,0:0:0:0:
272,212,45332,1,8,0:0:0:0:
244,280,45482,6,0,P|300:280|344:220,2,100,2|0|0,0:0|0:0|0:0,0:0:0:0:
172,264,46232,2,0,P|116:264|72:324,1,100,2|0,0:0|0:0,0:0:0:0:
144,332,46682,2,0,L|140:384,1,50,0|2,0:0|0:0,0:0:0:0:
32,236,47282,2,0,L|44:79,1,150,2|8,0:0|0:0,0:0:0:0:
160,116,48032,6,0,P|188:96|252:100,1,100,2|2,0:0|0:0,0:0:0:0:
216,164,48482,2,0,P|264:171|307:147,1,100,2|2,0:0|0:0,0:0:0:0:
340,80,48932,1,2,0:0:0:0:
424,164,49232,6,0,L|432:216,2,50,2|0|2,0:0|0:0|0:0,0:0:0:0:
336,248,49832,2,0,L|328:300,2,50,2|2|2,0:0|0:0|0:0,0:0:0:0:
264,256,50282,1,0,0:0:0:0:
192,264,50432,6,0,P|160:216|72:220,1,150,4|2,0:0|0:0,0:0:0:0:
44,40,51332,1,2,0:0:0:0:
116,56,51482,1,0,0:0:0:0:
188,72,51632,2,0,P|156:120|68:116,1,150,2|2,0:0|0:0,0:0:0:0:
32,184,52232,2,0,L|35:233,1,50
100,268,52532,2,0,L|96:317,1,50,10|0,0:0|0:0,0:0:0:0:
168,344,52832,6,0,B|171:294|171:294|175:254|199:230|231:222,1,150,4|2,0:0|0:0,0:0:0:0:
408,196,53732,1,2,0:0:0:0:
352,148,53882,1,0,0:0:0:0:
422,124,54032,2,0,B|454:132|478:156|482:196|482:196|485:245,1,150,2|2,0:0|0:0,0:0:0:0:
384,312,54782,2,0,L|380:361,2,50,0|2|0,0:0|0:0|0:0,0:0:0:0:
312,312,55232,6,0,P|280:272|224:264,1,100,0|2,0:0|0:0,0:0:0:0:
244,332,55682,2,0,P|184:312|196:204,1,150,0|2,0:0|0:0,0:0:0:0:
196,168,56282,1,0,0:0:0:0:
221,102,56432,2,0,P|213:30|147:3,2,150,0|2|10,0:0|0:0|0:0,0:0:0:0:
336,72,57632,5,0,0:0:0:0:
404,92,57782,1,0,0:0:0:0:
353,142,57932,1,2,0:0:0:0:
380,260,58232,2,0,P|340:248|280:280,1,100,0|2,0:0|0:0,0:0:0:0:
172,232,58832,2,0,P|127:253|80:241,1,100,0|2,0:0|0:0,0:0:0:0:
120,181,59282,2,0,P|165:160|212:172,1,100,0|2,0:0|0:0,0:0:0:0:
268,216,59732,1,10,0:0:0:0:
380,176,60032,6,0,B|376:224|376:224|388:276|388:276|384:324,2,150,4|2|2,0:0|0:0|0:0,0:0:0:0:
308,164,61082,1,0,0:0:0:0:
236,152,61232,2,0,B|240:200|240:200|228:252|228:252|232:300,1,150,2|2,0:0|0:0,0:0:0:0:
240,372,61832,1,0,0:0:0:0:
124,344,62132,1,8,0:0:0:0:
56,244,62432,6,0,B|60:196|60:196|48:144|48:144|52:96,2,150,2|2|2,0:0|0:0|0:0,0:0:0:0:
128,232,63482,1,0,0:0:0:0:
200,220,63632,2,0,B|196:172|196:172|208:120|208:120|204:72,2,150,2|2|8,0:0|0:0|0:3,0:0:0:0:
319,199,64832,6,0,P|374:247|441:224,1,150,2|2,0:0|0:0,0:0:0:0:
479,162,65432,2,0,P|430:152|387:176,2,100,0|2|2,0:0|0:0|0:0,0:0:0:0:
384,88,66332,1,0,0:0:0:0:
312,96,66482,2,0,P|252:144|176:96,1,150,2|2,0:0|0:0,0:0:0:0:
80,172,67232,6,0,L|28:164,2,50,0|0|2,0:0|0:0|0:0,0:0:0:0:
140,212,67682,1,0,0:0:0:0:
200,252,67832,2,0,L|249:244,2,50,0|0|2,0:0|0:0|0:0,0:0:0:0:
304,312,68432,6,0,B|340:284|352:224|308:180|308:180|264:136|252:84|280:20|352:12|408:32|416:92,1,400,2|4,0:0|0:1,0:0:0:0:
302,256,79232,6,0,P|362:272|422:188,2,150,4|0|8,0:0|0:0|0:0,0:0:0:0:
210,196,80432,2,0,P|150:212|90:128,2,150,0|0|8,0:0|0:0|0:0,0:0:0:0:
272,104,81632,5,0,0:0:0:0:
404,200,82082,2,0,B|404:252|380:272|356:292|356:344,1,150,0|8,0:0|0:0,0:0:0:0:
468,340,82832,1,0,0:0:0:0:
292,200,83282,2,0,L|142:200,1,150,8|8,0:0|0:0,0:0:0:0:
49,146,84032,6,0,P|105:98|178:99,2,150,0|0|8,0:0|0:0|0:0,0:0:0:0:
49,253,85232,2,0,P|105:300|178:299,2,150,0|0|8,0:0|0:0|0:0,0:0:0:0:
142,200,86432,5,0,0:0:0:0:
296,260,86882,2,0,P|272:216|296:124,1,150,0|8,0:0|0:0,0:0:0:0:
408,124,87632,2,0,P|432:168|408:260,2,150,0|8|8,0:0|0:0|0:0,0:0:0:0:
352,76,88682,1,0,0:0:0:0:
296,28,88832,1,0,0:0:0:0:
204,84,89132,6,0,P|176:132|88:132,1,150,2|0,0:0|0:0,0:0:0:0:
132,72,89732,2,0,L|120:24,2,50,8|0|2,0:0|0:0|0:0,0:0:0:0:
240,176,90332,1,0,0:0:0:0:
240,176,90482,2,0,P|311:167|354:224,1,150,2|8,0:0|0:0,0:0:0:0:
460,192,91232,6,0,P|460:196|508:332,2,150,0|2|8,0:0|0:0|0:0,0:0:0:0:
460,80,92432,2,0,P|420:104|368:92,1,100,2|0,0:0|0:0,0:0:0:0:
304,60,92882,2,0,P|255:111|188:88,1,150,8|8,0:0|0:0,0:0:0:0:
108,164,93632,5,2,0:0:0:0:
108,164,93782,2,0,L|152:256,1,100,0|2,0:0|0:0,0:0:0:0:
184,320,94232,2,0,L|316:320,1,100,0|8,0:0|0:0,0:0:0:0:
360,244,94832,1,2,0:0:0:0:
308,148,95132,1,0,0:0:0:0:
308,148,95282,2,0,P|412:148|456:196,1,150,2|8,0:0|0:0,0:0:0:0:
360,244,96032,6,0,P|256:244|256:52,1,300,2|8,0:0|0:0,0:0:0:0:
308,12,97232,2,0,L|460:12,2,150,2|8|8,0:0|0:0|0:0,0:0:0:0:
248,56,98282,1,0,0:0:0:0:
268,128,98432,5,4,0:0:0:0:
300,244,98732,2,0,P|260:244|212:284,2,100,2|0|2,0:0|0:0|0:0,0:0:0:0:
372,260,99482,1,0,0:0:0:0:
428,308,99632,1,0,0:0:0:0:
464,192,99932,1,2,0:0:0:0:
484,120,100082,2,0,P|444:120|396:80,1,100
464,48,100532,1,10,0:0:0:0:
324,68,100832,5,0,0:0:0:0:
277,124,100982,1,0,0:0:0:0:
252,56,101132,1,2,0:0:0:0:
148,112,101432,2,0,L|136:164,2,50,0|0|2,0:0|0:0|0:0,0:0:0:0:
72,108,101882,1,0,0:0:0:0:
64,180,102032,2,0,P|96:224|164:228,1,100,2|0,0:0|0:0,0:0:0:0:
212,224,102482,2,0,P|192:288|96:300,1,150,2|8,0:0|0:0,0:0:0:0:
256,332,103232,5,2,0:0:0:0:
328,344,103382,1,0,0:0:0:0:
400,332,103532,1,2,0:0:0:0:
376,216,103832,2,0,P|328:204|280:216,1,100,2|0,0:0|0:0,0:0:0:0:
164,180,104432,5,2,0:0:0:0:
92,192,104582,1,0,0:0:0:0:
20,180,104732,1,2,0:0:0:0:
44,64,105032,2,0,P|92:52|140:64,1,100,2|8,0:0|0:0,0:0:0:0:
260,44,105632,6,0,P|292:68|360:56,1,100,0|2,0:0|0:0,0:0:0:0:
364,183,106232,2,0,P|327:198|303:263,1,100,0|2,0:0|0:0,0:0:0:0:
191,204,106832,2,0,P|195:164|135:107,1,100,0|2,0:0|0:0,0:0:0:0:
125,177,107282,2,0,P|132:244|236:260,1,150,0|10,0:0|0:0,0:0:0:0:
320,256,108032,6,0,P|392:256|460:328,1,150,0|2,0:0|0:0,0:0:0:0:
449,303,108632,1,0,0:0:0:0:
356,360,108932,1,2,0:0:0:0:
356,360,109082,2,0,P|284:360|216:288,1,150,0|2,0:0|0:0,0:0:0:0:
200,244,109682,1,0,0:0:0:0:
260,140,109982,2,0,L|252:88,1,50,0|8,0:0|0:0,0:0:0:0:
140,56,110432,6,0,P|68:60|33:123,1,150,2|0,0:0|0:0,0:0:0:0:
51,197,111032,2,0,P|92:170|108:124,1,100,2|0,0:0|0:0,0:0:0:0:
220,168,111632,2,0,P|235:121|276:94,1,100,2|0,0:0|0:0,0:0:0:0:
296,168,112082,1,0,0:0:0:0:
315,241,112232,2,0,P|356:214|372:168,1,100,0|8,0:0|0:0,0:0:0:0:
416,280,112832,6,0,P|372:316|280:328,1,150,2|0,0:0|0:0,0:0:0:0:
208,308,113432,2,0,P|134:313|73:356,1,150,2|0,0:0|0:0,0:0:0:0:
73,356,114032,1,2,0:0:0:0:
100,240,114332,2,0,L|88:192,1,50,0|2,0:0|0:0,0:0:0:0:
156,24,114932,1,8,0:0:0:0:
238,113,115232,6,0,P|270:137|346:125,1,100,2|0,0:0|0:0,0:0:0:0:
298,69,115682,2,0,P|358:69|358:203,1,200,2|0,0:0|0:0,0:0:0:0:
328,236,116432,1,2,0:0:0:0:
184,136,117332,5,2,0:0:0:0:
184,136,117482,1,0,0:0:0:0:
184,136,117632,2,0,L|184:236,1,100,4|2,0:0|0:0,0:0:0:0:
256,236,118082,2,0,L|256:136,1,100,2|0,0:0|0:0,0:0:0:0:
328,136,118532,2,0,L|328:236,1,100,0|2,0:0|0:0,0:0:0:0:
328,356,119132,1,0,0:0:0:0:
328,356,119282,2,0,P|296:368|184:356,1,150,2|8,0:0|0:0,0:0:0:0:
108,260,120032,6,0,P|98:211|113:164,1,100,2|0,0:0|0:0,0:0:0:0:
166,113,120482,2,0,P|210:101|262:113,1,100,2|0,0:0|0:0,0:0:0:0:
315,164,120932,2,0,P|329:207|320:259,1,100,2|2,0:0|0:0,0:0:0:0:
214,367,121532,1,0,0:0:0:0:
214,367,121682,2,0,L|214:217,1,150,2|8,0:0|0:0,0:0:0:0:
288,124,122432,6,0,L|336:136,1,50,2|0,0:0|0:0,0:0:0:0:
388,192,122732,1,0,0:0:0:0:
452,236,122882,2,0,L|500:248,2,50,2|0|0,0:0|0:0|0:0,0:0:0:0:
384,268,123332,1,2,0:0:0:0:
316,300,123482,1,0,0:0:0:0:
248,268,123632,2,0,P|248:332|292:372,1,100,2|0,0:0|0:0,0:0:0:0:
336,384,124082,1,2,0:0:0:0:
436,320,124382,1,0,0:0:0:0:
508,336,124532,1,8,0:0:0:0:
480,220,124832,6,0,P|392:220|340:268,2,150,2|2|2,0:0|0:0|0:0,0:0:0:0:
404,124,126032,2,0,P|452:128|500:108,1,100,2|0,0:0|0:0,0:0:0:0:
433,7,126632,1,2,0:0:0:0:
316,40,126932,2,0,L|280:76,1,50,10|0,0:0|0:0,0:0:0:0:
319,138,127232,6,0,P|263:147|222:122,1,100,4|2,0:0|0:0,0:0:0:0:
180,190,127682,2,0,P|215:232|214:281,1,100,2|0,0:0|0:0,0:0:0:0:
295,283,128132,2,0,P|314:230|356:207,1,100,2|2,0:0|0:0,0:0:0:0:
140,256,128882,1,0,0:0:0:0:
140,256,129032,2,0,P|105:214|106:165,1,100,2|8,0:0|0:0,0:0:0:0:
136,56,129632,6,0,B|184:64|184:64|232:44,1,100,2|0,0:0|0:0,0:0:0:0:
248,120,130082,2,0,B|296:100|296:100|344:108,1,100,2|0,0:0|0:0,0:0:0:0:
416,128,130532,2,0,L|411:179,1,50
488,174,130832,2,0,B|486:193|483:221|453:243|453:243|447:315,2,150,2|2|8,0:0|0:0|0:0,0:0:0:0:
376,248,132032,6,0,L|366:351,1,100,2|0,0:0|0:0,0:0:0:0:
367,347,132482,2,0,B|335:327|295:343|295:343|255:359|223:339,1,150,2|2,0:0|0:0,0:0:0:0:
263,275,133082,1,0,0:0:0:0:
263,275,133232,2,0,P|183:275|148:348,2,150,2|2|8,0:0|0:0|0:0,0:0:0:0:
248,156,134432,6,0,P|328:156|363:83,2,150,2|2|2,0:0|0:0|0:0,0:0:0:0:
140,100,135632,2,0,P|62:100|140:222,1,300,2|2,0:0|0:0,0:0:0:0:
200,196,136682,1,0,0:0:0:0:
260,152,136832,6,0,P|302:177|350:170,1,100,4|2,0:0|0:0,0:0:0:0:
316,104,137282,2,0,P|420:144|404:224,1,200,2|0,0:0|0:0,0:0:0:0:
372,280,138032,2,0,B|384:316|384:316|376:380,1,100,2|0,0:0|0:0,0:0:0:0:
308,328,138482,2,0,B|300:389,1,50,2|0,0:0|0:0,0:0:0:0:
184,348,138932,1,8,0:0:0:0:
228,236,139232,6,0,P|140:236|88:276,2,150,2|2|2,0:0|0:0|0:0,0:0:0:0:
272,176,140282,1,0,0:0:0:0:
332,132,140432,2,0,P|420:132|472:172,2,150,2|2|8,0:0|0:0|0:0,0:0:0:0:
236,60,141632,6,0,L|212:16,2,50,2|0|2,0:0|0:0|0:0,0:0:0:0:
160,76,142082,2,0,L|184:120,2,50,0|2|0,0:0|0:0|0:0,0:0:0:0:
84,92,142532,2,0,L|108:136,1,50,2|0,0:0|0:0,0:0:0:0:
32,152,142832,2,0,B|44:174|44:174|56:196|64:224|56:246,1,100,2|0,0:0|0:0,0:0:0:0:
32,316,143282,2,0,P|82:316|132:232,1,150,2|8,0:0|0:0,0:0:0:0:
224,164,144032,6,0,P|256:192|320:192,1,100,2|0,0:0|0:0,0:0:0:0:
288,120,144482,2,0,P|337:120|375:151,1,100,2|0,0:0|0:0,0:0:0:0:
384,228,144932,1,2,0:0:0:0:
320,336,145232,1,2,0:0:0:0:
192,336,145532,1,2,0:0:0:0:
128,228,145832,1,2,0:0:0:0:
256,228,146132,2,0,L|256:172,1,50,8|0,0:0|0:0,0:0:0:0:
302,120,146432,6,0,P|254:104|210:120,1,100,4|2,0:0|0:0,0:0:0:0:
136,104,146882,2,0,P|88:132|4:104,1,150,2|2,0:0|0:0,0:0:0:0:
24,252,147632,2,0,P|70:235|116:252,1,100,2|0,0:0|0:0,0:0:0:0:
188,236,148082,1,2,0:0:0:0:
188,236,148232,2,0,P|234:252|280:235,1,100,0|8,0:0|0:0,0:0:0:0:
368,152,148832,6,0,B|396:196|396:196|404:244,1,100,2|0,0:0|0:0,0:0:0:0:
480,240,149282,2,0,B|468:168|468:168|426:102,1,150,2|0,0:0|0:0,0:0:0:0:
324,36,150032,2,0,L|224:36,1,100,2|0,0:0|0:0,0:0:0:0:
156,4,150482,2,0,P|156:68|256:104,1,150,2|8,0:0|0:0,0:0:0:0:
300,116,151082,1,0,0:0:0:0:
377,120,151232,6,0,P|439:156|444:228,1,150,2|2,0:0|0:0,0:0:0:0:
376,196,151832,2,0,L|276:196,1,100,2|2,0:0|0:0,0:0:0:0:
302,268,152282,2,0,L|252:268,1,50,0|2,0:0|0:0,0:0:0:0:
278,340,152582,1,0,0:0:0:0:
278,340,152732,2,0,L|178:340,1,100,2|2,0:0|0:0,0:0:0:0:
103,340,153182,2,0,L|47:340,1,50,0|8,0:0|0:0,0:0:0:0:
88,224,153632,5,2,0:0:0:0:
36,172,153782,1,0,0:0:0:0:
88,120,153932,1,2,0:0:0:0:
140,172,154082,1,0,0:0:0:0:
140,172,154232,2,0,L|240:172,1,100,2|8,0:0|0:0,0:0:0:0:
332,92,154832,6,0,B|376:80|376:80|445:61|468:145|399:164|399:164|329:182|352:267|421:248|421:248|466:236,1,400,2|0,0:0|0:0,0:0:0:0:
104,116,165482,5,0,0:0:0:0:
88,188,165632,1,4,0:0:0:0:
208,176,165932,2,0,L|304:208,1,100,0|2,0:0|0:0,0:0:0:0:
408,268,166532,1,8,0:0:0:0:
424,196,166682,1,0,0:0:0:0:
440,124,166832,1,2,0:0:0:0:
320,132,167132,1,0,0:0:0:0:
320,132,167282,2,0,B|224:100|224:100|196:60,1,150,2|8,0:0|0:0,0:0:0:0:
76,76,168032,6,0,B|103:115|103:115|99:167,1,100,2|0,0:0|0:0,0:0:0:0:
92,240,168482,2,0,P|136:240|176:276,2,100,2|2|0,0:0|0:0|0:0,0:0:0:0:
112,312,169232,2,0,P|147:346|195:347,1,100,2|0,0:0|0:0,0:0:0:0:
268,320,169682,2,0,P|316:321|351:355,1,100,0|0,3:0|0:0,0:0:0:0:
351,355,170132,1,8,0:0:0:0:
458,298,170432,6,0,L|458:148,1,150
294,84,171332,1,0,0:0:0:0:
218,84,171482,1,0,0:0:0:0:
256,148,171632,2,0,L|256:298,1,150
92,232,172532,1,8,0:0:0:0:
180,315,172832,6,0,P|56:348|-6:298,1,200
3,148,174032,2,0,P|126:114|180:315,1,300,0|8,0:0|0:0,0:0:0:0:
173,305,176132,5,0,0:0:0:0:
173,305,176282,1,0,0:0:0:0:
173,305,176432,2,0,P|231:55|282:330,1,700,4|8,0:0|0:0,0:0:0:0:
216,249,178832,2,0,P|243:124|271:260,2,350,2|0|8,0:0|0:0|0:0,0:0:0:0:
256,364,181232,5,2,0:0:0:0:
256,192,181682,1,2,0:0:0:0:
324,24,182132,1,0,0:0:0:0:
256,56,182282,1,0,0:0:0:0:
188,24,182432,1,2,0:0:0:0:
184,212,182882,2,0,P|256:192|328:212,1,150,2|8,0:0|0:0,0:0:0:0:
326,331,183632,6,0,P|254:351|182:331,2,150,2|2|2,0:0|0:0|0:0,0:0:0:0:
436,242,184832,1,2,0:0:0:0:
387,109,185132,1,2,0:0:0:0:
246,115,185432,1,2,0:0:0:0:
208,252,185732,5,8,0:0:0:0:
208,252,185882,1,0,0:0:0:0:
208,252,186032,2,0,P|88:132|208:12,2,350,4|0|8,0:0|0:0|0:0,0:0:0:0:
208,132,188432,2,0,P|88:252|208:372,2,350,2|0|8,0:0|0:0|0:0,0:0:0:0:
328,132,190832,6,0,P|364:176|328:252,2,150,2|2|0,0:0|0:0|0:0,0:0:0:0:
212,100,192032,1,2,0:0:0:0:
132,192,192332,1,0,0:0:0:0:
56,192,192482,1,2,0:0:0:0:
212,284,192932,1,10,0:0:0:0:
292,192,193232,5,2,0:0:0:0:
292,192,193382,2,0,L|392:192,1,100,0|2,0:0|0:0,0:0:0:0:
450,145,193832,2,0,P|466:192|450:239,1,100,0|2,0:0|0:0,0:0:0:0:
352,304,194432,2,0,P|232:304|180:132,1,300,2|2,0:0|0:0,0:0:0:0:
195,83,195482,5,0,0:0:0:0:
195,83,195632,2,0,P|195:225|99:129,1,300,4|2,0:0|0:0,0:0:0:0:
170,154,196682,2,0,B|184:195|168:223|144:243|144:243|120:263|104:291|118:332,1,200
188,304,197432,1,2,0:0:0:0:
336,320,197732,1,8,0:0:0:0:
336,320,198032,6,0,P|336:178|432:274,1,300,4|2,0:0|0:0,0:0:0:0:
361,249,199082,2,0,P|361:193|502:193,1,200,0|2,0:0|0:0,0:0:0:0:
340,100,199982,2,0,L|324:52,1,50,0|8,0:0|0:0,0:0:0:0:
204,56,200432,6,0,B|220:104|220:104|212:152,1,100,0|2,0:0|0:0,0:0:0:0:
140,128,200882,2,0,B|132:176|132:176|164:272,1,150,0|2,0:0|0:0,0:0:0:0:
236,248,201482,1,0,0:0:0:0:
236,248,201632,2,0,P|308:268|340:248,1,100,0|2,0:0|0:0,0:0:0:0:
288,196,202082,2,0,P|366:196|400:260,1,150,0|8,0:0|0:0,0:0:0:0:
320,340,202832,6,0,P|276:344|224:328,1,100,2|0,0:0|0:0,0:0:0:0:
156,288,203282,2,0,P|108:272|8:304,1,150,2|2,0:0|0:0,0:0:0:0:
64,188,204032,2,0,P|108:184|160:200,1,100,2|2,0:0|0:0,0:0:0:0:
272,248,204632,2,0,P|321:251|368:235,1,100,2|8,0:0|0:0,0:0:0:0:
428,188,205082,5,0,0:0:0:0:
428,188,205232,2,0,P|365:64|312:148,1,300,4|2,0:0|0:0,0:0:0:0:
382,133,206282,2,0,B|340:121|313:139|295:165|295:165|276:190|249:208|208:197,1,200
145,159,207032,2,0,P|182:128|232:128,1,100,2|8,0:0|0:0,0:0:0:0:
360,204,207632,6,0,P|308:256|128:232,1,250,2|0,0:0|0:0,0:0:0:0:
76,284,208532,1,2,0:0:0:0:
76,284,208682,2,0,P|144:332|396:280,1,350,0|8,0:0|0:0,0:0:0:0:
440,176,210032,6,0,L|440:24,2,150,2|2|0,0:0|0:0|0:0,0:0:0:0:
328,132,211232,2,0,P|272:116|184:132,1,150,2|2,0:0|0:0,0:0:0:0:
120,172,211832,1,0,0:0:0:0:
48,76,212132,1,8,0:0:0:0:
0,188,212432,5,2,0:0:0:0:
92,344,212882,1,2,0:0:0:0:
256,264,213332,1,2,0:0:0:0:
256,264,213632,1,0,0:0:0:0:
177,224,214832,6,0,B|188:197|216:173|256:173|256:173|296:173|340:145|357:71|293:31,1,300,0|0,0:0|0:0,0:0:0:0:
219,32,215882,1,0,0:0:0:0:
219,32,216032,2,0,B|155:72|172:146|216:174|256:174|256:174|296:174|324:198|335:224,1,300,0|8,0:0|0:0,0:0:0:0:
324,344,217232,6,0,P|256:372|188:344,2,150
335,225,218432,1,0,0:0:0:0:
256,252,218582,2,0,L|256:124,2,100
177,225,219332,1,8,0:0:0:0:
210,94,219632,6,0,P|254:78|302:94,1,100
368,132,220082,2,0,P|412:148|460:132,1,100
356,288,220832,6,0,B|348:328|380:359|380:359|452:332|460:232|392:184|308:196|285:260,1,300,0|8,0:0|0:0,0:0:0:0:
196,228,222032,2,0,B|157:241|146:284|146:284|205:333|296:290|304:207|251:140|184:152,1,300
136,172,223232,6,0,P|96:208|76:252,1,100,2|0,0:0|0:0,0:0:0:0:
120,360,223832,2,0,P|176:380|224:376,1,100,2|8,0:0|0:0,0:0:0:0:
324,328,224432,6,0,P|324:186|420:282,1,300
349,257,225482,1,0,0:0:0:0:
348,256,225632,2,0,P|456:164|444:299,1,300,0|8,0:0|0:0,0:0:0:0:
348,256,226832,6,0,P|240:348|252:213,1,300
278,284,227882,1,0,0:0:0:0:
278,284,228032,2,0,P|138:260|249:182,1,300,0|8,0:0|0:0,0:0:0:0:
316,156,229232,6,0,L|416:156,1,100,2|0,0:0|0:0,0:0:0:0:
441,84,229682,2,0,L|291:84,1,150,2|0,0:0|0:0,0:0:0:0:
196,156,230432,6,0,P|146:164|96:156,1,100,2|0,0:0|0:0,0:0:0:0:
71,228,230882,2,0,P|146:240|221:228,1,150,2|8,0:0|0:0,0:0:0:0:
316,300,231632,6,0,C|366:308|416:300,1,100,2|0,0:0|0:0,0:0:0:0:
441,372,232082,2,0,C|366:384|291:372,1,150,2|8,0:0|0:0,0:0:0:0:
256,192,232832,12,4,234032,0:1:0:0:
