osu file format v14

[General]
AudioFilename: ROL - Endless Line.mp3
AudioLeadIn: 0
PreviewTime: 40790
Countdown: 0
SampleSet: Soft
StackLeniency: 0.5
Mode: 0
LetterboxInBreaks: 0
WidescreenStoryboard: 0

[Editor]
DistanceSpacing: 0.5
BeatDivisor: 8
GridSize: 4
TimelineZoom: 4.099998

[Metadata]
Title:Endless Line
TitleUnicode:エンドレスライン
Artist:REOL
ArtistUnicode:REOL
Creator:DeRandom Otaku
Version:Normal
Source:
Tags:ギガ お菊 giga okiku akitoshi snownino_
BeatmapID:1498811
BeatmapSetID:706150

[Difficulty]
HPDrainRate:3
CircleSize:3
OverallDifficulty:3.5
ApproachRate:3
SliderMultiplier:1.5
SliderTickRate:1

[Events]
//Background and Video events
0,0,"BG.jpg",0,0
//Break Periods
2,61207,69672
2,144576,150514
//Storyboard Layer 0 (Background)
//Storyboard Layer 1 (Fail)
//Storyboard Layer 2 (Pass)
//Storyboard Layer 3 (Foreground)
//Storyboard Sound Samples

[TimingPoints]
376,631.578947368421,4,2,0,40,1,0
9849,-100,4,2,0,40,0,0
10481,-100,4,2,0,60,0,0
15454,-100,4,2,0,5,0,0
15533,-100,4,2,0,60,0,0
30691,-100,4,2,0,65,0,0
39218,-100,4,2,0,65,0,0
40165,-100,4,2,0,65,0,0
40797,-100,4,2,0,98,0,1
45533,-100,4,2,0,98,0,1
45849,-100,4,2,0,98,0,1
61007,-100,4,2,0,60,0,0
71112,-100,4,2,0,55,0,0
75770,-100,4,2,0,5,0,0
75849,-100,4,2,0,55,0,0
76007,-100,4,2,0,55,0,0
76086,-100,4,2,0,5,0,0
76165,-100,4,2,0,55,0,0
81218,-100,4,2,0,60,0,0
91323,-100,4,2,0,65,0,0
101112,-100,4,2,0,65,0,0
101428,-100,4,2,0,98,0,1
106165,-100,4,2,0,98,0,1
106481,-100,4,2,0,98,0,1
121639,-100,4,2,0,55,0,0
127007,-100,4,2,0,55,0,0
127323,-100,4,2,0,55,0,0
129533,-100,4,2,0,55,0,0
141849,-100,4,2,0,60,0,0
151954,-100,4,2,0,67,0,0
160797,-100,4,2,0,40,0,0
162060,-100,4,2,0,98,0,1
166797,-100,4,2,0,98,0,1
167112,-100,4,2,0,98,0,1
181639,-100,4,2,0,85,0,0
182270,-100,4,2,0,99,0,1
202481,-100,4,2,0,90,0,0
212586,-100,4,2,0,45,0,0

[Colours]
Combo1 : 15,177,255
Combo2 : 0,255,255
Combo3 : 255,128,255
Combo4 : 255,128,128

[HitObjects]
256,192,6691,12,8,9849,0:0:0:0:
161,291,10481,6,0,L|45:286,2,112.5,2|2|2,1:2|0:0|0:0,0:0:0:0:
250,300,11744,2,0,P|255:259|253:211,1,75,2|0,1:2|0:0,0:0:0:0:
190,161,12375,2,0,P|185:120|187:72,1,75,0|2,1:0|0:0,0:0:0:0:
256,30,13007,6,0,P|307:42|370:41,2,112.5,2|2|2,1:2|0:0|0:0,0:0:0:0:
186,87,14270,2,0,L|105:90,1,75,2|0,1:2|0:0,0:0:0:0:
111,180,14902,2,0,L|185:182,1,75,0|2,1:0|0:0,0:0:0:0:
260,132,15533,6,0,P|274:169|254:241,2,112.5,2|2|2,1:2|0:0|0:0,0:0:0:0:
186,87,16797,2,0,P|196:55|218:18,1,75,2|0,1:2|0:0,0:0:0:0:
307,19,17428,2,0,P|326:51|337:86,1,75,0|0,1:0|0:0,0:0:0:0:
260,132,18060,6,0,P|321:120|389:171,1,150,2|0,1:2|1:0,0:0:0:0:
384,259,19007,1,2,0:0:0:0:
310,207,19323,2,0,L|227:213,1,75,2|0,1:2|0:0,0:0:0:0:
171,276,19954,2,0,L|96:270,1,75,0|2,1:0|0:0,0:0:0:0:
6,265,20586,6,0,P|33:204|21:112,1,150,2|0,1:2|1:0,0:0:0:0:
61,40,21533,1,2,0:0:0:0:
133,93,21849,2,0,P|169:93|205:80,1,75,2|0,1:2|0:0,0:0:0:0:
278,26,22481,2,0,L|358:33,1,75,0|2,1:0|0:0,0:0:0:0:
441,46,23112,6,0,B|469:73|469:73|495:114|472:192,1,150,2|0,1:2|1:0,0:0:0:0:
431,260,24060,1,2,0:0:0:0:
380,334,24376,2,0,P|347:325|299:329,1,75,2|0,1:2|0:0,0:0:0:0:
217,337,25007,2,0,P|207:300|210:263,1,75,0|2,1:0|0:0,0:0:0:0:
253,184,25639,6,0,P|216:176|179:179,1,75,2|0,1:2|0:2,0:0:0:0:
122,247,26270,2,0,L|114:97,1,150,2|0,1:2|1:0,0:0:0:0:
70,17,27218,1,0,0:0:0:0:
114,98,27533,2,0,P|153:106|195:101,1,75,0|2,1:0|0:0,0:0:0:0:
268,60,28165,6,0,B|279:97|279:97|274:137,1,75,10|0,1:2|0:0,0:0:0:0:
210,197,28797,2,0,B|205:233|205:233|216:270,1,75,0|2,1:0|0:0,0:0:0:0:
250,353,29428,2,0,P|312:333|399:347,1,150,2|0,1:2|1:0,0:0:0:0:
480,374,30376,1,0,0:0:0:0:
459,286,30691,6,0,L|468:200,1,75,2|0,1:2|0:0,0:0:0:0:
493,125,31323,2,0,L|484:39,1,75,0|2,1:0|0:0,0:0:0:0:
409,99,31954,2,0,P|351:99|290:27,1,150,2|8,1:2|1:0,0:0:0:0:
379,15,32902,1,2,0:0:0:0:
409,99,33218,6,0,L|416:173,1,75,2|0,1:2|0:0,0:0:0:0:
467,247,33849,2,0,L|459:321,1,75,0|2,1:0|0:0,0:0:0:0:
381,368,34481,2,0,P|314:331|234:332,1,150,2|8,1:2|1:0,0:0:0:0:
158,363,35428,1,2,0:0:0:0:
102,292,35744,6,0,L|113:133,1,150,2|0,1:2|1:0,0:0:0:0:
145,57,36691,1,2,0:0:0:0:
232,79,37007,2,0,P|185:136|113:142,1,150,2|8,1:2|1:0,0:0:0:0:
35,96,37954,1,2,0:0:0:0:
19,184,38270,6,0,L|20:223,1,37.5,2|0,1:1|0:0,0:0:0:0:
28,311,38744,1,2,0:0:0:0:
97,255,39060,2,0,P|114:308|101:362,2,112.5,0|8|8,0:0|1:3|0:3,0:0:0:0:
97,210,40165,1,10,0:3:0:0:
186,53,40797,6,0,L|345:60,1,150,4|0,1:0|1:0,0:0:0:0:
417,97,41744,1,8,0:0:0:0:
353,160,42060,2,0,P|353:213|422:278,1,150,0|8,1:0|1:0,0:0:0:0:
438,190,43007,1,8,0:0:0:0:
353,160,43323,6,0,L|278:163,1,75,0|0,1:0|0:0,0:0:0:0:
214,226,43954,2,0,L|139:222,1,75,0|8,1:0|0:0,0:0:0:0:
72,283,44586,2,0,P|98:222|67:139,1,150,0|8,1:0|1:0,0:0:0:0:
22,70,45533,1,8,0:0:0:0:
108,43,45849,6,0,B|155:35|155:35|236:43,2,112.5,0|8|8,1:0|0:0|0:0,0:0:0:0:
22,70,47112,2,0,L|29:221,1,150,0|8,1:0|1:0,0:0:0:0:
38,309,48060,1,8,0:0:0:0:
113,259,48376,6,8,B|167:259|167:259|222:291,1,112.5,0|8,1:0|0:0,0:0:0:0:
290,341,49165,2,0,B|319:290|319:290|319:236,1,112.5,0|0,0:0|1:0,0:0:0:0:
319,146,49954,1,0,0:0:0:0:
319,55,50270,2,0,L|400:60,1,75,8|8,1:0|0:0,0:0:0:0:
484,55,50902,6,0,P|474:91|474:142,2,75,0|0|0,1:0|0:0|1:0,0:0:0:0:
394,60,51849,1,8,0:0:0:0:
304,55,52165,2,0,P|314:91|314:142,2,75,0|0|8,1:0|0:0|1:0,0:0:0:0:
228,104,53112,1,8,0:0:0:0:
152,55,53428,6,0,P|142:91|142:142,2,75,0|0|0,1:0|0:0|1:0,0:0:0:0:
228,104,54375,1,8,0:0:0:0:
228,194,54691,2,0,L|219:278,1,75,0|0,1:0|0:0,0:0:0:0:
209,358,55323,2,0,P|247:353|291:356,1,75,8|8,1:0|0:0,0:0:0:0:
371,372,55954,6,0,B|378:311|378:311|376:289|376:289|385:211,1,150,0|0,1:0|1:0,0:0:0:0:
408,136,56902,1,8,0:0:0:0:
456,212,57218,2,0,P|420:223|383:222,1,75,0|0,1:0|0:0,0:0:0:0:
299,189,57849,2,0,P|261:187|226:199,1,75,8|8,1:0|0:0,0:0:0:0:
144,237,58481,6,0,P|131:186|142:123,1,112.5,0|8,1:0|0:0,0:0:0:0:
146,37,59270,2,0,P|200:50|255:40,1,112.5,0|0,0:0|1:0,0:0:0:0:
344,23,60060,1,0,0:0:0:0:
427,56,60376,2,0,B|414:101|414:101|426:208,1,150,8|2,1:0|1:2,0:0:0:0:
140,109,71112,6,0,L|132:270,1,150,8|0,0:0|0:0,0:0:0:0:
196,322,72060,1,8,0:0:0:0:
259,258,72375,2,0,L|251:108,1,150,8|8,0:0|0:1,0:0:0:0:
421,47,73639,6,0,L|418:123,1,75,8|0,0:0|0:0,0:0:0:0:
354,185,74270,2,0,L|359:260,1,75,2|8,0:0|0:0,0:0:0:0:
427,319,74902,2,0,B|347:298|363:338|271:311,1,150,8|2,0:0|0:1,0:0:0:0:
193,285,75849,1,2,0:1:0:0:
110,320,76165,6,0,P|105:292|113:243,1,75,8|0,0:0|0:0,0:0:0:0:
175,182,76797,2,0,P|180:154|172:105,1,75,0|8,0:0|0:0,0:0:0:0:
124,32,77428,2,0,P|166:64|259:64,1,150,8|0,0:0|0:0,0:0:0:0:
346,37,78375,1,8,0:0:0:0:
331,125,78691,6,0,L|337:280,1,150,8|0,0:0|0:0,0:0:0:0:
378,353,79639,1,8,0:0:0:0:
460,322,79954,2,0,P|409:270|337:275,1,150,8|8,0:0|0:1,0:0:0:0:
159,304,81218,6,0,L|161:250,1,37.5,2|0,1:2|0:0,0:0:0:0:
205,190,81691,2,0,P|167:178|127:185,1,75,2|0,0:0|0:0,0:0:0:0:
45,206,82323,2,0,L|50:76,1,112.5,0|0,0:0|0:0,0:0:0:0:
113,29,83112,1,0,1:0:0:0:
176,92,83428,6,0,L|226:90,1,37.5,2|0,0:0|0:0,0:0:0:0:
303,86,83902,1,0,0:0:0:0:
392,90,84218,2,0,L|430:92,1,37.5,2|0,0:0|1:0,0:0:0:0:
493,155,84691,1,2,0:0:0:0:
429,218,85007,2,0,L|444:381,1,150,2|2,1:2|1:2,0:0:0:0:
262,367,86270,6,0,L|275:217,1,150,2|2,1:2|1:2,0:0:0:0:
291,128,87218,1,2,0:0:0:0:
203,150,87533,2,0,B|138:150|138:150|113:159|113:159|49:159,1,150,2|2,1:2|1:2,0:0:0:0:
54,339,88797,6,0,B|119:339|119:339|144:330|144:330|208:330,1,150,2|2,1:2|1:2,0:0:0:0:
292,330,89744,1,0,0:0:0:0:
382,330,90060,2,0,B|403:258|403:258|376:175,1,150,2|2,1:2|1:2,0:0:0:0:
238,74,91323,6,0,L|230:148,1,75,2|0,1:2|0:0,0:0:0:0:
162,207,91954,2,0,L|169:281,1,75,0|2,1:0|0:0,0:0:0:0:
201,366,92586,2,0,P|143:366|82:294,1,150,2|8,1:2|1:0,0:0:0:0:
170,282,93534,1,2,0:0:0:0:
251,242,93850,6,0,P|284:240|325:244,1,75,2|0,1:2|0:0,0:0:0:0:
413,266,94481,2,0,P|416:228|415:191,1,75,0|2,1:0|0:0,0:0:0:0:
411,101,95112,2,0,P|347:101|271:57,1,150,2|8,1:2|1:0,0:0:0:0:
199,8,96060,1,2,0:0:0:0:
135,71,96376,6,0,L|140:222,1,150,2|0,1:2|1:0,0:0:0:0:
145,310,97323,1,2,0:0:0:0:
219,259,97639,2,0,B|295:236|277:285|371:258,1,150,2|8,1:2|1:0,0:0:0:0:
453,239,98586,1,2,0:0:0:0:
387,176,98902,6,0,B|396:100|396:100|415:63,1,112.5,2|2,1:2|0:0,0:0:0:0:
498,43,99691,2,0,B|489:119|489:119|470:156,2,112.5,0|2|2,0:0|1:2|0:0,0:0:0:0:
412,68,100954,2,0,P|402:93|398:112,1,37.5
371,189,101428,6,0,P|302:209|228:188,1,150,4|0,1:0|1:0,0:0:0:0:
150,148,102375,1,8,0:0:0:0:
122,233,102691,2,0,L|128:317,1,75,0|0,1:0|0:0,0:0:0:0:
37,319,103323,2,0,L|31:235,1,75,8|8,1:0|0:0,0:0:0:0:
68,162,103954,6,0,P|68:117|55:82,1,75,0|0,1:0|0:0,0:0:0:0:
122,25,104586,2,0,P|157:35|195:34,1,75,0|8,1:0|0:0,0:0:0:0:
285,30,105218,2,0,B|273:83|273:83|295:121|279:180,1,150,0|8,1:0|1:0,0:0:0:0:
267,264,106164,1,8,0:0:0:0:
352,231,106481,6,0,P|356:277|326:334,2,112.5,0|8|8,1:0|0:0|0:0,0:0:0:0:
280,176,107744,2,0,L|199:184,2,75,0|0|8,1:0|0:0|1:0,0:0:0:0:
362,140,108691,1,8,0:0:0:0:
352,231,109007,6,8,B|419:244|403:216|467:234,1,112.5,0|8,1:0|0:0,0:0:0:0:
463,323,109797,2,0,B|402:339|418:311|351:324,1,112.5,0|0,0:0|1:0,0:0:0:0:
262,335,110585,1,0,0:0:0:0:
172,346,110902,2,0,L|176:260,1,75,8|8,1:0|0:0,0:0:0:0:
98,224,111533,6,0,B|88:188|88:188|88:137,2,75,0|0|0,1:0|0:0|1:0,0:0:0:0:
175,177,112480,1,8,0:0:0:0:
252,224,112797,2,0,B|262:188|262:188|262:137,2,75,0|0|8,1:0|0:0|1:0,0:0:0:0:
175,271,113743,1,8,0:0:0:0:
98,224,114059,6,0,B|88:188|88:188|88:137,2,75,0|0|0,1:0|0:0|1:0,0:0:0:0:
175,177,115006,1,8,0:0:0:0:
252,225,115323,2,0,P|289:224|325:214,1,75,0|0,1:0|0:0,0:0:0:0:
389,150,115954,2,0,P|426:150|462:160,1,75,8|8,1:0|0:0,0:0:0:0:
413,238,116586,6,0,B|404:287|423:319|423:319|392:342|350:329,1,150,0|0,1:0|1:0,0:0:0:0:
275,300,117533,1,8,0:0:0:0:
192,335,117849,2,0,L|112:330,1,75,0|0,1:0|0:0,0:0:0:0:
27,321,118481,2,0,P|34:276|29:238,1,75,8|8,1:0|0:0,0:0:0:0:
30,156,119112,6,0,P|85:146|139:158,1,112.5,0|8,1:0|0:0,0:0:0:0:
219,200,119902,2,0,P|273:211|328:202,1,112.5,0|0,0:0|1:0,0:0:0:0:
410,165,120691,1,0,0:0:0:0:
479,221,121007,2,0,P|497:182|478:108,1,112.5,8|0,1:0|0:0,0:0:0:0:
455,80,121639,6,0,B|417:63|417:63|334:72,2,112.5,6|2|2,1:2|0:0|0:0,0:0:0:0:
398,150,122902,2,0,B|327:157|327:157|289:140,2,112.5,2|2|2,1:2|0:0|0:0,0:0:0:0:
482,183,124165,6,0,L|477:234,1,37.5,2|0,1:2|0:0,0:0:0:0:
469,310,124639,2,0,P|428:296|355:295,1,112.5,2|2,0:0|0:0,0:0:0:0:
270,307,125428,1,2,1:2:0:0:
92,336,126060,2,0,L|95:249,1,75,0|2,1:0|0:0,0:0:0:0:
101,171,126691,5,2,1:2:0:0:
174,223,127007,2,0,L|261:226,2,75,2|0|2,0:1|1:0|0:0,0:0:0:0:
101,171,127954,2,0,P|102:130|118:92,1,75,2|0,1:2|0:0,0:0:0:0:
153,17,128586,2,0,P|188:32|235:40,1,75,0|2,1:0|0:0,0:0:0:0:
312,58,129218,5,2,1:2:0:0:
398,34,129533,2,0,B|398:69|398:69|401:77|401:77|401:111,2,75,2|0|2,0:1|1:0|0:0,0:0:0:0:
312,58,130481,2,0,B|312:93|312:93|315:101|315:101|315:135,1,75,2|0,1:2|0:0,0:0:0:0:
315,222,131112,1,0,1:0:0:0:
468,316,131744,6,0,B|479:279|479:279|472:191,2,112.5,2|2|2,1:2|0:0|0:0,0:0:0:0:
391,268,133007,2,0,B|385:194|385:194|396:157,2,112.5,2|2|2,1:2|0:0|0:0,0:0:0:0:
387,358,134270,6,0,L|262:362,2,112.5,2|2|2,1:2|0:0|0:0,0:0:0:0:
468,316,135533,1,2,1:2:0:0:
292,274,136165,2,0,L|201:276,1,75,0|2,1:0|0:0,0:0:0:0:
146,332,136797,6,0,P|172:273|131:190,1,150,2|0,1:2|1:0,0:0:0:0:
74,137,137744,1,2,0:0:0:0:
150,88,138060,2,0,L|231:96,1,75,2|0,1:2|0:0,0:0:0:0:
288,159,138691,2,0,L|362:151,1,75,0|2,1:0|0:0,0:0:0:0:
448,122,139323,6,0,P|449:196|451:289,2,150,2|0|2,1:2|1:0|1:2,0:0:0:0:
289,36,141218,2,0,P|251:49|207:49,1,75,2|2,1:2|0:0,0:0:0:0:
127,39,141849,1,6,1:2:0:0:
256,192,142007,12,2,144376,0:0:0:0:
49,253,151954,6,0,L|52:345,2,75,8|8|8,0:0|0:0|0:0,0:0:0:0:
112,189,152902,1,8,0:0:0:0:
175,252,153218,2,0,L|178:344,2,75,8|8|8,0:0|0:0|0:0,0:0:0:0:
238,188,154165,1,8,0:0:0:0:
301,251,154481,6,0,P|325:209|289:114,1,150,8|8,0:0|0:0,0:0:0:0:
205,103,155428,1,8,0:0:0:0:
163,184,155744,2,0,L|237:187,1,75,8|8,0:0|0:0,0:0:0:0:
294,118,156376,2,0,L|368:121,1,75,8|8,0:0|0:0,0:0:0:0:
458,121,157007,6,0,B|438:212|481:181|457:275,1,150,8|8,0:0|0:0,0:0:0:0:
415,347,157954,1,8,0:0:0:0:
368,269,158270,2,0,B|345:181|388:212|368:121,1,150,8|8,0:0|0:0,0:0:0:0:
341,35,159218,1,8,0:0:0:0:
281,102,159533,6,0,B|208:108|151:37|151:37|209:108|204:184,1,300,8|0,0:0|0:0,0:0:0:0:
158,346,161428,1,8,0:0:0:0:
245,319,161744,2,0,L|292:322,1,37.5,8|2,0:0|0:0,0:0:0:0:
326,329,162060,6,0,P|343:283|329:182,1,150,4|0,1:0|1:0,0:0:0:0:
311,96,163007,1,8,0:0:0:0:
247,160,163323,2,0,P|174:175|102:155,1,150,0|8,1:0|1:0,0:0:0:0:
26,107,164270,1,8,0:0:0:0:
17,196,164586,6,0,L|20:271,1,75,0|0,1:0|0:0,0:0:0:0:
28,360,165217,2,0,P|62:356|103:364,1,75,0|8,1:0|0:0,0:0:0:0:
190,378,165849,2,0,P|190:325|197:218,1,150,0|8,1:0|1:0,0:0:0:0:
202,138,166796,1,8,0:0:0:0:
152,62,167112,6,0,B|199:54|199:54|280:62,2,112.5,0|8|8,1:0|0:0|0:0,0:0:0:0:
65,86,168375,2,0,P|84:159|69:237,1,150,0|8,1:0|1:0,0:0:0:0:
44,317,169323,1,8,0:0:0:0:
132,301,169639,6,8,B|179:301|179:301|194:296|194:296|244:297,1,112.5,0|8,1:0|0:0,0:0:0:0:
307,233,170428,2,0,B|354:233|354:233|369:228|369:228|419:229,1,112.5,0|0,0:0|1:0,0:0:0:0:
482,165,171217,1,0,0:0:0:0:
418,101,171533,2,0,L|340:101,1,75,8|8,1:0|0:0,0:0:0:0:
252,101,172165,6,0,P|242:137|242:188,2,75,0|0|0,1:0|0:0|1:0,0:0:0:0:
188,37,173112,1,8,0:0:0:0:
119,95,173428,2,0,P|129:131|129:182,2,75,0|0|8,1:0|0:0|1:0,0:0:0:0:
43,144,174375,1,8,0:0:0:0:
131,169,174691,6,0,P|168:167|204:157,2,75,0|0|0,1:0|0:0|1:0,0:0:0:0:
43,144,175638,1,8,0:0:0:0:
23,231,175954,2,0,L|28:316,1,75,0|0,1:0|0:0,0:0:0:0:
100,358,176586,2,0,P|137:362|179:357,1,75,8|8,1:0|0:0,0:0:0:0:
262,378,177217,6,0,P|259:322|259:221,1,150,0|0,1:0|1:0,0:0:0:0:
252,137,178165,1,8,0:0:0:0:
331,179,178481,2,0,P|367:184|412:183,1,75,0|0,1:0|0:0,0:0:0:0:
486,144,179112,2,0,P|486:106|481:69,1,75,8|8,1:0|0:0,0:0:0:0:
402,25,179744,6,0,L|290:32,1,112.5,0|8,1:0|0:0,0:0:0:0:
181,112,180691,2,0,P|141:100|112:75,1,75,8|0,0:0|1:0,0:0:0:0:
23,83,181323,1,0,0:0:0:0:
67,161,181639,2,0,B|73:202|73:202|65:247,1,75,8|2,1:0|0:1,0:0:0:0:
39,320,182270,6,0,P|110:340|188:340,1,150,4|0,1:0|1:0,0:0:0:0:
274,325,183217,1,8,0:0:0:0:
220,252,183533,2,0,L|225:177,1,75,0|0,1:0|0:0,0:0:0:0:
228,86,184165,2,0,P|266:83|304:90,1,75,8|8,1:0|0:0,0:0:0:0:
384,127,184797,6,0,L|393:51,1,75,0|0,1:0|0:0,0:0:0:0:
481,68,185428,2,0,L|472:144,1,75,0|8,1:0|0:0,0:0:0:0:
414,211,186060,2,0,L|427:370,1,150,0|8,1:0|1:0,0:0:0:0:
341,330,187007,1,8,0:0:0:0:
258,367,187323,6,0,L|141:361,2,112.5,0|8|8,1:0|0:0|0:0,0:0:0:0:
268,277,188586,2,0,L|151:271,2,112.5,0|8|8,1:0|0:0|0:0,0:0:0:0:
341,330,189849,6,0,P|315:266|347:180,1,150,0|0,1:0|1:0,0:0:0:0:
366,105,190797,1,8,0:0:0:0:
278,123,191112,2,0,L|162:116,2,112.5,0|8|8,1:0|0:0|0:0,0:0:0:0:
337,191,192376,6,0,L|415:189,2,75,0|0|0,1:0|0:0|1:0,0:0:0:0:
273,254,193322,1,8,0:0:0:0:
336,317,193639,2,0,L|414:319,2,75,0|0|8,1:0|0:0|1:0,0:0:0:0:
273,254,194585,1,8,0:0:0:0:
337,191,194902,6,0,L|415:189,2,75,0|0|0,1:0|0:0|1:0,0:0:0:0:
273,254,195848,1,8,0:0:0:0:
209,317,196165,2,0,L|131:315,1,75,0|0,1:0|0:0,0:0:0:0:
43,315,196797,2,0,L|44:240,1,75,8|8,1:0|0:0,0:0:0:0:
50,150,197428,6,0,B|102:137|151:152|151:152|131:134|123:105,1,150,0|0,1:0|1:0,0:0:0:0:
144,24,198375,1,8,0:0:0:0:
209,87,198691,2,0,L|283:91,2,75,0|0|8,1:0|0:0|1:0,0:0:0:0:
126,112,199639,1,8,0:0:0:0:
187,177,199954,6,0,B|181:289|181:289|149:245,2,150,0|0|0,1:0|1:0|1:0,0:0:0:0:
126,112,201533,1,0,0:0:0:0:
209,87,201849,1,8,1:0:0:0:
274,149,202165,1,8,0:0:0:0:
339,85,202481,6,0,P|364:140|331:219,1,150,6|0,1:2|0:0,0:0:0:0:
264,278,203428,1,2,0:0:0:0:
315,351,203744,2,0,B|363:337|363:337|472:352,1,150,10|0,0:1|0:0,0:0:0:0:
332,219,205007,6,0,B|284:233|284:233|175:218,1,150,0|0,1:0|0:0,0:0:0:0:
121,155,205954,1,2,0:0:0:0:
184,91,206270,2,0,B|283:77|283:77|331:91,1,150,10|0,0:1|0:0,0:0:0:0:
482,189,207533,6,0,P|475:221|480:262,1,75,4|2,1:2|0:0,0:0:0:0:
493,351,208165,2,0,P|456:343|419:349,1,75,0|0,1:0|0:0,0:0:0:0:
330,367,208797,2,0,B|291:355|291:355|221:362|221:362|180:342,1,150,10|0,0:1|0:0,0:0:0:0:
116,288,209744,1,2,0:0:0:0:
49,349,210060,6,0,P|25:288|64:213,1,150,2|0,1:2|1:0,0:0:0:0:
148,203,211007,1,2,3:2:0:0:
116,288,211323,2,0,P|167:291|224:252,2,112.5,10|2|2,0:1|0:0|0:0,0:0:0:0:
148,203,212586,6,0,L|153:79,2,112.5,2|2|2,0:0|0:0|0:0,0:0:0:0:
218,260,213849,2,0,L|213:384,2,112.5,2|2|2,0:0|0:0|0:0,0:0:0:0:
289,203,215112,6,0,L|293:90,2,112.5,2|2|2,0:0|0:0|0:0,0:0:0:0:
359,260,216375,2,0,L|354:372,2,112.5,2|2|2,0:0|0:0|0:0,0:0:0:0:
