osu file format v14

[General]
AudioFilename: ROL - Endless Line.mp3
AudioLeadIn: 0
PreviewTime: 40790
Countdown: 0
SampleSet: Soft
StackLeniency: 0.5
Mode: 0
LetterboxInBreaks: 0
WidescreenStoryboard: 0

[Editor]
DistanceSpacing: 1.5
BeatDivisor: 4
GridSize: 4
TimelineZoom: 4.099998

[Metadata]
Title:Endless Line
TitleUnicode:エンドレスライン
Artist:REOL
ArtistUnicode:REOL
Creator:DeRandom Otaku
Version:Hard
Source:
Tags:ギガ お菊 giga okiku akitoshi snownino_
BeatmapID:1495746
BeatmapSetID:706150

[Difficulty]
HPDrainRate:5
CircleSize:3.5
OverallDifficulty:5.5
ApproachRate:7
SliderMultiplier:1.8
SliderTickRate:1

[Events]
//Background and Video events
0,0,"BG.jpg",0,0
//Break Periods
//Storyboard Layer 0 (Background)
//Storyboard Layer 1 (Fail)
//Storyboard Layer 2 (Pass)
//Storyboard Layer 3 (Foreground)
//Storyboard Sound Samples

[TimingPoints]
376,631.578947368421,4,2,0,40,1,0
9849,-86.9565217391304,4,2,0,40,0,0
10481,-86.9565217391304,4,2,0,60,0,0
15454,-86.9565217391304,4,2,0,5,0,0
15533,-86.9565217391304,4,2,0,60,0,0
30691,-80,4,2,0,65,0,0
39218,-80,4,2,0,65,0,0
40165,-80,4,2,0,65,0,0
40797,-74.6268656716418,4,2,0,98,0,1
45533,-74.6268656716418,4,2,0,98,0,1
45849,-74.6268656716418,4,2,0,98,0,1
61007,-86.9565217391304,4,2,0,60,0,0
71112,-86.9565217391304,4,2,0,55,0,0
75770,-86.9565217391304,4,2,0,5,0,0
75849,-86.9565217391304,4,2,0,55,0,0
76007,-86.9565217391304,4,2,0,55,0,0
76086,-86.9565217391304,4,2,0,5,0,0
76165,-86.9565217391304,4,2,0,55,0,0
81218,-83.3333333333333,4,2,0,60,0,0
91323,-80,4,2,0,65,0,0
101112,-86.9565217391304,4,2,0,65,0,0
101428,-74.6268656716418,4,2,0,98,0,1
106165,-74.6268656716418,4,2,0,98,0,1
106481,-74.6268656716418,4,2,0,98,0,1
121639,-86.9565217391304,4,2,0,55,0,0
127007,-86.9565217391304,4,2,0,55,0,0
127323,-86.9565217391304,4,2,0,55,0,0
129533,-86.9565217391304,4,2,0,55,0,0
141849,-86.9565217391304,4,2,0,60,0,0
151954,-83.3333333333333,4,2,0,67,0,0
160797,-86.9565217391304,4,2,0,40,0,0
162060,-74.6268656716418,4,2,0,98,0,1
166797,-74.6268656716418,4,2,0,98,0,1
167112,-74.6268656716418,4,2,0,98,0,1
181639,-74.6268656716418,4,2,0,85,0,0
182270,-74.6268656716418,4,2,0,99,0,1
202481,-78.125,4,2,0,90,0,0
212586,-90.9090909090909,4,2,0,45,0,0

[Colours]
Combo1 : 15,177,255
Combo2 : 0,255,255
Combo3 : 255,128,255
Combo4 : 255,128,128

[HitObjects]
256,192,6691,12,8,9849,0:0:0:0:
130,98,10481,6,0,P|160:163|128:240,1,155.250002961159,2|2,1:2|0:0,0:0:0:0:
68,291,11112,2,0,P|115:292|170:305,1,103.500001974106,0|2,1:0|0:0,0:0:0:0:
322,370,11744,2,0,P|369:369|424:356,1,103.500001974106,2|0,1:2|0:0,0:0:0:0:
488,203,12375,1,0,1:0:0:0:
488,203,12533,2,0,P|473:153|490:93,1,103.500001974106,0|0,0:0|0:0,0:0:0:0:
435,35,13007,6,0,B|397:21|397:21|277:29,1,155.250002961159,2|2,1:2|0:0,0:0:0:0:
199,36,13639,1,0,1:0:0:0:
139,189,13954,2,0,L|84:182,1,51.7500009870529,2|2,0:0|0:0,0:0:0:0:
25,238,14270,2,0,P|32:265|34:298,1,51.7500009870529,2|2,1:2|0:0,0:0:0:0:
30,372,14586,1,0,0:0:0:0:
168,280,14902,1,0,1:0:0:0:
30,372,15218,1,2,0:0:0:0:
197,360,15533,6,0,P|271:357|324:300,1,155.250002961159,2|2,1:2|0:0,0:0:0:0:
266,239,16165,2,0,P|265:205|270:170,1,51.7500009870529,0|0,1:0|0:0,0:0:0:0:
276,104,16481,1,2,0:0:0:0:
276,104,16639,1,0,0:0:0:0:
341,154,16797,1,2,1:2:0:0:
341,154,16954,2,0,P|388:156|445:137,1,103.500001974106,0|2,0:0|0:0,0:0:0:0:
502,82,17428,1,0,1:0:0:0:
502,82,17586,2,0,L|499:206,1,103.500001974106,0|0,0:0|0:0,0:0:0:0:
492,268,18060,5,2,1:2:0:0:
358,366,18376,1,0,0:0:0:0:
329,203,18691,1,0,1:0:0:0:
194,299,19007,2,0,P|163:298|134:291,1,51.7500009870529,2|2,0:0|0:0,0:0:0:0:
62,271,19323,2,0,P|76:223|66:155,1,103.500001974106,2|0,1:2|0:0,0:0:0:0:
167,35,19954,2,0,P|162:86|176:135,1,103.500001974106,0|2,1:0|0:0,0:0:0:0:
314,227,20586,6,0,L|301:72,1,155.250002961159,2|2,1:2|0:0,0:0:0:0:
377,37,21218,2,0,L|385:139,1,103.500001974106,0|2,1:0|0:0,0:0:0:0:
457,181,21691,2,0,L|448:283,2,103.500001974106,0|0|2,0:0|0:0|0:0,0:0:0:0:
385,140,22481,2,0,P|343:159|272:159,1,103.500001974106,0|2,1:0|0:0,0:0:0:0:
145,73,23112,6,0,B|156:119|156:119|144:190,1,103.500001974106,2|0,1:2|0:0,0:0:0:0:
108,248,23586,1,2,0:0:0:0:
70,322,23744,2,0,P|124:328|168:306,1,103.500001974106,0|2,1:0|0:0,0:0:0:0:
247,285,24218,2,0,L|242:350,1,51.7500009870529,2|2,0:0|1:2,0:0:0:0:
321,362,24533,2,0,L|324:310,1,51.7500009870529,2|0,0:0|0:0,0:0:0:0:
389,258,24849,1,2,0:0:0:0:
389,258,25007,2,0,L|383:154,1,103.500001974106,0|2,1:0|0:0,0:0:0:0:
271,31,25639,6,0,P|225:45|162:45,1,103.500001974106,2|0,1:2|0:0,0:0:0:0:
91,19,26112,1,2,0:0:0:0:
29,74,26270,2,0,B|42:113|42:113|34:188,1,103.500001974106,0|2,1:0|0:0,0:0:0:0:
185,245,26902,2,0,B|178:307|178:307|191:346,1,103.500001974106,2|0,1:2|0:0,0:0:0:0:
261,300,27376,2,0,L|331:305,1,51.7500009870529,2|0,0:0|1:0,0:0:0:0:
381,349,27691,1,0,0:0:0:0:
381,349,27849,2,0,L|432:345,1,51.7500009870529,2|0,0:0|0:0,0:0:0:0:
491,286,28165,6,0,P|478:239|489:185,1,103.500001974106,10|0,1:2|0:0,0:0:0:0:
461,107,28639,1,2,0:0:0:0:
488,28,28797,2,0,L|374:33,1,103.500001974106,0|2,1:0|0:0,0:0:0:0:
218,35,29428,2,0,B|208:86|208:86|219:142,1,103.500001974106,2|0,1:2|0:0,0:0:0:0:
270,294,30060,1,0,1:0:0:0:
270,294,30218,2,0,B|219:303|219:303|168:293,1,103.500001974106,2|0,0:0|0:0,0:0:0:0:
84,303,30691,6,0,P|87:269|93:247,1,56.25,2|0,1:2|0:0,0:0:0:0:
148,183,31007,2,0,P|145:149|139:127,1,56.25,0|2,0:0|0:0,0:0:0:0:
104,50,31323,1,0,1:0:0:0:
104,50,31481,1,0,0:0:0:0:
180,13,31639,2,0,P|214:16|236:22,1,56.25,2|0,0:0|0:0,0:0:0:0:
266,100,31954,2,0,P|293:106|321:108,1,56.25,2|0,1:2|0:0,0:0:0:0:
401,81,32270,1,0,0:0:0:0:
287,206,32586,2,0,L|292:333,1,112.5,8|2,1:0|0:0,0:0:0:0:
406,193,33218,6,0,L|401:80,1,112.5,2|0,1:2|0:0,0:0:0:0:
339,23,33691,1,2,0:0:0:0:
283,86,33849,2,0,L|227:82,1,56.25,0|0,1:0|0:0,0:0:0:0:
152,41,34165,2,0,L|96:37,1,56.25,2|2,0:0|0:0,0:0:0:0:
25,84,34481,2,0,P|30:116|32:143,1,56.25,2|2,1:2|0:0,0:0:0:0:
32,224,34797,1,0,0:0:0:0:
140,352,35112,2,0,P|159:297|159:234,1,112.5,8|2,1:0|0:0,0:0:0:0:
227,92,35744,6,0,P|257:86|295:86,1,56.25,2|0,1:2|0:0,0:0:0:0:
362,113,36060,1,0,0:0:0:0:
362,113,36218,1,2,0:0:0:0:
441,140,36376,2,0,P|469:139|497:134,1,56.25,0|0,1:0|0:0,0:0:0:0:
460,58,36691,1,2,0:0:0:0:
375,204,37007,1,2,1:2:0:0:
473,341,37323,2,0,P|450:345|416:345,1,56.25,0|2,0:0|0:0,0:0:0:0:
344,301,37639,2,0,B|303:298|303:298|227:315,1,112.5,8|2,1:0|0:0,0:0:0:0:
66,338,38270,5,2,1:1:0:0:
66,338,38428,2,0,P|70:305|69:267,1,56.25,0|0,0:0|0:0,0:0:0:0:
9,221,38744,2,0,P|9:192|13:165,1,56.25,2|0,0:0|1:0,0:0:0:0:
34,82,39060,1,0,0:0:0:0:
94,141,39218,2,0,P|128:136|156:124,1,56.25,2|2,0:0|0:0,0:0:0:0:
227,98,39533,1,8,1:3:0:0:
218,181,39691,2,0,B|218:210|218:210|224:245,1,56.25,8|0,0:3|0:0,0:0:0:0:
252,316,40007,1,8,0:3:0:0:
315,257,40165,2,0,B|374:268|428:257|428:257|417:283|382:297,1,168.75,10|0,0:3|0:0,0:0:0:0:
252,316,40797,6,0,L|126:324,1,120.599994295349,4|0,1:0|0:0,0:0:0:0:
46,294,41270,1,8,0:0:0:0:
119,241,41428,2,0,L|110:175,1,60.2999971476747,0|0,1:0|0:0,0:0:0:0:
93,91,41744,2,0,P|125:86|160:87,1,60.2999971476747,8|0,0:0|0:0,0:0:0:0:
198,165,42060,6,0,P|198:116|244:57,1,120.599994295349,0|0,1:0|0:0,0:0:0:0:
285,138,42533,1,8,0:0:0:0:
340,66,42691,1,8,1:0:0:0:
398,135,42849,1,0,0:0:0:0:
345,208,43007,2,0,L|354:274,1,60.2999971476747,8|0,0:0|0:0,0:0:0:0:
314,350,43323,6,0,L|446:352,1,120.599994295349,0|0,1:0|0:0,0:0:0:0:
493,282,43797,1,8,0:0:0:0:
493,282,43954,2,0,P|484:252|480:217,1,60.2999971476747,0|0,1:0|0:0,0:0:0:0:
500,134,44270,2,0,P|495:104|487:75,1,60.2999971476747,8|0,0:0|0:0,0:0:0:0:
413,21,44586,6,0,P|367:51|300:50,1,120.599994295349,0|0,1:0|0:0,0:0:0:0:
218,16,45060,1,8,0:0:0:0:
179,97,45218,2,0,B|148:102|119:106,1,60.2999971476747,8|0,1:0|0:0,0:0:0:0:
29,112,45533,1,8,0:0:0:0:
164,237,45849,6,0,L|290:228,1,120.599994295349,0|0,1:0|0:0,0:0:0:0:
373,246,46323,2,0,P|367:278|365:307,1,60.2999971476747,8|0,0:0|1:0,0:0:0:0:
429,370,46639,1,0,0:0:0:0:
493,305,46797,2,0,P|490:274|485:245,1,60.2999971476747,8|0,0:0|0:0,0:0:0:0:
429,174,47112,5,0,1:0:0:0:
429,174,47270,1,0,0:0:0:0:
373,246,47428,2,0,L|302:241,1,60.2999971476747,0|8,0:0|0:0,0:0:0:0:
234,196,47744,1,8,1:0:0:0:
81,293,48060,2,0,P|110:288|152:288,1,60.2999971476747,8|0,0:0|0:0,0:0:0:0:
225,316,48376,6,0,L|236:170,1,120.599994295349,0|0,1:0|0:0,0:0:0:0:
170,130,48849,2,0,L|175:57,1,60.2999971476747,8|0,0:0|1:0,0:0:0:0:
252,22,49165,1,0,0:0:0:0:
317,84,49323,2,0,L|312:144,1,60.2999971476747,8|0,0:0|0:0,0:0:0:0:
234,195,49639,5,0,1:0:0:0:
289,266,49797,1,8,0:0:0:0:
367,222,49954,1,0,0:0:0:0:
428,287,50112,2,0,P|445:264|458:225,1,60.2999971476747,8|8,0:0|1:0,0:0:0:0:
421,150,50428,2,0,L|432:24,1,120.599994295349,0|0,0:0|0:0,0:0:0:0:
342,12,50902,6,0,B|304:26|304:26|218:18,1,120.599994295349,0|0,1:0|0:0,0:0:0:0:
133,16,51376,1,8,0:0:0:0:
133,16,51533,1,0,1:0:0:0:
49,176,51849,1,8,0:0:0:0:
49,176,52007,1,0,0:0:0:0:
77,262,52165,6,0,P|112:239|137:152,1,120.599994295349,0|0,1:0|0:0,0:0:0:0:
89,91,52639,1,8,0:0:0:0:
89,91,52797,1,8,1:0:0:0:
269,91,53112,1,8,0:0:0:0:
269,91,53270,1,0,0:0:0:0:
333,155,53428,6,0,L|325:282,1,120.599994295349,0|0,1:0|0:0,0:0:0:0:
319,366,53902,1,8,0:0:0:0:
319,366,54060,1,0,1:0:0:0:
470,267,54376,2,0,L|473:206,1,60.2999971476747,8|0,0:0|0:0,0:0:0:0:
416,136,54691,5,0,1:0:0:0:
416,136,54849,2,0,L|419:75,1,60.2999971476747,2|0,0:0|0:0,0:0:0:0:
329,67,55165,1,8,0:0:0:0:
329,67,55323,2,0,L|325:127,1,60.2999971476747,8|0,1:0|0:0,0:0:0:0:
234,121,55639,2,0,L|237:60,1,60.2999971476747,8|0,0:0|0:0,0:0:0:0:
152,29,55954,6,0,B|92:46|100:18|24:36,1,120.599994295349,0|0,1:0|0:0,0:0:0:0:
68,118,56428,1,8,0:0:0:0:
68,118,56586,2,0,L|59:189,1,60.2999971476747,0|0,1:0|0:0,0:0:0:0:
15,256,56902,2,0,L|22:315,1,60.2999971476747,8|0,0:0|0:0,0:0:0:0:
97,368,57218,6,0,L|223:358,1,120.599994295349,0|0,1:0|0:0,0:0:0:0:
281,294,57691,1,8,0:0:0:0:
340,361,57849,2,0,P|360:336|372:300,1,60.2999971476747,8|0,1:0|0:0,0:0:0:0:
341,223,58165,1,8,0:0:0:0:
341,223,58323,1,0,0:0:0:0:
281,294,58481,6,0,P|250:241|264:170,1,120.599994295349,0|0,1:0|0:0,0:0:0:0:
327,127,58954,2,0,P|276:96|217:102,1,120.599994295349,8|0,0:0|0:0,0:0:0:0:
166,177,59428,2,0,L|101:169,1,60.2999971476747,8|0,0:0|0:0,0:0:0:0:
34,225,59744,6,0,P|43:259|43:293,1,60.2999971476747,0|8,1:0|0:0,0:0:0:0:
82,366,60060,2,0,P|110:357|140:356,1,60.2999971476747,0|8,0:0|0:0,0:0:0:0:
230,371,60376,1,8,1:0:0:0:
230,371,60533,2,0,P|260:369|288:361,2,60.2999971476747,0|8|0,0:0|0:0|0:0,0:0:0:0:
197,294,61007,6,0,L|208:118,2,155.250002961159,2|2|2,1:2|0:0|0:0,0:0:0:0:
31,281,62270,2,0,L|42:105,2,155.250002961159,2|2|2,1:2|0:0|0:0,0:0:0:0:
197,294,63533,6,0,B|287:267|257:310|355:289,2,155.250002961159,2|2|2,1:2|0:0|0:0,0:0:0:0:
115,311,64639,1,2,0:0:0:0:
115,311,64797,1,2,1:2:0:0:
71,241,64954,2,0,L|77:171,1,51.7500009870529,2|2,0:2|0:0,0:0:0:0:
126,125,65270,1,2,0:0:0:0:
194,171,65428,1,8,1:0:0:0:
258,118,65586,2,0,L|253:85,2,25.8750004935265,0|0|2,0:0|0:0|0:0,0:0:0:0:
273,199,65902,1,0,0:0:0:0:
337,147,66060,6,0,P|354:210|301:276,2,155.250002961159,2|2|2,1:2|0:0|0:0,0:0:0:0:
232,17,67323,2,0,L|60:31,2,155.250002961159,2|2|2,1:2|0:0|0:0,0:0:0:0:
337,147,68586,6,0,B|364:239|318:215|341:316,2,155.250002961159,2|2|2,1:2|0:0|0:0,0:0:0:0:
298,73,69691,1,2,0:0:0:0:
254,143,69849,2,0,L|212:140,2,25.8750004935265,2|0|2,1:2|0:0|0:0,0:0:0:0:
337,147,70165,2,0,L|404:140,1,51.7500009870529,0|2,0:0|0:0,0:0:0:0:
471,135,70481,1,8,1:0:0:0:
471,135,70560,1,0,0:0:0:0:
471,135,70639,1,0,0:0:0:0:
441,212,70797,2,0,P|441:245|443:284,1,51.7500009870529,2|2,0:1|0:1,0:0:0:0:
400,335,71112,6,0,P|351:315|278:315,1,103.500001974106,8|0,0:0|0:0,0:0:0:0:
225,346,71586,1,8,0:0:0:0:
225,346,71744,2,0,L|167:341,1,51.7500009870529,0|0,0:0|0:0,0:0:0:0:
90,353,72060,2,0,L|95:295,1,51.7500009870529,8|0,0:0|0:0,0:0:0:0:
164,257,72375,2,0,L|154:144,1,103.500001974106,8|0,0:0|0:0,0:0:0:0:
141,71,72849,1,8,0:0:0:0:
218,99,73007,1,8,0:1:0:0:
218,99,73639,6,0,L|287:91,1,51.7500009870529,8|2,0:0|0:0,0:0:0:0:
327,34,73954,2,0,L|378:39,1,51.7500009870529,0|8,0:0|0:0,0:0:0:0:
460,55,74270,2,0,B|470:108|470:108|461:170,1,103.500001974106,2|8,0:0|0:0,0:0:0:0:
445,238,74744,1,0,0:0:0:0:
382,185,74902,1,8,0:0:0:0:
382,185,75060,1,2,0:0:0:0:
313,232,75218,2,0,P|311:256|314:292,1,51.7500009870529,0|0,0:0|0:0,0:0:0:0:
317,366,75533,2,0,B|283:360|283:360|216:364,1,77.6250014805794,2|0,0:1|0:0,0:0:0:0:
198,362,75849,2,0,P|196:336|197:307,1,51.7500009870529,2|2,0:1|0:3,0:0:0:0:
205,227,76165,5,8,0:0:0:0:
205,227,76323,1,0,0:0:0:0:
220,145,76481,2,0,L|157:149,1,51.7500009870529,0|8,0:0|0:0,0:0:0:0:
85,158,76797,1,0,0:0:0:0:
85,158,76954,1,0,0:0:0:0:
26,99,77112,2,0,L|22:47,1,51.7500009870529,8|0,0:0|0:0,0:0:0:0:
96,9,77428,2,0,P|139:33|204:33,1,103.500001974106,8|0,0:0|0:0,0:0:0:0:
275,26,77902,1,8,0:0:0:0:
243,102,78060,2,0,L|248:214,1,103.500001974106,0|8,0:0|0:0,0:0:0:0:
252,288,78533,1,0,0:0:0:0:
259,370,78691,5,8,0:0:0:0:
326,322,78849,2,0,L|364:317,2,25.8750004935265,2|0|0,0:0|0:0|0:0,0:0:0:0:
252,288,79165,1,8,0:0:0:0:
185,336,79323,1,0,0:0:0:0:
185,336,79481,2,0,P|170:284|194:228,1,103.500001974106,0|2,0:0|0:0,0:0:0:0:
201,157,79954,1,8,0:0:0:0:
201,157,80112,2,0,L|144:162,1,51.7500009870529,2|2,0:0|0:0,0:0:0:0:
66,154,80428,1,2,0:0:0:0:
114,85,80586,2,0,L|234:74,1,103.500001974106,8|0,0:1|0:0,0:0:0:0:
293,108,81060,1,0,0:0:0:0:
361,62,81218,5,2,1:2:0:0:
361,62,81375,2,0,P|387:59|419:62,1,53.9999983520508,0|0,0:0|0:0,0:0:0:0:
476,122,81691,2,0,P|473:148|476:175,1,53.9999983520508,2|0,0:0|1:0,0:0:0:0:
493,261,82007,2,0,P|495:287|492:314,1,53.9999983520508,0|2,0:0|0:0,0:0:0:0:
425,370,82323,1,0,0:0:0:0:
397,287,82481,1,2,1:2:0:0:
397,287,82639,1,0,0:0:0:0:
337,349,82797,2,0,P|311:344|280:342,1,53.9999983520508,0|2,0:0|0:0,0:0:0:0:
198,355,83112,2,0,L|204:277,1,53.9999983520508,0|0,1:0|0:0,0:0:0:0:
264,240,83428,1,2,0:0:0:0:
264,240,83586,6,0,L|258:162,1,53.9999983520508,0|2,0:0|1:2,0:0:0:0:
208,115,83902,2,0,L|214:37,1,53.9999983520508,0|0,0:0|0:0,0:0:0:0:
125,62,84218,1,2,0:0:0:0:
125,62,84375,2,0,L|120:115,1,53.9999983520508,0|0,1:0|0:0,0:0:0:0:
117,202,84691,1,2,0:0:0:0:
117,202,84849,1,2,0:0:0:0:
39,240,85007,6,0,P|74:274|113:289,2,80.9999975280763,2|2|2,1:2|0:0|0:0,0:0:0:0:
117,202,85639,2,0,L|199:205,2,80.9999975280763,2|2|2,1:2|0:0|0:0,0:0:0:0:
48,149,86270,2,0,P|48:115|50:63,2,80.9999975280763,2|2|2,1:2|0:0|0:0,0:0:0:0:
117,202,86902,2,0,P|117:251|114:326,1,107.999996704102,2|2,1:2|0:0,0:0:0:0:
176,371,87375,1,2,0:0:0:0:
176,371,87533,2,0,P|221:363|268:358,2,80.9999975280763,2|2|2,1:2|0:0|0:0,0:0:0:0:
115,310,88165,2,0,P|75:303|34:298,2,80.9999975280763,2|2|2,1:2|0:0|0:0,0:0:0:0:
176,249,88797,6,0,P|216:242|256:237,2,80.9999975280763,2|2|2,1:2|0:0|0:0,0:0:0:0:
115,310,89428,2,0,P|94:272|92:228,2,80.9999975280763,2|2|2,1:2|0:0|0:0,0:0:0:0:
176,249,90060,2,0,P|196:214|200:174,2,80.9999975280763,2|2|2,1:2|0:2|0:0,0:0:0:0:
91,235,90691,2,0,L|95:108,1,107.999996704102,2|2,1:2|0:0,0:0:0:0:
248,33,91323,6,0,L|312:36,1,56.25,2|0,1:2|0:0,0:0:0:0:
304,120,91639,2,0,L|247:122,1,56.25,0|2,0:0|0:0,0:0:0:0:
247,207,91954,2,0,L|311:210,1,56.25,0|0,1:0|0:0,0:0:0:0:
303,294,92270,2,0,L|246:296,1,56.25,2|0,0:0|0:0,0:0:0:0:
162,303,92586,1,2,1:2:0:0:
162,303,92744,1,0,0:0:0:0:
77,310,92902,2,0,L|20:312,1,56.25,0|2,0:0|0:0,0:0:0:0:
46,231,93218,2,0,P|46:197|39:154,1,56.25,8|0,1:0|0:0,0:0:0:0:
35,90,93533,1,2,0:0:0:0:
191,26,93849,6,0,P|190:58|192:83,1,56.25,2|0,1:2|0:0,0:0:0:0:
207,165,94165,1,0,0:0:0:0:
207,165,94323,1,2,0:0:0:0:
222,248,94481,2,0,P|223:276|222:304,1,56.25,0|0,1:0|0:0,0:0:0:0:
162,364,94797,2,0,P|133:365|105:363,1,56.25,2|2,0:0|0:0,0:0:0:0:
32,320,95112,2,0,B|43:279|43:279|37:192,1,112.5,2|0,1:2|0:0,0:0:0:0:
29,124,95586,1,2,0:0:0:0:
16,40,95744,2,0,L|92:44,1,56.25,8|0,1:0|0:0,0:0:0:0:
156,54,96060,1,2,0:0:0:0:
236,202,96375,6,0,L|124:196,1,112.5,2|0,1:2|0:0,0:0:0:0:
38,209,96849,1,2,0:0:0:0:
87,277,97007,2,0,L|163:281,1,56.25,0|0,1:0|0:0,0:0:0:0:
172,359,97323,2,0,L|248:363,1,56.25,2|0,0:0|0:0,0:0:0:0:
312,372,97639,1,2,1:2:0:0:
312,372,97797,1,0,0:0:0:0:
395,378,97954,2,0,P|403:346|402:318,1,56.25,0|2,0:0|0:0,0:0:0:0:
344,260,98270,2,0,B|333:217|342:174|342:174|374:199,1,112.5,8|2,1:0|0:0,0:0:0:0:
468,57,98902,6,0,L|353:50,1,112.5,2|0,1:2|0:0,0:0:0:0:
271,48,99375,2,0,P|265:75|261:110,1,56.25,2|0,0:0|1:0,0:0:0:0:
317,166,99691,2,0,L|202:159,1,112.5,0|2,0:0|0:0,0:0:0:0:
119,159,100165,1,2,1:2:0:0:
119,159,100323,2,0,B|124:190|124:190|124:229,1,56.25,10|0,0:0|0:0,0:0:0:0:
121,299,100639,1,2,0:0:0:0:
196,261,100797,1,8,1:0:0:0:
232,334,100954,2,0,P|272:286|272:230,1,112.5,0|2,0:0|0:1,0:0:0:0:
188,140,101428,6,0,L|195:260,1,120.599994295349,4|0,1:0|0:0,0:0:0:0:
143,333,101902,1,8,0:0:0:0:
65,286,102060,2,0,L|61:219,1,60.2999971476747,0|0,1:0|0:0,0:0:0:0:
32,139,102375,2,0,L|36:72,1,60.2999971476747,8|0,0:0|0:0,0:0:0:0:
104,19,102691,6,0,L|178:24,1,60.2999971476747,0|0,1:0|0:0,0:0:0:0:
228,87,103007,2,0,L|321:80,1,90.4499957215121,0|0,0:0|0:0,0:0:0:0:
364,80,103323,2,0,P|360:106|366:141,1,60.2999971476747,8|0,1:0|0:0,0:0:0:0:
403,222,103639,2,0,P|406:251|401:281,1,60.2999971476747,8|0,0:0|0:0,0:0:0:0:
460,350,103954,6,0,P|400:338|339:348,1,120.599994295349,0|0,1:0|0:0,0:0:0:0:
254,372,104428,1,8,0:0:0:0:
163,377,104586,2,0,P|162:345|155:310,1,60.2999971476747,0|0,1:0|0:0,0:0:0:0:
66,303,104902,2,0,P|66:272|72:243,1,60.2999971476747,8|0,0:0|0:0,0:0:0:0:
120,166,105217,6,0,P|74:196|7:189,1,120.599994295349,0|0,1:0|0:0,0:0:0:0:
50,108,105691,1,8,0:0:0:0:
33,19,105849,2,0,B|65:16|93:28,1,60.2999971476747,8|0,1:0|0:0,0:0:0:0:
159,88,106164,1,8,0:0:0:0:
332,146,106481,6,0,B|390:134|390:134|457:151,1,120.599994295349,0|0,1:0|0:0,0:0:0:0:
389,217,106954,2,0,P|387:250|388:280,1,60.2999971476747,8|0,0:0|1:0,0:0:0:0:
403,366,107270,1,0,0:0:0:0:
403,366,107428,2,0,L|331:362,1,60.2999971476747,8|0,0:0|0:0,0:0:0:0:
278,298,107743,5,0,1:0:0:0:
278,298,107901,1,0,0:0:0:0:
213,362,108060,2,0,L|152:365,1,60.2999971476747,0|8,0:0|0:0,0:0:0:0:
62,365,108375,1,8,1:0:0:0:
21,188,108691,2,0,L|81:184,1,60.2999971476747,8|0,0:0|0:0,0:0:0:0:
136,257,109007,6,0,P|136:195|176:146,1,120.599994295349,0|0,1:0|0:0,0:0:0:0:
220,225,109481,2,0,P|253:229|293:230,1,60.2999971476747,8|0,0:0|1:0,0:0:0:0:
344,165,109796,1,0,0:0:0:0:
256,141,109954,2,0,L|263:70,1,60.2999971476747,8|0,0:0|0:0,0:0:0:0:
333,24,110270,5,0,1:0:0:0:
333,24,110428,1,8,0:0:0:0:
262,81,110585,1,0,0:0:0:0:
193,20,110744,2,0,L|129:22,1,60.2999971476747,8|8,0:0|1:0,0:0:0:0:
42,19,111059,2,0,P|31:76|31:139,1,120.599994295349,0|0,0:0|0:0,0:0:0:0:
19,228,111533,6,0,B|98:220|98:220|136:234,1,120.599994295349,0|0,1:0|0:0,0:0:0:0:
214,282,112007,1,8,0:0:0:0:
214,282,112164,1,0,1:0:0:0:
214,100,112480,1,8,0:0:0:0:
214,100,112638,1,0,0:0:0:0:
242,185,112796,6,0,P|277:162|302:75,1,120.599994295349,0|0,1:0|0:0,0:0:0:0:
249,17,113270,1,8,0:0:0:0:
249,17,113428,1,8,1:0:0:0:
397,119,113743,1,8,0:0:0:0:
397,119,113901,1,0,0:0:0:0:
453,48,114059,6,0,P|452:126|456:177,1,120.599994295349,0|0,1:0|0:0,0:0:0:0:
464,259,114533,1,8,0:0:0:0:
464,259,114691,1,0,1:0:0:0:
309,352,115007,2,0,P|308:322|312:291,1,60.2999971476747,8|0,0:0|0:0,0:0:0:0:
348,209,115322,5,0,1:0:0:0:
348,209,115481,2,0,L|287:206,1,60.2999971476747,2|0,0:0|0:0,0:0:0:0:
230,276,115797,2,0,L|170:272,1,60.2999971476747,8|8,0:0|1:0,0:0:0:0:
112,201,116112,1,0,0:0:0:0:
112,201,116270,2,0,L|52:197,1,60.2999971476747,8|0,0:0|0:0,0:0:0:0:
35,107,116586,6,0,L|181:116,1,120.599994295349,0|0,1:0|0:0,0:0:0:0:
245,120,117059,1,8,0:0:0:0:
245,120,117217,2,0,P|246:87|252:60,1,60.2999971476747,0|0,1:0|0:0,0:0:0:0:
343,60,117533,2,0,P|349:89|350:119,1,60.2999971476747,8|0,0:0|0:0,0:0:0:0:
299,194,117849,6,0,P|354:175|420:205,1,120.599994295349,0|0,1:0|0:0,0:0:0:0:
354,265,118322,1,8,0:0:0:0:
299,194,118481,2,0,P|275:213|245:227,1,60.2999971476747,8|0,1:0|0:0,0:0:0:0:
157,225,118797,2,0,P|129:211|106:193,1,60.2999971476747,8|0,0:0|0:0,0:0:0:0:
41,130,119112,6,0,B|57:188|57:188|36:251,1,120.599994295349,0|0,1:0|0:0,0:0:0:0:
12,332,119586,2,0,B|69:351|69:351|127:335,1,120.599994295349,8|0,0:0|0:0,0:0:0:0:
217,348,120060,2,0,P|213:313|214:285,1,60.2999971476747,8|0,0:0|0:0,0:0:0:0:
212,197,120375,6,0,L|277:202,1,60.2999971476747,0|8,1:0|0:0,0:0:0:0:
354,161,120691,1,0,0:0:0:0:
281,107,120849,2,0,L|220:102,1,60.2999971476747,8|8,0:0|1:0,0:0:0:0:
138,141,121165,2,0,P|87:137|39:81,1,120.599994295349,0|0,0:0|0:0,0:0:0:0:
119,60,121639,6,0,L|84:224,1,155.250002961159,6|2,1:2|0:0,0:0:0:0:
25,267,122270,2,0,P|75:260|120:293,1,103.500001974106,0|2,1:0|0:0,0:0:0:0:
261,370,122902,2,0,L|296:206,1,155.250002961159,2|2,1:2|0:0,0:0:0:0:
355,163,123533,2,0,P|305:170|260:137,1,103.500001974106,0|2,1:0|0:0,0:0:0:0:
119,60,124165,5,2,1:2:0:0:
119,60,124323,2,0,L|105:124,1,51.7500009870529,0|0,0:0|0:0,0:0:0:0:
90,192,124639,1,2,0:0:0:0:
90,192,124797,2,0,L|76:256,1,51.7500009870529,0|0,1:0|0:0,0:0:0:0:
80,325,125112,2,0,P|105:330|134:330,1,51.7500009870529,2|2,0:0|0:0,0:0:0:0:
207,295,125428,1,2,1:2:0:0:
207,295,125586,2,0,L|320:301,1,103.500001974106,2|2,0:0|0:0,0:0:0:0:
393,310,126060,1,0,1:0:0:0:
393,310,126218,1,0,0:0:0:0:
441,243,126375,1,2,0:0:0:0:
441,243,126533,1,0,0:0:0:0:
390,176,126691,6,0,L|396:115,1,51.7500009870529,2|0,1:2|0:0,0:0:0:0:
410,42,127007,2,0,B|356:48|356:48|313:31|313:31|253:37,1,155.250002961159,2|0,0:1|0:0,0:0:0:0:
177,53,127639,1,2,0:0:0:0:
230,115,127797,2,0,L|226:185,1,51.7500009870529,0|2,0:0|1:2,0:0:0:0:
298,208,128112,2,0,L|294:278,1,51.7500009870529,0|0,0:0|0:0,0:0:0:0:
288,342,128428,1,2,0:0:0:0:
218,296,128586,1,0,1:0:0:0:
218,296,128744,1,0,0:0:0:0:
156,351,128902,1,2,0:0:0:0:
156,351,129060,1,0,0:0:0:0:
90,300,129218,6,0,P|88:265|95:233,1,51.7500009870529,2|0,1:2|0:0,0:0:0:0:
99,166,129533,2,0,B|149:159|149:159|178:169|178:169|207:155|254:162,1,155.250002961159,2|0,0:1|0:0,0:0:0:0:
331,181,130165,1,2,0:0:0:0:
307,101,130323,2,0,P|334:98|375:107,1,51.7500009870529,2|2,0:0|1:2,0:0:0:0:
417,159,130639,2,0,P|420:186|411:227,1,51.7500009870529,2|0,0:0|0:0,0:0:0:0:
352,262,130954,1,2,0:0:0:0:
331,181,131112,2,0,P|286:211|269:270,1,103.500001974106,0|2,1:0|0:0,0:0:0:0:
305,330,131586,1,0,0:0:0:0:
228,362,131744,6,0,B|190:357|190:357|117:366,1,103.500001974106,2|0,1:2|0:0,0:0:0:0:
42,370,132218,2,0,P|42:328|46:263,1,103.500001974106,2|0,0:0|0:0,0:0:0:0:
56,184,132691,1,2,0:0:0:0:
56,184,132849,1,0,0:0:0:0:
122,233,133007,2,0,P|173:232|223:189,1,103.500001974106,2|0,1:2|0:0,0:0:0:0:
147,153,133481,1,2,0:0:0:0:
122,233,133639,2,0,L|130:346,1,103.500001974106,0|2,1:0|0:0,0:0:0:0:
292,363,134270,6,0,P|316:355|347:350,1,51.7500009870529,2|0,1:2|0:0,0:0:0:0:
424,364,134586,1,0,0:0:0:0:
396,285,134744,1,2,0:0:0:0:
396,285,134902,2,0,L|401:211,1,51.7500009870529,0|0,1:0|0:0,0:0:0:0:
456,172,135218,2,0,L|451:98,1,51.7500009870529,2|2,0:0|0:0,0:0:0:0:
403,53,135533,2,0,B|342:69|361:38|287:53,1,103.500001974106,2|0,1:2|0:0,0:0:0:0:
134,52,136165,2,0,L|141:105,1,51.7500009870529,0|0,1:0|0:0,0:0:0:0:
159,184,136481,1,2,0:0:0:0:
159,184,136639,1,0,0:0:0:0:
121,257,136797,6,0,P|164:235|221:235,1,103.500001974106,2|0,1:2|0:0,0:0:0:0:
343,343,137428,2,0,P|394:343|438:317,1,103.500001974106,0|2,1:0|0:0,0:0:0:0:
497,258,137902,2,0,P|495:230|495:189,1,51.7500009870529,0|2,0:0|1:2,0:0:0:0:
420,167,138218,2,0,P|422:139|422:98,1,51.7500009870529,0|0,0:0|0:0,0:0:0:0:
422,32,138533,1,2,0:0:0:0:
351,75,138691,2,0,P|293:75|244:53,1,103.500001974106,0|2,1:0|0:0,0:0:0:0:
130,172,139323,6,0,B|181:161|181:161|237:175,1,103.500001974106,2|0,1:2|0:0,0:0:0:0:
297,123,139797,1,2,0:0:0:0:
305,207,139954,2,0,P|292:251|292:312,1,103.500001974106,0|2,1:0|0:0,0:0:0:0:
367,273,140428,1,2,0:0:0:0:
360,354,140586,2,0,L|193:358,1,155.250002961159,2|2,1:2|0:0,0:0:0:0:
121,359,141218,1,2,1:2:0:0:
27,222,141533,1,2,0:0:0:0:
142,102,141849,5,6,1:2:0:0:
142,102,142007,2,0,P|172:108|198:108,2,51.7500009870529,0|0|2,0:0|0:0|0:0,0:0:0:0:
73,53,142481,2,0,P|84:98|75:161,1,103.500001974106,0|2,0:0|0:0,0:0:0:0:
27,222,142954,2,0,P|12:269|30:328,1,103.500001974106,0|0,0:0|0:0,0:0:0:0:
91,370,143428,2,0,P|113:365|153:366,1,51.7500009870529,0|2,0:0|0:0,0:0:0:0:
224,374,143744,2,0,L|221:318,1,51.7500009870529,0|0,0:0|0:0,0:0:0:0:
214,239,144060,1,2,0:0:0:0:
332,122,144376,6,0,L|388:123,1,51.7500009870529,2|0,0:0|0:0,0:0:0:0:
458,158,144691,1,0,0:0:0:0:
393,209,144849,1,2,0:0:0:0:
393,209,145007,2,0,L|399:274,1,51.7500009870529,0|0,0:0|0:0,0:0:0:0:
420,340,145323,2,0,L|368:335,1,51.7500009870529,2|2,0:0|0:0,0:0:0:0:
285,327,145639,1,2,0:0:0:0:
285,327,145797,1,2,0:0:0:0:
203,335,145954,2,0,L|151:339,1,51.7500009870529,0|2,0:0|0:0,0:0:0:0:
68,346,146270,2,0,P|81:294|59:231,1,103.500001974106,0|2,0:0|0:0,0:0:0:0:
34,84,146902,5,2,0:0:0:0:
103,129,147060,2,0,L|98:167,2,25.8750004935265
118,47,147376,1,2,0:0:0:0:
179,101,147533,2,0,P|234:101|291:60,1,103.500001974106,0|2,0:0|0:0,0:0:0:0:
434,29,148165,2,0,L|432:90,1,51.7500009870529,2|0,0:0|0:0,0:0:0:0:
466,156,148481,1,0,0:0:0:0:
383,146,148639,1,2,0:0:0:0:
416,221,148797,2,0,L|415:273,1,51.7500009870529,0|0,0:0|0:0,0:0:0:0:
332,266,149112,2,0,L|333:214,1,51.7500009870529,2|0,0:0|0:0,0:0:0:0:
383,146,149428,6,0,L|384:94,2,51.7500009870529,2|0|0,0:0|0:0|0:0,0:0:0:0:
334,214,149902,2,0,P|302:206|275:206,1,51.7500009870529,2|0,0:0|0:0,0:0:0:0:
203,228,150218,2,0,L|194:263,2,25.8750004935265,0|0|2,0:0|0:0|0:0,0:0:0:0:
228,149,150533,1,2,0:0:0:0:
148,144,150691,1,2,0:0:0:0:
148,144,150849,1,2,0:0:0:0:
80,95,151007,2,0,L|88:32,1,51.7500009870529,2|2,0:0|0:0,0:0:0:0:
163,11,151323,1,2,0:0:0:0:
221,69,151481,1,2,0:0:0:0:
303,69,151639,1,2,0:0:0:0:
361,10,151797,1,2,0:0:0:0:
421,70,151954,6,0,B|440:125|440:125|433:182,1,107.999996704102,8|8,0:0|0:0,0:0:0:0:
372,235,152428,2,0,L|381:303,1,53.9999983520508,0|8,0:0|0:0,0:0:0:0:
395,373,152744,1,0,0:0:0:0:
314,342,152902,2,0,L|258:345,1,53.9999983520508,8|0,0:0|0:0,0:0:0:0:
175,365,153218,2,0,B|190:308|159:319|177:251,1,107.999996704102,8|8,0:0|0:0,0:0:0:0:
188,173,153691,2,0,P|161:168|135:168,1,53.9999983520508,0|8,0:0|0:0,0:0:0:0:
58,209,154007,1,0,0:0:0:0:
26,128,154165,2,0,L|34:71,1,53.9999983520508,8|0,0:0|0:0,0:0:0:0:
101,20,154481,6,0,P|152:38|210:21,1,107.999996704102,8|8,0:0|0:0,0:0:0:0:
269,80,154954,2,0,P|268:107|270:135,1,53.9999983520508,0|8,0:0|0:0,0:0:0:0:
281,220,155270,2,0,L|324:216,2,26.9999991760254,0|0|8,0:0|0:0|0:0,0:0:0:0:
194,229,155586,1,0,0:0:0:0:
123,178,155744,2,0,P|107:232|123:280,1,107.999996704102,8|8,0:0|0:0,0:0:0:0:
166,354,156218,2,0,P|216:340|273:355,1,107.999996704102,0|0,0:0|0:0,0:0:0:0:
355,363,156691,1,8,0:0:0:0:
355,363,156849,1,0,0:0:0:0:
440,373,157007,6,0,P|443:342|440:308,1,53.9999983520508,8|0,0:0|0:0,0:0:0:0:
439,232,157323,1,8,0:0:0:0:
492,164,157481,2,0,P|457:148|389:161,1,107.999996704102,0|0,0:0|0:0,0:0:0:0:
326,217,157954,2,0,L|273:210,1,53.9999983520508,8|0,0:0|0:0,0:0:0:0:
186,197,158270,2,0,P|181:223|182:254,1,53.9999983520508,8|0,0:0|0:0,0:0:0:0:
227,324,158586,1,8,0:0:0:0:
151,366,158744,2,0,B|118:356|118:356|81:377|38:366,2,107.999996704102,0|0|0,0:0|0:0|0:0,0:0:0:0:
227,324,159533,6,0,L|284:328,1,53.9999983520508,8|0,0:0|0:0,0:0:0:0:
366,340,159849,1,8,0:0:0:0:
335,259,160007,1,0,0:0:0:0:
420,272,160165,2,0,P|426:238|427:207,1,53.9999983520508,8|0,0:0|0:0,0:0:0:0:
427,131,160481,2,0,P|394:144|347:144,1,80.9999975280763,8|0,0:0|0:0,0:0:0:0:
306,143,160797,1,0,0:0:0:0:
306,143,161428,2,0,P|277:137|241:138,1,51.7500009870529,8|2,0:0|0:0,0:0:0:0:
213,142,161665,1,2,0:0:0:0:
213,142,161744,2,0,P|187:141|161:135,1,51.7500009870529,8|2,0:0|0:0,0:0:0:0:
58,31,162060,6,0,P|66:90|58:150,1,120.599994295349,4|0,1:0|0:0,0:0:0:0:
41,239,162533,1,8,0:0:0:0:
22,327,162691,2,0,P|52:330|84:334,1,60.2999971476747,0|0,1:0|0:0,0:0:0:0:
162,291,163007,2,0,P|191:287|221:291,1,60.2999971476747,8|0,0:0|0:0,0:0:0:0:
266,372,163323,6,0,P|266:323|312:264,1,120.599994295349,0|0,1:0|0:0,0:0:0:0:
386,224,163796,1,8,0:0:0:0:
309,175,163954,1,8,1:0:0:0:
307,267,164112,1,0,0:0:0:0:
386,224,164270,2,0,P|410:225|450:241,1,60.2999971476747,8|0,0:0|0:0,0:0:0:0:
485,156,164586,6,0,L|487:24,1,120.599994295349,0|0,1:0|0:0,0:0:0:0:
395,34,165060,1,8,0:0:0:0:
395,34,165218,2,0,L|394:94,1,60.2999971476747,0|0,1:0|0:0,0:0:0:0:
330,158,165533,2,0,L|330:218,1,60.2999971476747,8|0,0:0|0:0,0:0:0:0:
404,271,165849,6,0,P|359:302|291:300,1,120.599994295349,0|0,1:0|0:0,0:0:0:0:
210,268,166323,1,8,0:0:0:0:
124,296,166481,2,0,B|116:269|125:236,1,60.2999971476747,8|0,1:0|0:0,0:0:0:0:
141,147,166796,1,8,0:0:0:0:
316,100,167112,6,0,P|330:158|331:218,1,120.599994295349,0|0,1:0|0:0,0:0:0:0:
305,306,167586,2,0,L|371:303,1,60.2999971476747,8|0,0:0|1:0,0:0:0:0:
456,302,167902,1,0,0:0:0:0:
456,302,168060,2,0,P|453:266|454:234,1,60.2999971476747,8|0,0:0|0:0,0:0:0:0:
457,151,168375,5,0,1:0:0:0:
457,151,168533,1,0,0:0:0:0:
474,62,168691,2,0,P|446:57|412:57,1,60.2999971476747,0|8,0:0|0:0,0:0:0:0:
323,64,169007,1,8,1:0:0:0:
180,175,169323,2,0,P|208:170|242:170,1,60.2999971476747,8|0,0:0|0:0,0:0:0:0:
329,180,169639,6,0,P|340:121|323:64,1,120.599994295349,0|0,1:0|0:0,0:0:0:0:
245,16,170112,2,0,P|219:31|188:40,1,60.2999971476747,8|0,0:0|1:0,0:0:0:0:
100,25,170428,1,0,0:0:0:0:
24,75,170586,2,0,P|33:103|36:143,1,60.2999971476747,8|0,0:0|0:0,0:0:0:0:
47,224,170902,5,0,1:0:0:0:
124,177,171060,1,8,0:0:0:0:
196,230,171217,1,0,0:0:0:0:
286,228,171375,2,0,P|291:199|285:159,1,60.2999971476747,8|8,0:0|1:0,0:0:0:0:
203,197,171691,2,0,L|214:71,1,120.599994295349
312,37,172165,6,0,B|373:31|373:31|434:57,1,120.599994295349,0|0,1:0|0:0,0:0:0:0:
499,110,172639,1,8,0:0:0:0:
499,110,172796,1,0,1:0:0:0:
363,230,173112,1,8,0:0:0:0:
363,230,173270,1,0,0:0:0:0:
390,316,173428,6,0,P|427:292|450:206,1,120.599994295349,0|0,1:0|0:0,0:0:0:0:
401,146,173902,1,8,0:0:0:0:
401,146,174060,1,8,1:0:0:0:
220,146,174375,1,8,0:0:0:0:
220,146,174533,1,0,0:0:0:0:
290,203,174691,6,0,P|309:146|289:88,1,120.599994295349,0|0,1:0|0:0,0:0:0:0:
220,32,175165,1,8,0:0:0:0:
220,32,175323,1,0,1:0:0:0:
290,203,175639,2,0,P|292:232|290:264,1,60.2999971476747,8|0,0:0|0:0,0:0:0:0:
282,353,175954,5,0,1:0:0:0:
282,353,176112,2,0,P|251:344|217:344,1,60.2999971476747,2|0,0:0|0:0,0:0:0:0:
133,357,176428,1,8,0:0:0:0:
133,357,176586,2,0,P|102:355|74:347,1,60.2999971476747,8|0,1:0|0:0,0:0:0:0:
22,272,176902,2,0,P|30:243|31:213,1,60.2999971476747,8|0,0:0|0:0,0:0:0:0:
28,122,177218,6,0,P|80:139|144:126,1,120.599994295349,0|0,1:0|0:0,0:0:0:0:
231,105,177691,1,8,0:0:0:0:
231,105,177849,2,0,L|222:176,1,60.2999971476747,0|0,1:0|0:0,0:0:0:0:
151,221,178165,2,0,L|158:280,1,60.2999971476747,8|0,0:0|0:0,0:0:0:0:
157,371,178481,6,0,P|211:356|283:361,1,120.599994295349,0|0,1:0|0:0,0:0:0:0:
365,360,178954,1,8,0:0:0:0:
454,371,179112,2,0,P|458:342|447:296,1,60.2999971476747,8|0,1:0|0:0,0:0:0:0:
407,232,179428,2,0,P|403:203|414:157,1,60.2999971476747,8|0,0:0|0:0,0:0:0:0:
419,82,179744,6,0,L|355:83,1,60.2999971476747,0|0,1:0|0:0,0:0:0:0:
294,18,180060,1,0,0:0:0:0:
229,82,180218,2,0,L|168:81,1,60.2999971476747,8|0,0:0|1:0,0:0:0:0:
78,79,180533,1,0,0:0:0:0:
13,143,180691,2,0,P|11:171|15:204,1,60.2999971476747,8|0,0:0|0:0,0:0:0:0:
35,291,181007,6,0,B|64:282|64:282|110:286,1,60.2999971476747,0|8,1:0|0:0,0:0:0:0:
138,295,181244,1,0,0:0:0:0:
138,295,181323,2,0,B|167:297|167:297|196:288,1,60.2999971476747,0|8,0:0|0:0,0:0:0:0:
274,255,181639,2,0,L|262:217,2,30.1499985738374,8|0|0,1:0|0:0|0:0,0:0:0:0:
304,333,181954,1,2,0:1:0:0:
304,333,182112,1,2,0:3:0:0:
336,187,182270,6,0,P|286:149|228:153,1,120.599994295349,4|0,1:0|0:0,0:0:0:0:
146,186,182744,1,8,0:0:0:0:
60,214,182902,2,0,L|56:147,1,60.2999971476747,0|0,1:0|0:0,0:0:0:0:
142,126,183218,2,0,L|146:193,1,60.2999971476747,8|0,0:0|0:0,0:0:0:0:
145,276,183533,6,0,L|219:281,1,60.2999971476747,0|0,1:0|0:0,0:0:0:0:
294,261,183849,1,0,0:0:0:0:
235,192,184007,1,8,0:0:0:0:
321,165,184165,2,0,P|347:169|382:163,1,60.2999971476747,8|0,1:0|0:0,0:0:0:0:
470,149,184481,2,0,P|473:178|474:215,1,60.2999971476747,8|0,0:0|0:0,0:0:0:0:
474,300,184797,6,0,P|449:303|412:304,1,60.2999971476747,0|0,1:0|0:0,0:0:0:0:
325,286,185112,2,0,P|294:286|264:290,1,60.2999971476747,0|8,0:0|0:0,0:0:0:0:
173,291,185428,1,0,1:0:0:0:
217,369,185586,1,0,0:0:0:0:
265,291,185744,2,0,L|259:223,1,60.2999971476747,8|0,0:0|0:0,0:0:0:0:
294,147,186059,6,0,P|248:177|181:170,1,120.599994295349,0|0,1:0|0:0,0:0:0:0:
111,117,186533,1,8,0:0:0:0:
35,69,186691,2,0,B|18:97|22:142,1,60.2999971476747,8|0,1:0|0:0,0:0:0:0:
76,201,187006,1,8,0:0:0:0:
223,94,187323,6,0,B|281:82|281:82|348:99,1,120.599994295349,0|0,1:0|0:0,0:0:0:0:
425,129,187797,1,8,0:0:0:0:
357,188,187954,2,0,P|363:220|372:251,1,60.2999971476747,0|0,1:0|0:0,0:0:0:0:
402,332,188270,2,0,L|330:328,1,60.2999971476747,8|0,0:0|0:0,0:0:0:0:
261,284,188586,6,0,P|233:340|175:360,1,120.599994295349,0|0,1:0|0:0,0:0:0:0:
98,321,189060,1,8,0:0:0:0:
180,280,189218,2,0,L|174:215,1,60.2999971476747,8|0,1:0|0:0,0:0:0:0:
110,155,189533,2,0,L|116:90,1,60.2999971476747,8|0,0:0|0:0,0:0:0:0:
179,30,189849,6,0,P|241:20|299:58,1,120.599994295349,0|0,1:0|0:0,0:0:0:0:
311,135,190323,1,8,0:0:0:0:
224,107,190481,2,0,L|230:175,1,60.2999971476747,0|0,1:0|0:0,0:0:0:0:
277,244,190797,2,0,L|271:312,1,60.2999971476747,8|0,0:0|0:0,0:0:0:0:
339,363,191112,6,0,P|374:366|399:363,1,60.2999971476747,0|8,1:0|0:0,0:0:0:0:
486,336,191428,1,0,0:0:0:0:
486,336,191586,2,0,P|478:304|477:275,1,60.2999971476747,8|8,0:0|1:0,0:0:0:0:
498,188,191902,2,0,B|462:170|462:170|379:178,1,120.599994295349,0|0,0:0|0:0,0:0:0:0:
317,242,192376,6,0,P|343:195|304:135,1,120.599994295349,0|0,1:0|0:0,0:0:0:0:
232,100,192849,1,8,0:0:0:0:
232,100,193006,1,0,1:0:0:0:
410,72,193322,1,8,0:0:0:0:
410,72,193480,1,0,0:0:0:0:
500,67,193639,6,0,L|498:189,1,120.599994295349,0|0,1:0|0:0,0:0:0:0:
497,278,194112,1,8,0:0:0:0:
497,278,194270,1,8,1:0:0:0:
334,356,194585,1,8,0:0:0:0:
334,356,194743,1,0,0:0:0:0:
397,291,194902,6,0,L|394:162,1,120.599994295349,0|0,1:0|0:0,0:0:0:0:
391,79,195375,1,8,0:0:0:0:
391,79,195533,2,0,L|313:78,1,60.2999971476747,0|0,1:0|0:0,0:0:0:0:
239,75,195849,1,8,0:0:0:0:
239,75,196007,1,0,0:0:0:0:
267,160,196164,5,0,1:0:0:0:
267,160,196323,1,2,0:0:0:0:
177,143,196481,1,0,0:0:0:0:
177,143,196639,2,0,P|186:178|186:207,1,60.2999971476747,8|8,0:0|1:0,0:0:0:0:
96,213,196954,1,0,0:0:0:0:
96,213,197112,2,0,P|87:178|87:149,1,60.2999971476747,8|0,0:0|0:0,0:0:0:0:
128,73,197428,6,0,P|183:90|256:88,1,120.599994295349,0|0,1:0|0:0,0:0:0:0:
336,89,197901,1,8,0:0:0:0:
336,89,198060,2,0,P|337:56|343:29,1,60.2999971476747,0|0,1:0|0:0,0:0:0:0:
433,29,198375,2,0,P|439:58|440:88,1,60.2999971476747,8|0,0:0|0:0,0:0:0:0:
391,165,198691,5,0,1:0:0:0:
455,229,198849,1,0,0:0:0:0:
390,293,199007,2,0,P|363:293|328:286,1,60.2999971476747,0|8,0:0|0:0,0:0:0:0:
242,262,199323,1,8,1:0:0:0:
391,165,199639,1,8,0:0:0:0:
256,44,199954,6,0,B|201:44|201:44|138:75,1,120.599994295349,0|0,1:0|0:0,0:0:0:0:
68,126,200428,1,8,0:0:0:0:
134,187,200586,2,0,L|129:249,1,60.2999971476747,0|0,1:0|0:0,0:0:0:0:
116,337,200902,2,0,P|151:344|189:344,1,60.2999971476747,8|0,0:0|0:0,0:0:0:0:
266,343,201218,5,0,1:0:0:0:
266,343,201376,2,0,P|263:312|266:279,1,60.2999971476747,8|0,0:0|0:0,0:0:0:0:
277,193,201691,1,8,0:0:0:0:
282,103,201849,2,0,P|247:108|211:133,1,60.2999971476747,8|0,1:0|0:0,0:0:0:0:
277,193,202165,2,0,P|312:188|348:163,1,60.2999971476747,8|0,0:0|0:0,0:0:0:0:
190,202,202481,6,0,L|187:261,1,57.6,6|2,1:2|0:0,0:0:0:0:
187,303,202718,1,0,0:0:0:0:
187,303,202797,1,2,0:0:0:0:
124,361,202954,2,0,P|90:361|63:354,1,57.6,2|0,0:0|0:0,0:0:0:0:
19,283,203270,1,2,0:0:0:0:
19,283,203428,2,0,P|23:254|23:223,1,57.6,2|2,0:0|0:0,0:0:0:0:
20,138,203744,6,0,B|53:143|72:137|72:137|84:142|84:142|102:132|136:139,1,115.2,10|2,0:1|1:2,0:0:0:0:
201,191,204218,2,0,P|216:157|220:129,1,57.6,2|0,0:0|0:0,0:0:0:0:
174,63,204533,1,2,0:0:0:0:
254,30,204691,2,0,L|325:33,1,57.6,2|2,0:0|0:0,0:0:0:0:
398,39,205007,6,0,B|386:75|386:75|392:156,1,115.2,0|2,1:0|0:0,0:0:0:0:
453,213,205481,2,0,L|451:285,1,57.6,2|0,0:0|0:0,0:0:0:0:
447,357,205797,2,0,L|475:357,2,28.8,2|2|2,0:0|0:0|0:0,0:0:0:0:
371,314,206112,1,2,0:0:0:0:
371,314,206270,6,0,B|326:314|326:314|308:323|308:323|258:323,1,115.2,10|2,0:1|0:0,0:0:0:0:
170,323,206744,2,0,P|169:299|173:264,1,57.6,2|0,0:0|0:0,0:0:0:0:
185,179,207060,1,2,0:0:0:0:
198,93,207218,2,0,P|226:92|255:95,1,57.6,2|0,0:0|0:0,0:0:0:0:
340,109,207533,5,4,1:2:0:0:
309,27,207691,1,2,0:0:0:0:
256,96,207849,1,2,0:0:0:0:
287,178,208007,1,2,0:0:0:0:
340,109,208165,2,0,P|368:105|397:106,1,57.6,0|0,1:0|0:0,0:0:0:0:
484,112,208481,2,0,B|490:138|490:138|486:175,1,57.6,0|0,0:0|3:0,0:0:0:0:
430,235,208797,6,0,L|442:353,1,115.2,10|2,0:1|1:2,0:0:0:0:
358,327,209270,2,0,P|329:322|299:328,1,57.6,2|0,0:0|0:0,0:0:0:0:
216,343,209586,1,2,0:0:0:0:
130,358,209744,2,0,P|102:364|74:359,1,57.6,2|2,0:0|0:0,0:0:0:0:
19,291,210060,6,0,P|40:251|41:172,1,115.2,2|2,1:2|0:0,0:0:0:0:
39,95,210533,1,2,1:2:0:0:
116,134,210691,1,0,1:0:0:0:
150,54,210849,2,0,L|147:13,2,28.8,2|0|2,0:0|0:0|3:2,0:0:0:0:
228,92,211165,1,2,0:0:0:0:
228,92,211323,6,0,B|284:92|284:92|290:86|290:86|344:87,1,115.2,10|2,0:1|0:0,0:0:0:0:
425,65,211797,2,0,P|419:92|420:127,1,57.6,2|0,0:0|0:0,0:0:0:0:
480,182,212112,1,2,0:0:0:0:
418,243,212270,2,0,P|417:271|423:299,1,57.6,2|0,0:0|0:0,0:0:0:0:
488,346,212586,6,0,L|318:354,2,148.50000453186,2|2|2,0:0|0:0|0:0,0:0:0:0:
375,233,213849,2,0,L|205:241,2,148.50000453186,2|2|2,0:0|0:0|0:0,0:0:0:0:
262,120,215112,2,0,L|92:128,2,148.50000453186,2|2|2,0:0|0:0|0:0,0:0:0:0:
341,118,216218,1,2,0:0:0:0:
420,115,216376,1,2,0:0:0:0:
498,110,216533,2,0,L|496:161,1,49.5000015106202,2|0,0:0|0:0,0:0:0:0:
432,207,216849,2,0,L|438:310,1,99.0000030212403,2|0,0:0|0:0,0:0:0:0:
494,362,217323,1,2,0:0:0:0:
