osu file format v14

[General]
AudioFilename: ROL - Endless Line.mp3
AudioLeadIn: 0
PreviewTime: 40790
Countdown: 0
SampleSet: Soft
StackLeniency: 0.3
Mode: 0
LetterboxInBreaks: 0
WidescreenStoryboard: 1

[Editor]
Bookmarks: 61007,71112,141849,144376,151954,182270,182902,183533,184165,184797,185428,186060,186691,187323,187954,188586,189218,189849,190481,191112,191744,192376,193007,193639,194270,194902,195533,196165,196797,197428,198060,198691,199323,199954,200586,201218,201849,202481
DistanceSpacing: 0.9
BeatDivisor: 8
GridSize: 32
TimelineZoom: 1.5

[Metadata]
Title:Endless Line
TitleUnicode:エンドレスライン
Artist:REOL
ArtistUnicode:REOL
Creator:DeRandom Otaku
Version:Akitoshi's Insane
Source:
Tags:ギガ お菊 giga okiku akitoshi snownino_
BeatmapID:1498492
BeatmapSetID:706150

[Difficulty]
HPDrainRate:6
CircleSize:3.8
OverallDifficulty:8
ApproachRate:9
SliderMultiplier:2.5
SliderTickRate:1

[Events]
//Background and Video events
0,0,"BG.jpg",0,0
//Break Periods
2,61207,70512
2,144576,151354
//Storyboard Layer 0 (Background)
//Storyboard Layer 1 (Fail)
//Storyboard Layer 2 (Pass)
//Storyboard Layer 3 (Foreground)
//Storyboard Sound Samples

[TimingPoints]
376,631.578947368421,4,2,0,40,1,0
376,-125,4,2,0,40,0,0
9849,-100,4,2,0,40,0,0
10481,-100,4,2,0,60,0,0
15454,-100,4,2,0,5,0,0
15533,-100,4,2,0,60,0,0
30691,-90.9090909090909,4,2,0,65,0,0
40165,-66.6666666666667,4,2,0,65,0,0
40797,-76.9230769230769,4,2,0,98,0,1
61007,-100,4,2,0,60,0,0
71112,-100,4,2,0,55,0,0
81218,-90.9090909090909,4,2,0,60,0,0
91323,-90.9090909090909,4,2,0,65,0,0
101112,-100,4,2,0,65,0,0
101428,-76.9230769230769,4,2,0,98,0,1
121639,-100,4,2,0,55,0,0
141849,-100,4,2,0,60,0,0
151954,-90.9090909090909,4,2,0,67,0,0
160797,-100,4,2,0,40,0,0
162060,-76.9230769230769,4,2,0,98,0,1
181639,-66.6666666666667,4,2,0,85,0,0
182270,-71.4285714285714,4,2,0,99,0,1
202481,-66.6666666666667,4,2,0,90,0,0
212586,-125,4,2,0,45,0,0

[Colours]
Combo1 : 15,177,255
Combo2 : 0,255,255
Combo3 : 255,128,255
Combo4 : 255,128,128

[HitObjects]
196,163,376,6,0,P|136:155|68:219,2,150,2|2|2,0:0|0:0|0:0,0:0:0:0:
329,230,1639,2,0,P|389:238|457:174,2,150,2|2|2,0:0|0:0|0:0,0:0:0:0:
196,163,2902,6,0,L|207:5,2,150,2|2|0,0:0|0:0|0:0,0:0:0:0:
185,237,4007,1,0,0:0:0:0:
128,286,4165,1,0,0:0:0:0:
128,286,4323,2,0,L|59:277,1,50,0|0,0:0|0:0,0:0:0:0:
22,228,4639,2,0,P|14:180|34:121,1,100,2|0,0:0|0:0,0:0:0:0:
75,73,5112,1,2,0:0:0:0:
196,163,5428,6,0,P|271:154|361:148,2,150,2|2|2,0:0|0:0|0:0,0:0:0:0:
106,283,6691,2,0,P|181:292|271:298,2,150,2|2|2,0:0|0:0|0:0,0:0:0:0:
26,155,7954,6,0,P|15:107|45:9,2,150,2|2|2,0:0|0:0|0:0,0:0:0:0:
80,206,9060,1,2,0:0:0:0:
152,177,9218,1,2,0:0:0:0:
152,177,9376,2,0,P|202:165|256:178,1,100,2|2,0:0|0:0,0:0:0:0:
313,223,9849,1,8,0:0:0:0:
313,223,10481,6,0,B|289:187|289:187|301:90,1,125,2|0,1:2|0:0,0:0:0:0:
246,27,10954,1,2,0:0:0:0:
156,54,11112,2,0,L|90:58,1,62.5,0|0,1:0|0:0,0:0:0:0:
56,144,11428,2,0,L|121:148,1,62.5,2|0,0:0|0:0,0:0:0:0:
193,207,11744,6,0,P|231:225|317:221,1,125,2|0,1:2|0:0,0:0:0:0:
389,167,12218,1,2,0:0:0:0:
470,223,12375,1,0,1:0:0:0:
470,223,12533,2,0,L|466:293,1,62.5,0|2,0:0|0:0,0:0:0:0:
399,351,12849,1,0,0:0:0:0:
310,318,13007,6,0,P|242:323|160:329,1,125,2|0,1:2|0:0,0:0:0:0:
91,334,13481,1,2,0:0:0:0:
33,259,13639,2,0,P|25:220|30:189,1,62.5,0|0,1:0|0:0,0:0:0:0:
73,116,13954,1,2,0:0:0:0:
122,195,14112,1,2,0:0:0:0:
158,75,14270,5,2,1:2:0:0:
73,116,14428,1,2,0:0:0:0:
122,195,14586,2,0,L|191:188,1,62.5,0|2,0:0|0:0,0:0:0:0:
250,121,14902,2,0,L|319:128,1,62.5,0|0,1:0|0:0,0:0:0:0:
392,176,15218,2,0,P|368:217|373:291,1,93.75,2|0,0:0|0:0,0:0:0:0:
373,292,15533,6,0,P|328:273|237:300,1,125,2|0,1:2|0:0,0:0:0:0:
195,359,16007,1,2,0:0:0:0:
116,307,16165,2,0,P|82:316|47:312,1,62.5,0|0,1:0|0:0,0:0:0:0:
4,234,16481,1,2,0:0:0:0:
4,234,16639,1,0,0:0:0:0:
59,158,16797,5,2,1:2:0:0:
59,158,16954,2,0,L|66:75,1,62.5,0|0,0:0|0:0,0:0:0:0:
153,66,17270,2,0,L|160:149,1,62.5,2|0,0:0|1:0,0:0:0:0:
234,183,17586,1,0,0:0:0:0:
298,115,17744,2,0,P|328:106|383:109,1,62.5,0|0,0:0|0:0,0:0:0:0:
448,133,18060,6,0,P|441:69|437:8,2,125,2|0|0,1:2|0:0|1:0,0:0:0:0:
464,319,19007,1,2,0:0:0:0:
464,319,19165,1,2,0:0:0:0:
377,283,19323,5,2,1:2:0:0:
377,283,19481,2,0,L|297:286,1,62.5,2|0,0:0|0:0,0:0:0:0:
220,290,19797,1,2,0:0:0:0:
131,260,19954,2,0,P|124:223|129:193,1,62.5,0|0,1:0|0:0,0:0:0:0:
232,284,20270,2,0,P|239:321|234:351,1,62.5,2|0,0:0|0:0,0:0:0:0:
11,255,20586,6,0,P|71:242|131:260,1,125,2|0,1:2|0:0,0:0:0:0:
220,290,21060,1,2,0:0:0:0:
284,222,21218,2,0,L|279:145,1,62.5,0|0,1:0|0:0,0:0:0:0:
275,65,21533,1,2,0:0:0:0:
388,118,21691,6,0,P|423:122|475:110,1,62.5,0|2,0:0|1:2,0:0:0:0:
450,24,22007,2,0,P|415:20|363:32,1,62.5,0|0,0:0|0:0,0:0:0:0:
307,72,22323,1,2,0:0:0:0:
388,118,22481,2,0,L|381:209,1,62.5,0|0,1:0|0:0,0:0:0:0:
305,233,22797,2,0,L|312:324,1,62.5,2|0,0:0|0:0,0:0:0:0:
369,367,23112,6,0,P|307:344|248:355,1,125,2|0,1:2|0:0,0:0:0:0:
160,383,23586,1,2,0:0:0:0:
81,332,23744,2,0,L|90:257,1,62.5,0|0,1:0|0:0,0:0:0:0:
102,176,24060,1,2,0:0:0:0:
233,233,24218,6,0,P|200:244|164:239,1,62.5,2|2,0:0|1:2,0:0:0:0:
249,120,24533,2,0,P|280:118|309:128,1,62.5,2|0,0:0|0:0,0:0:0:0:
400,157,24849,1,2,0:0:0:0:
419,248,25007,2,0,L|491:242,1,62.5,0|0,1:0|0:0,0:0:0:0:
401,340,25323,2,0,L|329:334,1,62.5,2|0,0:0|0:0,0:0:0:0:
237,259,25639,6,0,B|209:248|185:252|185:252|164:258|164:258|142:239|111:240,1,125,2|0,1:2|0:0,0:0:0:0:
24,250,26112,1,2,0:0:0:0:
108,326,26270,2,0,L|100:370,2,41.6666666666667,0|0|0,1:0|0:0|0:0,0:0:0:0:
108,326,26586,2,0,P|142:343|184:342,1,62.5,2|0,0:0|0:0,0:0:0:0:
268,271,26902,6,0,L|258:121,1,125,2|0,1:2|0:0,0:0:0:0:
331,84,27376,2,0,P|349:116|354:151,1,62.5,2|0,0:0|1:0,0:0:0:0:
260,147,27691,1,0,0:0:0:0:
188,83,27849,2,0,P|172:110|166:141,1,62.5,2|0,0:0|0:0,0:0:0:0:
158,266,28165,6,0,B|124:272|124:272|84:266,1,62.5,10|0,1:2|0:0,0:0:0:0:
56,353,28481,2,0,P|86:350|126:361,1,62.5,0|2,0:0|0:0,0:0:0:0:
209,375,28797,2,0,P|239:378|279:367,1,62.5,0|0,1:0|0:0,0:0:0:0:
347,317,29112,1,2,0:0:0:0:
347,317,29270,1,2,0:0:0:0:
286,245,29428,5,2,1:2:0:0:
286,245,29586,2,0,L|288:175,1,62.5,2|0,0:0|0:0,0:0:0:0:
300,88,29902,1,2,0:0:0:0:
372,29,30060,1,0,1:0:0:0:
372,29,30218,2,0,P|420:18|503:46,1,125,2|0,0:0|0:0,0:0:0:0:
424,144,30691,5,2,1:2:0:0:
330,99,30849,1,0,0:0:0:0:
278,188,31007,1,0,0:0:0:0:
370,233,31165,1,2,0:0:0:0:
307,314,31323,2,0,L|317:382,1,68.7500020980836,0|0,1:0|0:0,0:0:0:0:
193,291,31639,2,0,P|154:300|115:296,1,68.7500020980836,2|0,0:0|0:0,0:0:0:0:
145,176,31954,5,2,1:2:0:0:
223,272,32112,1,0,0:0:0:0:
164,162,32270,2,0,L|170:94,1,68.7500020980836,0|2,0:0|0:0,0:0:0:0:
6,169,32586,2,0,L|19:326,1,137.500004196167,8|2,1:0|0:0,0:0:0:0:
21,333,33218,6,0,L|92:325,1,68.7500020980836,2|0,1:2|0:0,0:0:0:0:
192,317,33533,1,0,0:0:0:0:
260,240,33691,1,2,0:0:0:0:
158,220,33849,2,0,L|164:138,1,68.7500020980836,0|0,1:0|0:0,0:0:0:0:
238,80,34165,1,2,0:0:0:0:
238,80,34323,1,2,0:0:0:0:
326,167,34481,5,2,1:2:0:0:
357,47,34639,1,2,0:0:0:0:
444,134,34797,2,0,L|512:127,1,68.7500020980836,0|2,0:0|0:0,0:0:0:0:
326,167,35112,2,0,L|258:160,1,68.7500020980836,8|0,1:0|0:0,0:0:0:0:
126,146,35428,1,2,0:0:0:0:
118,161,35507,1,0,0:0:0:0:
113,177,35586,1,0,0:0:0:0:
111,194,35665,1,0,0:0:0:0:
112,211,35744,6,0,L|43:217,1,68.7500020980836,2|0,1:2|0:0,0:0:0:0:
2,312,36060,2,0,L|71:318,1,68.7500020980836,0|2,0:0|0:0,0:0:0:0:
198,334,36376,1,0,1:0:0:0:
198,334,36533,1,0,0:0:0:0:
271,262,36691,2,0,P|278:222|270:184,1,68.7500020980836,2|0,0:0|0:0,0:0:0:0:
241,74,37007,6,0,L|335:66,1,68.7500020980836,2|0,1:2|0:0,0:0:0:0:
167,140,37323,2,0,L|73:132,1,68.7500020980836,0|2,0:0|0:0,0:0:0:0:
309,68,37639,2,0,L|473:53,1,137.500004196167,8|2,1:0|0:0,0:0:0:0:
474,55,38270,5,2,1:1:0:0:
421,144,38428,2,0,P|418:190|427:224,1,68.7500020980836,0|0,0:0|0:0,0:0:0:0:
322,238,38744,2,0,P|327:204|323:170,1,68.7500020980836,2|0,0:0|1:0,0:0:0:0:
224,200,39060,1,0,0:0:0:0:
334,270,39218,1,2,0:0:0:0:
311,141,39376,1,2,0:0:0:0:
167,264,39533,5,8,1:3:0:0:
334,270,39691,1,8,0:3:0:0:
194,362,39849,1,0,0:0:0:0:
251,206,40007,1,8,0:3:0:0:
297,365,40165,2,0,B|440:340|440:340|377:303,1,187.500007152558,10|0,0:3|0:0,0:0:0:0:
380,299,40797,6,0,B|398:177|398:177|337:213,1,162.499992561341,4|0,1:0|0:0,0:0:0:0:
258,256,41270,1,8,0:0:0:0:
159,183,41428,2,0,L|168:88,1,81.2499962806703,0|0,1:0|0:0,0:0:0:0:
31,194,41744,2,0,L|40:289,1,81.2499962806703,8|0,0:0|0:0,0:0:0:0:
180,356,42060,6,0,B|237:382|305:358|305:358|336:308,1,162.499992561341,0|0,1:0|0:0,0:0:0:0:
370,216,42533,1,8,0:0:0:0:
442,361,42691,1,8,1:0:0:0:
324,329,42849,1,0,0:0:0:0:
487,250,43007,2,0,L|475:96,1,121.874994421006,8|0,0:0|0:0,0:0:0:0:
474,91,43323,6,0,P|430:80|390:84,1,81.2499962806703,0|0,1:0|0:0,0:0:0:0:
283,134,43639,1,0,0:0:0:0:
331,248,43797,2,0,L|322:338,1,81.2499962806703,8|0,0:0|1:0,0:0:0:0:
230,249,44112,1,0,0:0:0:0:
366,228,44270,2,0,L|357:318,1,81.2499962806703,8|0,0:0|0:0,0:0:0:0:
170,328,44586,6,0,P|143:296|134:228,1,81.2499962806703,0|2,1:0|0:0,0:0:0:0:
131,136,44902,1,0,0:0:0:0:
252,188,45060,2,0,B|306:180|306:180|350:195|350:195|424:183,1,162.499992561341,8|0,0:0|0:0,0:0:0:0:
422,63,45533,2,0,P|366:55|297:81,1,121.874994421006,8|0,0:0|0:0,0:0:0:0:
273,94,45849,6,0,L|263:13,1,81.2499962806703,0|0,1:0|0:0,0:0:0:0:
100,68,46165,1,0,0:0:0:0:
130,237,46323,2,0,P|174:243|228:224,1,81.2499962806703,8|0,0:0|1:0,0:0:0:0:
48,160,46639,1,0,0:0:0:0:
128,333,46797,1,8,0:0:0:0:
166,146,46954,1,0,0:0:0:0:
22,277,47112,5,0,1:0:0:0:
22,277,47270,1,0,0:0:0:0:
150,346,47428,2,0,L|237:335,1,81.2499962806703,0|8,0:0|0:0,0:0:0:0:
382,240,47744,2,0,L|295:229,1,81.2499962806703,8|0,1:0|0:0,0:0:0:0:
145,140,48060,2,0,P|190:107|274:102,1,121.874994421006,8|0,0:0|0:0,0:0:0:0:
291,101,48376,6,0,L|295:6,1,81.2499962806703,0|0,1:0|0:0,0:0:0:0:
412,48,48691,1,0,0:0:0:0:
464,157,48849,2,0,P|424:168|360:158,1,81.2499962806703,8|0,0:0|1:0,0:0:0:0:
254,97,49165,1,0,0:0:0:0:
155,226,49323,2,0,L|168:356,1,121.874994421006,8|0,0:0|0:0,0:0:0:0:
197,326,49639,6,0,L|188:238,1,81.2499962806703,0|8,1:0|0:0,0:0:0:0:
174,124,49954,1,0,0:0:0:0:
70,188,50112,1,8,0:0:0:0:
121,33,50270,1,8,1:0:0:0:
154,19,50348,1,0,0:0:0:0:
191,16,50427,1,0,0:0:0:0:
226,25,50506,1,0,0:0:0:0:
256,47,50586,2,0,B|338:55|338:55|385:26,1,121.874994421006,8|0,0:0|0:0,0:0:0:0:
403,16,50902,6,0,L|412:99,1,81.2499962806703,0|0,1:0|0:0,0:0:0:0:
432,217,51218,1,0,0:0:0:0:
336,292,51376,1,8,0:0:0:0:
232,231,51533,2,0,P|219:192|223:135,1,81.2499962806703,0|0,1:0|0:0,0:0:0:0:
340,172,51849,1,8,0:0:0:0:
254,259,52007,1,0,0:0:0:0:
217,117,52165,6,0,L|132:127,1,81.2499962806703,0|0,1:0|0:0,0:0:0:0:
14,137,52481,1,0,0:0:0:0:
90,231,52639,1,8,0:0:0:0:
88,44,52797,2,0,B|124:30|124:30|171:37,1,81.2499962806703,8|0,1:0|0:0,0:0:0:0:
320,90,53112,1,8,0:0:0:0:
240,182,53270,1,0,0:0:0:0:
335,61,53428,6,0,L|436:53,1,81.2499962806703,0|0,1:0|0:0,0:0:0:0:
260,157,53744,1,0,0:0:0:0:
200,45,53902,1,8,0:0:0:0:
138,171,54060,2,0,P|127:215|143:269,1,81.2499962806703,0|0,1:0|0:0,0:0:0:0:
269,340,54376,1,8,0:0:0:0:
222,217,54533,1,0,0:0:0:0:
186,384,54691,5,0,1:0:0:0:
304,261,54849,2,0,L|408:266,1,81.2499962806703,2|0,0:0|0:0,0:0:0:0:
295,180,55165,1,8,0:0:0:0:
269,340,55323,2,0,L|373:345,1,81.2499962806703,8|0,1:0|0:0,0:0:0:0:
377,184,55639,2,0,L|273:179,1,81.2499962806703,8|0,0:0|0:0,0:0:0:0:
133,166,55954,6,0,P|115:123|155:9,1,162.499992561341,0|0,1:0|0:0,0:0:0:0:
236,100,56428,1,8,0:0:0:0:
114,194,56586,2,0,L|19:187,1,81.2499962806703,0|0,1:0|0:0,0:0:0:0:
200,305,56902,2,0,L|295:298,1,81.2499962806703,8|0,0:0|0:0,0:0:0:0:
457,234,57218,6,0,P|465:189|452:139,1,81.2499962806703,0|0,1:0|0:0,0:0:0:0:
391,53,57533,1,0,0:0:0:0:
342,192,57691,1,8,0:0:0:0:
264,98,57849,2,0,P|256:53|269:3,1,81.2499962806703,8|0,1:0|0:0,0:0:0:0:
391,53,58165,1,8,0:0:0:0:
391,53,58323,1,0,0:0:0:0:
247,129,58481,6,0,L|148:122,1,81.2499962806703,0|0,1:0|0:0,0:0:0:0:
43,111,58797,1,0,0:0:0:0:
107,213,58954,2,0,P|148:230|205:222,1,81.2499962806703,8|0,0:0|1:0,0:0:0:0:
278,150,59270,1,0,0:0:0:0:
381,264,59428,2,0,B|365:355|365:355|345:324,1,121.874994421006,8|0,0:0|0:0,0:0:0:0:
321,305,59744,6,0,L|232:311,1,81.2499962806703,0|8,1:0|0:0,0:0:0:0:
390,227,60060,2,0,L|479:233,1,81.2499962806703,0|8,0:0|0:0,0:0:0:0:
310,118,60376,1,8,1:0:0:0:
278,100,60454,1,0,0:0:0:0:
241,97,60533,1,0,0:0:0:0:
206,109,60612,1,0,0:0:0:0:
179,134,60691,2,0,L|90:140,1,81.2499962806703,8|0,0:0|0:0,0:0:0:0:
256,213,61007,5,2,1:2:0:0:
268,215,71112,6,0,P|219:184|141:201,1,125,8|0,0:0|0:0,0:0:0:0:
197,276,71586,1,8,0:0:0:0:
285,307,71744,2,0,L|353:299,1,62.5,0|0,0:0|0:0,0:0:0:0:
410,229,72060,2,0,L|478:237,1,62.5,8|0,0:0|0:0,0:0:0:0:
508,149,72375,6,0,P|493:110|354:58,1,187.5,8|8,0:0|0:0,0:0:0:0:
244,76,73007,1,8,0:1:0:0:
244,76,73639,6,0,L|241:148,1,62.5,8|2,0:0|0:0,0:0:0:0:
164,191,73954,2,0,L|167:263,1,62.5,0|8,0:0|0:0,0:0:0:0:
227,325,74270,2,0,P|175:305|100:323,1,125,2|8,0:0|0:0,0:0:0:0:
40,252,74744,1,0,0:0:0:0:
164,191,74902,5,8,0:0:0:0:
73,164,75060,1,2,0:0:0:0:
162,76,75218,2,0,P|224:71|280:66,1,93.75,0|0,0:0|0:0,0:0:0:0:
283,82,75533,1,2,0:1:0:0:
420,209,75849,1,2,0:1:0:0:
475,133,76007,1,2,0:3:0:0:
401,233,76165,5,8,0:0:0:0:
301,157,76323,1,0,0:0:0:0:
207,239,76481,2,0,P|199:286|204:312,1,62.5,0|8,0:0|0:0,0:0:0:0:
274,378,76797,1,0,0:0:0:0:
308,278,76954,1,0,0:0:0:0:
207,239,77112,2,0,P|160:231|134:236,1,62.5,8|0,0:0|0:0,0:0:0:0:
26,308,77428,5,8,0:0:0:0:
79,176,77586,1,0,0:0:0:0:
113,314,77744,1,0,0:0:0:0:
4,223,77902,1,8,0:0:0:0:
145,232,78060,2,0,P|176:231|207:239,1,62.5,0|0,0:0|0:0,0:0:0:0:
291,293,78375,1,8,0:0:0:0:
291,293,78533,1,0,0:0:0:0:
355,224,78691,5,8,0:0:0:0:
275,175,78849,1,2,0:0:0:0:
394,139,79007,2,0,L|475:145,1,62.5,0|8,0:0|0:0,0:0:0:0:
355,224,79323,1,0,0:0:0:0:
327,70,79481,2,0,P|352:53|394:42,1,62.5,0|8,0:0|0:0,0:0:0:0:
394,139,79797,1,2,0:0:0:0:
245,92,79954,5,8,0:0:0:0:
268,214,80112,2,0,P|259:282|251:347,1,125,2|2,0:0|0:0,0:0:0:0:
181,155,80586,1,8,0:1:0:0:
169,177,80902,2,0,L|178:222,3,31.25,0|0|0|0,0:0|0:0|0:0|0:0,0:0:0:0:
160,239,81218,5,2,1:2:0:0:
69,190,81375,2,0,P|72:149|92:113,1,68.7500020980836,0|0,0:0|0:0,0:0:0:0:
172,18,81691,2,0,P|185:49|186:83,1,68.7500020980836,2|0,0:0|1:0,0:0:0:0:
264,151,82007,2,0,L|351:139,1,68.7500020980836,0|2,0:0|0:0,0:0:0:0:
411,254,82323,6,0,L|324:242,1,68.7500020980836,0|2,0:0|1:2,0:0:0:0:
427,134,82639,1,0,0:0:0:0:
509,244,82797,2,0,P|507:278|489:315,1,68.7500020980836,0|2,0:0|0:0,0:0:0:0:
412,149,83112,2,0,P|398:117|396:83,1,68.7500020980836,0|0,1:0|0:0,0:0:0:0:
499,89,83428,1,2,0:0:0:0:
401,164,83586,6,0,L|315:156,1,68.7500020980836,0|2,0:0|1:2,0:0:0:0:
217,81,83902,2,0,L|303:73,1,68.7500020980836,0|0,0:0|0:0,0:0:0:0:
146,11,84218,1,2,0:0:0:0:
160,146,84375,2,0,P|188:163|235:165,1,68.7500020980836,0|0,1:0|0:0,0:0:0:0:
336,247,84691,2,0,P|302:250|243:294,1,103.125003147125,2|0,0:0|0:0,0:0:0:0:
226,317,85007,6,0,B|185:299|185:299|118:308,2,103.125003147125,2|2|2,1:2|0:0|0:0,0:0:0:0:
336,247,85639,2,0,B|377:265|377:265|444:256,2,103.125003147125,2|2|2,1:2|0:0|0:0,0:0:0:0:
220,172,86270,6,0,L|230:48,2,103.125003147125,2|2|2,1:2|0:0|0:0,0:0:0:0:
123,271,86902,2,0,L|133:395,2,103.125003147125,2|0|2,1:2|0:0|0:0,0:0:0:0:
115,133,87533,6,0,P|65:122|15:136,2,103.125003147125,2|2|2,1:2|0:0|0:0,0:0:0:0:
234,202,88165,2,0,P|284:213|334:199,2,103.125003147125,2|2|2,1:2|0:0|0:0,0:0:0:0:
284,73,88797,6,0,L|368:77,1,68.7500020980836,2|0,1:2|0:0,0:0:0:0:
377,100,89033,2,0,L|461:96,1,68.7500020980836,2|0,0:0|0:0,0:0:0:0:
475,78,89270,1,2,0:0:0:0:
498,178,89428,2,0,P|507:213|502:249,1,68.7500020980836,2|0,1:2|0:0,0:0:0:0:
473,262,89665,2,0,P|464:297|469:333,1,68.7500020980836,2|0,0:0|0:0,0:0:0:0:
484,359,89902,1,2,0:0:0:0:
381,345,90060,6,0,L|297:349,1,68.7500020980836,2|0,1:2|0:0,0:0:0:0:
288,372,90296,2,0,L|204:368,1,68.7500020980836,2|0,0:2|0:0,0:0:0:0:
190,350,90533,1,2,0:0:0:0:
136,261,90691,1,2,1:2:0:0:
140,244,90770,1,0,0:0:0:0:
145,227,90849,1,0,0:0:0:0:
150,210,90928,1,0,0:0:0:0:
154,193,91007,2,0,L|226:188,1,68.7500020980836,2|0,0:0|0:0,0:0:0:0:
362,170,91323,5,2,1:2:0:0:
302,253,91481,1,0,0:0:0:0:
222,188,91639,1,0,0:0:0:0:
282,104,91797,1,2,0:0:0:0:
362,170,91954,2,0,L|446:164,1,68.7500020980836,0|0,1:0|0:0,0:0:0:0:
282,80,92270,2,0,P|247:70|198:74,1,68.7500020980836,2|0,0:0|0:0,0:0:0:0:
106,132,92586,5,2,1:2:0:0:
235,181,92744,1,0,0:0:0:0:
132,250,92902,2,0,P|93:253|47:236,1,68.7500020980836,0|2,0:0|0:0,0:0:0:0:
270,169,93218,2,0,B|309:186|309:186|412:169,1,137.500004196167,8|2,1:0|0:0,0:0:0:0:
430,165,93849,5,2,1:2:0:0:
374,78,94007,1,0,0:0:0:0:
456,16,94165,1,0,0:0:0:0:
512,103,94323,1,2,0:0:0:0:
430,165,94481,2,0,L|426:246,1,68.7500020980836,0|0,1:0|0:0,0:0:0:0:
324,253,94797,2,0,L|320:184,1,68.7500020980836,2|2,0:0|0:0,0:0:0:0:
228,101,95112,5,2,1:2:0:0:
162,206,95270,1,2,0:0:0:0:
202,88,95428,2,0,L|193:14,1,68.7500020980836,0|2,0:0|0:0,0:0:0:0:
150,181,95744,1,8,1:0:0:0:
293,182,95902,1,0,0:0:0:0:
293,182,95981,1,0,0:0:0:0:
293,182,96060,2,0,L|368:175,1,68.7500020980836,2|0,0:0|0:0,0:0:0:0:
403,305,96375,6,0,B|310:323|310:323|267:304,1,137.500004196167,2|0,1:2|0:0,0:0:0:0:
177,259,96849,1,2,0:0:0:0:
264,203,97007,1,0,1:0:0:0:
171,156,97165,1,0,0:0:0:0:
85,213,97323,2,0,L|5:206,1,68.7500020980836,2|0,0:0|0:0,0:0:0:0:
171,156,97639,5,2,1:2:0:0:
89,249,97797,1,0,0:0:0:0:
43,120,97954,2,0,P|39:83|49:47,1,68.7500020980836,0|2,0:0|0:0,0:0:0:0:
206,162,98270,2,0,L|196:271,1,103.125003147125,8|0,1:0|0:0,0:0:0:0:
230,270,98586,2,0,L|239:167,1,103.125003147125,2|0,0:0|0:0,0:0:0:0:
250,134,98902,6,0,P|299:106|394:123,1,137.500004196167,2|0,1:2|0:0,0:0:0:0:
406,261,99375,2,0,P|382:229|375:199,1,68.7500020980836,2|0,0:0|1:0,0:0:0:0:
482,184,99691,1,0,0:0:0:0:
398,293,99849,2,0,L|306:299,1,68.7500020980836,2|2,0:0|0:0,0:0:0:0:
191,311,100165,5,2,1:2:0:0:
228,178,100323,1,10,0:0:0:0:
94,212,100481,1,0,0:0:0:0:
217,152,100639,1,2,0:0:0:0:
180,337,100797,5,8,1:0:0:0:
157,357,100875,1,0,0:0:0:0:
127,366,100954,1,0,0:0:0:0:
96,364,101033,1,0,0:0:0:0:
70,353,101112,2,0,L|64:311,1,31.25,2|0,0:1|0:0,0:0:0:0:
6,255,101270,2,0,L|12:213,1,31.25,2|0,0:1|0:0,0:0:0:0:
47,128,101428,6,0,B|83:113|121:120|121:120|136:134|136:134|168:117|219:128,1,162.499992561341,4|0,1:0|0:0,0:0:0:0:
312,179,101902,1,8,0:0:0:0:
420,123,102060,2,0,P|428:84|408:27,1,81.2499962806703,0|0,1:0|0:0,0:0:0:0:
286,197,102375,2,0,P|278:236|298:293,1,81.2499962806703,8|0,0:0|0:0,0:0:0:0:
494,245,102691,6,0,B|372:237|372:237|430:205,1,162.499992561341,0|0,1:0|0:0,0:0:0:0:
429,338,103165,1,8,0:0:0:0:
287,275,103323,2,0,P|278:236|286:197,1,81.2499962806703,8|0,1:0|0:0,0:0:0:0:
176,125,103639,2,0,P|185:189|147:249,1,121.874994421006,8|0,0:0|0:0,0:0:0:0:
130,260,103954,6,0,L|42:254,1,81.2499962806703,0|0,1:0|0:0,0:0:0:0:
155,343,104270,1,0,0:0:0:0:
87,170,104428,2,0,L|-1:164,1,81.2499962806703,8|0,0:0|1:0,0:0:0:0:
130,260,104744,1,0,0:0:0:0:
257,119,104902,2,0,L|176:125,1,81.2499962806703,8|0,0:0|0:0,0:0:0:0:
316,40,105218,6,0,L|397:45,1,81.2499962806703,0|2,1:0|0:0,0:0:0:0:
488,126,105533,1,0,0:0:0:0:
397,208,105691,2,0,P|334:201|243:276,1,162.499992561341,8|0,0:0|0:0,0:0:0:0:
355,323,106165,2,0,L|482:314,1,121.874994421006,8|0,0:0|0:0,0:0:0:0:
460,347,106481,6,0,L|357:354,1,81.2499962806703,0|0,1:0|0:0,0:0:0:0:
256,361,106797,1,0,0:0:0:0:
155,292,106954,2,0,P|147:251|164:197,1,81.2499962806703,8|0,0:0|1:0,0:0:0:0:
254,253,107270,1,0,0:0:0:0:
154,381,107428,2,0,P|90:373|32:302,1,121.874994421006,8|0,0:0|0:0,0:0:0:0:
33,302,107744,5,0,1:0:0:0:
155,292,107902,1,0,0:0:0:0:
85,191,108060,2,0,L|94:95,1,81.2499962806703,0|8,0:0|0:0,0:0:0:0:
252,13,108375,2,0,B|267:51|267:51|257:100,1,81.2499962806703,8|0,1:0|0:0,0:0:0:0:
251,213,108691,2,0,P|310:229|383:204,1,121.874994421006,8|0,0:0|0:0,0:0:0:0:
393,187,109007,6,0,L|481:191,1,81.2499962806703,0|0,1:0|0:0,0:0:0:0:
353,106,109323,1,0,0:0:0:0:
420,280,109481,2,0,L|508:284,1,81.2499962806703,8|0,0:0|1:0,0:0:0:0:
434,99,109797,1,0,0:0:0:0:
290,229,109954,2,0,P|279:275|304:358,1,121.874994421006,8|0,0:0|0:0,0:0:0:0:
319,375,110270,6,0,L|407:371,1,81.2499962806703,0|8,1:0|0:0,0:0:0:0:
321,227,110586,1,0,0:0:0:0:
196,343,110744,1,8,0:0:0:0:
128,186,110902,1,8,1:0:0:0:
131,149,110981,1,0,0:0:0:0:
136,112,111060,1,0,0:0:0:0:
142,76,111139,1,0,0:0:0:0:
150,40,111218,2,0,P|192:32|267:60,1,121.874994421006,8|0,0:0|0:0,0:0:0:0:
288,85,111533,6,0,L|379:77,1,81.2499962806703,0|0,1:0|0:0,0:0:0:0:
345,198,111849,1,0,0:0:0:0:
264,58,112007,1,8,0:0:0:0:
172,192,112165,2,0,L|81:184,1,81.2499962806703,0|0,1:0|0:0,0:0:0:0:
150,40,112481,1,8,0:0:0:0:
197,169,112639,1,0,0:0:0:0:
61,95,112797,6,0,P|18:123|0:157,1,81.2499962806703,0|0,1:0|0:0,0:0:0:0:
29,267,113112,1,0,0:0:0:0:
172,192,113270,1,8,0:0:0:0:
58,284,113428,2,0,L|67:369,1,81.2499962806703,8|0,1:0|0:0,0:0:0:0:
153,220,113744,1,8,0:0:0:0:
242,303,113902,1,0,0:0:0:0:
338,172,114060,6,0,P|348:133|334:73,1,81.2499962806703,0|0,1:0|0:0,0:0:0:0:
225,125,114375,1,0,0:0:0:0:
346,207,114533,1,8,0:0:0:0:
201,231,114691,2,0,L|100:223,1,81.2499962806703,0|0,1:0|0:0,0:0:0:0:
243,332,115007,1,8,0:0:0:0:
346,207,115165,1,0,0:0:0:0:
246,363,115323,5,0,1:0:0:0:
385,318,115481,2,0,L|481:314,1,81.2499962806703,2|0,0:0|0:0,0:0:0:0:
346,207,115797,1,8,0:0:0:0:
246,363,115954,2,0,P|205:368|160:358,1,81.2499962806703,8|0,1:0|0:0,0:0:0:0:
120,224,116270,2,0,P|161:219|206:229,1,81.2499962806703,8|0,0:0|0:0,0:0:0:0:
32,291,116586,6,0,P|10:218|56:133,1,162.499992561341,0|0,1:0|0:0,0:0:0:0:
120,224,117060,1,8,0:0:0:0:
81,381,117218,2,0,L|0:376,1,81.2499962806703,0|0,1:0|0:0,0:0:0:0:
127,197,117533,2,0,L|208:192,1,81.2499962806703,8|0,0:0|0:0,0:0:0:0:
385,128,117849,6,0,P|391:74|380:34,1,81.2499962806703,0|0,1:0|0:0,0:0:0:0:
244,90,118165,1,0,0:0:0:0:
372,160,118323,1,8,0:0:0:0:
239,198,118481,2,0,P|233:252|244:292,1,81.2499962806703,8|0,1:0|0:0,0:0:0:0:
384,383,118797,2,0,P|413:346|416:261,1,121.874994421006,8|0,0:0|0:0,0:0:0:0:
402,240,119112,6,0,L|497:231,1,81.2499962806703,0|0,1:0|0:0,0:0:0:0:
385,128,119428,1,0,0:0:0:0:
319,285,119586,2,0,L|224:276,1,81.2499962806703,8|0,0:0|1:0,0:0:0:0:
116,263,119902,1,0,0:0:0:0:
224,165,120060,2,0,B|231:70|231:70|192:93,1,121.874994421006,8|0,0:0|0:0,0:0:0:0:
180,107,120375,6,0,L|85:98,1,81.2499962806703,0|8,1:0|0:0,0:0:0:0:
116,263,120691,1,0,0:0:0:0:
238,198,120849,1,8,0:0:0:0:
51,184,121007,1,8,1:0:0:0:
27,211,121085,1,0,0:0:0:0:
15,246,121164,1,0,0:0:0:0:
16,282,121243,1,0,0:0:0:0:
30,316,121323,2,0,P|60:348|150:358,1,121.874994421006,8|0,0:0|0:0,0:0:0:0:
165,363,121639,6,0,L|172:217,1,125,6|0,1:2|0:0,0:0:0:0:
180,144,122112,1,2,0:0:0:0:
255,200,122270,2,0,L|335:195,1,62.5,0|0,1:0|0:0,0:0:0:0:
356,110,122586,2,0,L|276:105,1,62.5,2|0,0:0|0:0,0:0:0:0:
438,43,122902,6,0,P|459:89|439:177,1,125,2|0,1:2|0:0,0:0:0:0:
404,243,123375,1,2,0:0:0:0:
447,326,123533,2,0,L|527:321,1,62.5,0|0,1:0|0:0,0:0:0:0:
356,380,123849,2,0,L|276:375,1,62.5,2|0,0:0|0:0,0:0:0:0:
195,296,124165,5,2,1:2:0:0:
195,296,124323,2,0,P|190:262|197:227,1,62.5,0|0,0:0|0:0,0:0:0:0:
273,182,124639,2,0,P|226:145|146:154,1,125,2|0,0:0|0:0,0:0:0:0:
89,203,125112,1,2,0:0:0:0:
89,203,125270,1,2,0:0:0:0:
14,102,125428,5,2,1:2:0:0:
14,102,125586,2,0,L|22:36,1,62.5,2|0,0:0|0:0,0:0:0:0:
110,7,125902,1,2,0:0:0:0:
176,72,126060,2,0,L|261:66,1,62.5,0|0,1:0|0:0,0:0:0:0:
309,7,126375,1,2,0:0:0:0:
309,7,126533,1,0,0:0:0:0:
389,102,126691,6,0,P|401:134|410:180,1,62.5,2|0,1:2|0:0,0:0:0:0:
416,255,127007,1,2,0:1:0:0:
357,328,127165,1,2,0:0:0:0:
267,355,127323,2,0,L|194:346,1,62.5,0|0,1:0|0:0,0:0:0:0:
112,327,127639,1,2,0:0:0:0:
160,246,127797,6,0,P|189:236|236:242,1,62.5,0|2,0:0|1:2,0:0:0:0:
306,198,128112,2,0,P|335:208|382:202,1,62.5,0|0,0:0|0:0,0:0:0:0:
456,179,128428,1,2,0:0:0:0:
350,112,128586,1,0,1:0:0:0:
460,54,128744,1,0,0:0:0:0:
359,129,128902,1,2,0:0:0:0:
291,23,129060,1,0,0:0:0:0:
210,126,129218,6,0,L|141:119,1,62.5,2|0,1:2|0:0,0:0:0:0:
54,109,129533,1,2,0:1:0:0:
10,192,129691,1,2,0:0:0:0:
64,269,129849,2,0,P|105:280|131:277,1,62.5,0|0,1:0|0:0,0:0:0:0:
208,234,130165,1,2,0:0:0:0:
278,295,130323,6,0,L|288:369,1,62.5,2|2,0:0|1:2,0:0:0:0:
380,356,130639,2,0,L|390:282,1,62.5,2|0,0:0|0:0,0:0:0:0:
406,201,130954,1,2,0:0:0:0:
345,129,131112,2,0,P|319:120|278:120,1,62.5,0|0,1:0|0:0,0:0:0:0:
197,149,131428,1,2,0:0:0:0:
197,149,131586,1,0,0:0:0:0:
300,216,131744,6,0,P|365:212|447:208,1,125,2|0,1:2|0:0,0:0:0:0:
499,145,132218,1,2,0:0:0:0:
457,60,132376,2,0,P|426:49|386:52,1,62.5,0|0,1:0|0:0,0:0:0:0:
316,97,132691,1,2,0:0:0:0:
316,97,132849,1,0,0:0:0:0:
362,213,133007,6,0,P|357:272|350:362,1,125,2|0,1:2|0:0,0:0:0:0:
268,381,133481,1,2,0:0:0:0:
137,324,133639,2,0,L|199:316,1,62.5,0|0,1:0|0:0,0:0:0:0:
249,236,133954,2,0,L|187:227,1,62.5,2|0,0:0|0:0,0:0:0:0:
93,212,134270,5,2,1:2:0:0:
154,140,134428,1,0,0:0:0:0:
61,123,134586,1,0,0:0:0:0:
122,52,134744,1,2,0:0:0:0:
214,68,134902,2,0,P|250:71|288:62,1,62.5,0|0,1:0|0:0,0:0:0:0:
310,154,135218,2,0,P|274:151|236:160,1,62.5,2|2,0:0|0:0,0:0:0:0:
282,262,135533,5,2,1:2:0:0:
282,262,135691,2,0,P|340:257|415:252,1,125,2|2,0:0|0:0,0:0:0:0:
267,360,136165,1,0,1:0:0:0:
267,360,136323,1,0,0:0:0:0:
184,273,136481,1,2,0:0:0:0:
184,273,136639,1,0,0:0:0:0:
80,343,136797,6,0,P|69:279|57:194,1,125,2|0,1:2|0:0,0:0:0:0:
82,128,137270,1,2,0:0:0:0:
150,192,137428,2,0,L|223:182,1,62.5,0|0,1:0|0:0,0:0:0:0:
305,171,137744,1,2,0:0:0:0:
247,96,137902,6,0,P|215:90|174:97,1,62.5,0|2,0:0|1:2,0:0:0:0:
326,62,138218,2,0,P|307:35|273:11,1,62.5,0|0,0:0|0:0,0:0:0:0:
191,2,138533,1,2,0:0:0:0:
332,94,138691,2,0,L|419:87,1,62.5,0|0,1:0|0:0,0:0:0:0:
480,140,139007,1,2,0:0:0:0:
480,140,139165,1,0,0:0:0:0:
435,222,139323,6,0,P|372:237|293:214,1,125,2|0,1:2|0:0,0:0:0:0:
226,188,139797,1,2,0:0:0:0:
152,308,139954,1,0,1:0:0:0:
140,167,140112,1,0,0:0:0:0:
232,275,140270,1,2,0:0:0:0:
95,242,140428,1,2,0:0:0:0:
226,188,140586,6,0,L|231:117,1,62.5,2|2,1:2|0:0,0:0:0:0:
356,15,140902,1,0,0:0:0:0:
324,164,141060,1,2,0:0:0:0:
247,20,141218,2,0,P|210:20|172:38,1,62.5,2|0,1:2|0:0,0:0:0:0:
332,142,141533,2,0,P|361:151|392:150,1,62.5,2|0,0:0|0:0,0:0:0:0:
509,43,141849,5,6,1:2:0:0:
256,192,141928,12,2,144376,0:0:0:0:
78,150,151954,6,0,L|-6:144,1,68.7500020980836,8|0,0:0|0:0,0:0:0:0:
60,46,152270,2,0,L|144:52,1,68.7500020980836,8|0,0:0|0:0,0:0:0:0:
147,155,152586,2,0,L|63:149,1,68.7500020980836,8|0,0:0|0:0,0:0:0:0:
129,51,152902,2,0,L|213:57,1,68.7500020980836,8|0,0:0|0:0,0:0:0:0:
326,122,153218,6,0,P|333:161|325:202,1,68.7500020980836,8|0,0:0|0:0,0:0:0:0:
193,239,153533,2,0,P|232:232|273:240,1,68.7500020980836,8|0,0:0|0:0,0:0:0:0:
318,369,153849,2,0,P|311:330|319:289,1,68.7500020980836,8|0,0:0|0:0,0:0:0:0:
451,252,154165,2,0,P|412:259|371:251,1,68.7500020980836,8|0,0:0|0:0,0:0:0:0:
326,122,154481,6,0,L|318:31,1,68.7500020980836,8|0,0:0|0:0,0:0:0:0:
186,122,154797,2,0,L|194:31,1,68.7500020980836,8|0,0:0|0:0,0:0:0:0:
332,190,155112,2,0,L|324:99,1,68.7500020980836,8|0,0:0|0:0,0:0:0:0:
180,191,155428,2,0,L|188:100,1,68.7500020980836,8|0,0:0|0:0,0:0:0:0:
111,324,155744,6,0,L|202:316,1,68.7500020980836,8|0,0:0|0:0,0:0:0:0:
111,184,156060,2,0,L|202:192,1,68.7500020980836,8|0,0:0|0:0,0:0:0:0:
43,330,156375,2,0,L|134:322,1,68.7500020980836,8|0,0:0|0:0,0:0:0:0:
42,178,156691,2,0,L|133:186,1,68.7500020980836,8|0,0:0|0:0,0:0:0:0:
256,200,157007,5,8,0:0:0:0:
201,295,157165,1,0,0:0:0:0:
186,122,157323,1,8,0:0:0:0:
278,181,157481,2,0,L|369:173,1,68.7500020980836,0|8,0:0|0:0,0:0:0:0:
282,282,157797,1,0,0:0:0:0:
371,152,157954,2,0,L|462:160,1,68.7500020980836,8|0,0:0|0:0,0:0:0:0:
385,300,158270,5,8,0:0:0:0:
346,175,158428,1,0,0:0:0:0:
485,275,158586,1,8,0:0:0:0:
314,252,158744,2,0,P|278:254|232:258,1,68.7500020980836,0|8,0:0|0:0,0:0:0:0:
142,267,159060,1,0,0:0:0:0:
70,192,159218,2,0,P|62:152|68:123,1,68.7500020980836,8|0,0:0|0:0,0:0:0:0:
157,12,159533,5,8,0:0:0:0:
158,156,159691,1,0,0:0:0:0:
283,84,159849,2,0,L|382:89,1,68.7500020980836,8|0,0:0|0:0,0:0:0:0:
258,199,160165,1,8,0:0:0:0:
257,55,160323,1,0,0:0:0:0:
158,156,160481,2,0,L|59:161,1,68.7500020980836,8|0,0:0|0:0,0:0:0:0:
171,262,160797,5,0,0:0:0:0:
171,262,161428,5,8,0:0:0:0:
271,346,161586,1,2,0:0:0:0:
271,346,161665,1,2,0:0:0:0:
271,346,161744,1,8,0:0:0:0:
266,227,161902,1,2,0:0:0:0:
171,359,162060,6,0,B|46:368|46:368|79:319,1,162.499992561341,4|0,1:0|0:0,0:0:0:0:
155,220,162533,1,8,0:0:0:0:
274,303,162691,2,0,P|285:338|284:381,1,81.2499962806703,0|0,1:0|0:0,0:0:0:0:
137,206,163007,2,0,P|135:165|148:127,1,81.2499962806703,8|0,0:0|0:0,0:0:0:0:
403,186,163323,6,0,B|350:177|350:177|296:194|296:194|246:182,1,162.499992561341,0|0,1:0|0:0,0:0:0:0:
294,108,163797,1,8,0:0:0:0:
355,262,163954,1,8,1:0:0:0:
402,81,164112,1,0,0:0:0:0:
246,182,164270,2,0,P|183:186|117:192,1,121.874994421006,8|0,0:0|0:0,0:0:0:0:
87,196,164586,6,0,P|78:237|89:286,1,81.2499962806703,0|0,1:0|0:0,0:0:0:0:
176,356,164902,1,0,0:0:0:0:
246,182,165060,2,0,L|233:92,1,81.2499962806703,8|0,0:0|1:0,0:0:0:0:
87,196,165376,1,0,0:0:0:0:
280,178,165533,2,0,L|267:88,1,81.2499962806703,8|0,0:0|0:0,0:0:0:0:
179,254,165849,5,0,1:0:0:0:
356,278,166007,1,2,0:0:0:0:
202,370,166165,2,0,P|157:371|112:351,1,81.2499962806703,0|8,0:0|0:0,0:0:0:0:
167,174,166481,2,0,L|178:254,1,81.2499962806703,8|0,1:0|0:0,0:0:0:0:
356,278,166797,2,0,L|375:141,1,121.874994421006,8|0,0:0|0:0,0:0:0:0:
380,121,167112,6,0,P|421:130|463:121,1,81.2499962806703,0|0,1:0|0:0,0:0:0:0:
356,6,167428,1,0,0:0:0:0:
249,159,167586,2,0,L|260:239,1,81.2499962806703,8|0,0:0|1:0,0:0:0:0:
301,79,167902,1,0,0:0:0:0:
415,227,168060,1,8,0:0:0:0:
486,108,168218,1,0,0:0:0:0:
326,171,168376,6,0,P|286:174|249:159,1,81.2499962806703,0|0,1:0|0:0,0:0:0:0:
151,72,168691,1,0,0:0:0:0:
301,79,168849,1,8,0:0:0:0:
193,232,169007,2,0,B|189:329,1,81.2499962806703,8|0,1:0|0:0,0:0:0:0:
55,374,169323,2,0,P|39:317|55:250,1,121.874994421006,8|0,0:0|0:0,0:0:0:0:
78,231,169639,6,0,L|69:141,1,81.2499962806703,0|0,1:0|0:0,0:0:0:0:
169,1,169954,1,0,0:0:0:0:
301,120,170112,2,0,P|259:130|212:120,1,81.2499962806703,8|0,0:0|1:0,0:0:0:0:
254,11,170428,1,0,0:0:0:0:
428,78,170586,2,0,P|423:140|418:217,1,121.874994421006,8|0,0:0|0:0,0:0:0:0:
412,236,170902,6,0,P|368:229|323:241,1,81.2499962806703,0|8,1:0|0:0,0:0:0:0:
220,356,171218,1,0,0:0:0:0:
373,333,171376,1,8,0:0:0:0:
215,234,171533,1,8,1:0:0:0:
180,223,171611,1,0,0:0:0:0:
143,222,171690,1,0,0:0:0:0:
107,231,171769,1,0,0:0:0:0:
73,247,171849,2,0,P|58:195|77:113,1,121.874994421006,8|0,0:0|0:0,0:0:0:0:
91,99,172165,6,0,L|177:95,1,81.2499962806703,0|0,1:0|0:0,0:0:0:0:
302,85,172481,1,0,0:0:0:0:
150,5,172639,1,8,0:0:0:0:
149,183,172797,2,0,P|201:180|233:162,1,81.2499962806703,0|0,1:0|0:0,0:0:0:0:
308,8,173112,1,8,0:0:0:0:
397,123,173270,1,0,0:0:0:0:
219,89,173428,6,0,P|214:129|226:167,1,81.2499962806703,0|0,1:0|0:0,0:0:0:0:
298,286,173744,1,0,0:0:0:0:
390,151,173902,1,8,0:0:0:0:
276,309,174060,2,0,L|181:302,1,81.2499962806703,8|0,1:0|0:0,0:0:0:0:
15,284,174376,1,8,0:0:0:0:
113,379,174533,1,0,0:0:0:0:
82,202,174691,6,0,P|78:155|93:112,1,81.2499962806703,0|0,1:0|0:0,0:0:0:0:
174,3,175007,1,0,0:0:0:0:
199,174,175165,1,8,0:0:0:0:
87,34,175323,2,0,P|44:44|8:79,1,81.2499962806703,0|0,1:0|0:0,0:0:0:0:
174,170,175639,1,8,0:0:0:0:
266,56,175797,1,0,0:0:0:0:
87,123,175954,5,0,1:0:0:0:
206,266,176112,2,0,L|300:258,1,81.2499962806703,2|0,0:0|0:0,0:0:0:0:
199,174,176428,1,8,0:0:0:0:
169,358,176586,2,0,B|210:366|210:366|251:355,1,81.2499962806703,8|0,1:0|0:0,0:0:0:0:
367,266,176902,2,0,L|273:258,1,81.2499962806703,8|0,0:0|0:0,0:0:0:0:
450,189,177218,6,0,P|477:242|443:349,1,162.499992561341,0|0,1:0|0:0,0:0:0:0:
367,266,177691,1,8,0:0:0:0:
393,89,177849,2,0,L|484:74,1,81.2499962806703,0|0,1:0|0:0,0:0:0:0:
290,167,178165,2,0,L|199:152,1,81.2499962806703,8|0,0:0|0:0,0:0:0:0:
23,127,178481,6,0,B|11:166|11:166|22:215,1,81.2499962806703,0|0,1:0|0:0,0:0:0:0:
187,169,178797,1,0,0:0:0:0:
110,45,178954,1,8,0:0:0:0:
90,271,179112,2,0,B|129:279|129:279|168:267,1,81.2499962806703,8|0,1:0|0:0,0:0:0:0:
306,215,179428,2,0,B|336:198|336:198|317:306,1,121.874994421006,8|0,0:0|0:0,0:0:0:0:
316,320,179744,6,0,L|405:314,1,81.2499962806703,0|0,1:0|0:0,0:0:0:0:
203,381,180060,1,0,0:0:0:0:
90,271,180218,2,0,P|81:235|90:186,1,81.2499962806703,8|0,0:0|1:0,0:0:0:0:
159,93,180533,1,0,0:0:0:0:
257,225,180691,2,0,P|217:234|178:228,1,81.2499962806703,8|0,0:0|0:0,0:0:0:0:
288,98,181007,5,0,1:0:0:0:
367,295,181165,1,8,0:0:0:0:
418,90,181323,1,0,0:0:0:0:
257,225,181481,1,8,0:0:0:0:
467,211,181639,6,0,B|500:252|500:252|479:344|479:344|445:302,1,187.500007152558,8|2,1:0|0:1,0:0:0:0:
453,312,182112,1,2,0:3:0:0:
267,370,182270,6,0,P|179:358|55:344,1,174.999994659424,4|0,1:0|0:0,0:0:0:0:
201,208,182744,1,8,0:0:0:0:
366,294,182902,2,0,P|387:333|392:382,1,87.499997329712,0|0,1:0|0:0,0:0:0:0:
226,205,183218,2,0,P|231:161|252:123,1,87.499997329712,8|0,0:0|0:0,0:0:0:0:
457,178,183533,6,0,B|329:187|329:187|345:167|357:133,1,174.999994659424,0|0,1:0|0:0,0:0:0:0:
295,27,184007,1,8,0:0:0:0:
168,106,184165,2,0,P|211:123|267:120,1,87.499997329712,8|0,1:0|0:0,0:0:0:0:
96,208,184481,2,0,P|52:209|12:225,1,87.499997329712,8|0,0:0|0:0,0:0:0:0:
197,344,184797,6,0,P|240:339|301:333,1,87.499997329712,0|0,1:0|0:0,0:0:0:0:
129,219,185112,1,0,0:0:0:0:
107,383,185270,1,8,0:0:0:0:
241,221,185428,1,0,1:0:0:0:
65,299,185586,1,0,0:0:0:0:
283,334,185744,2,0,P|326:339|387:345,1,87.499997329712,8|0,0:0|0:0,0:0:0:0:
498,160,186060,5,0,1:0:0:0:
332,216,186218,1,2,0:0:0:0:
493,283,186376,1,0,0:0:0:0:
327,339,186534,1,8,0:0:0:0:
402,134,186691,2,0,L|392:47,1,87.499997329712,8|0,1:0|0:0,0:0:0:0:
218,15,187007,2,0,L|202:150,1,131.249995994568,8|0,0:0|0:0,0:0:0:0:
201,185,187323,6,0,P|161:144|19:167,1,174.999994659424,0|0,1:0|0:0,0:0:0:0:
86,323,187797,2,0,P|103:283|103:240,1,87.499997329712,8|0,0:0|1:0,0:0:0:0:
0,262,188112,1,0,0:0:0:0:
174,378,188270,2,0,P|237:373|329:365,1,131.249995994568,8|0,0:0|0:0,0:0:0:0:
344,362,188586,6,0,B|368:298|322:236|322:236|335:208|350:191,1,174.999994659424,0|0,1:0|0:0,0:0:0:0:
443,240,189060,1,8,0:0:0:0:
245,280,189218,2,0,P|235:237|249:189,1,87.499997329712,8|0,1:0|0:0,0:0:0:0:
132,61,189533,2,0,P|142:104|128:152,1,87.499997329712,8|0,0:0|0:0,0:0:0:0:
2,290,189849,6,0,B|34:332|34:332|172:309,1,174.999994659424,0|0,1:0|0:0,0:0:0:0:
275,286,190323,1,8,0:0:0:0:
218,143,190481,2,0,P|167:137|116:153,1,87.499997329712,0|0,1:0|0:0,0:0:0:0:
281,254,190797,2,0,P|323:262|366:256,1,87.499997329712,8|0,0:0|0:0,0:0:0:0:
469,103,191112,5,0,1:0:0:0:
326,152,191270,1,8,0:0:0:0:
509,207,191428,1,0,0:0:0:0:
366,256,191586,1,8,0:0:0:0:
384,55,191744,1,8,1:0:0:0:
347,41,191822,1,0,0:0:0:0:
308,40,191901,1,0,0:0:0:0:
271,53,191980,1,0,0:0:0:0:
239,77,192060,2,0,P|174:72|93:66,1,131.249995994568,8|0,0:0|0:0,0:0:0:0:
68,61,192376,6,0,B|52:102|52:102|62:153,1,87.499997329712,0|0,1:0|0:0,0:0:0:0:
99,297,192691,1,0,0:0:0:0:
205,173,192849,1,8,0:0:0:0:
19,249,193007,2,0,P|5:294|19:346,1,87.499997329712,0|0,1:0|0:0,0:0:0:0:
181,263,193323,1,8,0:0:0:0:
60,144,193481,1,0,0:0:0:0:
239,77,193639,6,0,L|338:83,1,87.499997329712,0|0,1:0|0:0,0:0:0:0:
180,178,193954,1,0,0:0:0:0:
146,0,194112,1,8,0:0:0:0:
37,159,194270,2,0,L|48:264,1,87.499997329712,8|0,1:0|0:0,0:0:0:0:
205,173,194586,1,8,0:0:0:0:
68,61,194744,1,0,0:0:0:0:
46,246,194902,6,0,P|88:260|136:255,1,87.499997329712,0|0,1:0|0:0,0:0:0:0:
285,224,195218,1,0,0:0:0:0:
234,373,195376,1,8,0:0:0:0:
387,342,195533,2,0,L|482:350,1,87.499997329712,0|0,1:0|0:0,0:0:0:0:
285,224,195849,1,8,0:0:0:0:
360,362,196007,1,0,0:0:0:0:
435,175,196165,5,0,1:0:0:0:
298,254,196323,2,0,P|253:260|203:247,1,87.499997329712,2|0,0:0|0:0,0:0:0:0:
256,89,196639,1,8,0:0:0:0:
92,191,196797,2,0,L|104:293,1,87.499997329712,8|0,1:0|0:0,0:0:0:0:
234,106,197112,2,0,L|244:19,1,87.499997329712,8|0,0:0|0:0,0:0:0:0:
397,179,197428,6,0,B|430:221|430:221|400:361,1,174.999994659424,0|0,1:0|0:0,0:0:0:0:
298,254,197902,1,8,0:0:0:0:
337,83,198060,2,0,P|377:67|439:74,1,87.499997329712,0|0,1:0|0:0,0:0:0:0:
297,228,198376,2,0,P|253:229|213:213,1,87.499997329712,8|0,0:0|0:0,0:0:0:0:
53,89,198691,5,0,1:0:0:0:
77,253,198849,1,0,0:0:0:0:
174,118,199007,1,0,0:0:0:0:
0,175,199165,1,8,0:0:0:0:
194,96,199323,2,0,L|289:101,1,87.499997329712,8|0,1:0|0:0,0:0:0:0:
428,221,199639,2,0,L|290:228,1,131.249995994568,8|0,0:0|0:0,0:0:0:0:
257,231,199954,6,0,P|231:300|124:339,1,174.999994659424,0|0,1:0|0:0,0:0:0:0:
144,226,200428,1,8,0:0:0:0:
48,383,200586,2,0,P|39:338|52:290,1,87.499997329712,0|0,1:0|0:0,0:0:0:0:
144,141,200902,2,0,P|153:183|144:225,1,87.499997329712,8|0,0:0|0:0,0:0:0:0:
13,185,201218,5,0,1:0:0:0:
87,45,201376,2,0,L|197:37,1,87.499997329712,8|0,0:0|0:0,0:0:0:0:
331,25,201691,1,8,0:0:0:0:
450,127,201849,1,8,1:0:0:0:
468,161,201927,1,0,0:0:0:0:
474,200,202006,1,0,0:0:0:0:
469,239,202085,1,0,0:0:0:0:
450,273,202165,2,0,L|354:259,1,87.499997329712,8|0,0:0|0:0,0:0:0:0:
177,225,202481,6,0,P|127:206|143:349,1,281.250010728836,6|2,1:2|0:0,0:0:0:0:
274,197,203112,2,0,B|259:78,1,93.7500035762788,0|2,0:0|0:0,0:0:0:0:
296,87,203349,1,0,0:0:0:0:
296,87,203428,2,0,B|311:206,1,93.7500035762788,2|2,0:0|0:0,0:0:0:0:
419,300,203744,6,0,L|529:284,1,93.7500035762788,10|0,0:1|0:0,0:0:0:0:
333,364,204060,2,0,L|223:348,1,93.7500035762788,2|2,1:2|0:0,0:0:0:0:
54,317,204376,2,0,P|18:241|134:281,1,281.250010728836,0|2,0:0|0:0,0:0:0:0:
22,124,205007,6,0,P|101:115|222:264,1,281.250010728836,0|2,1:0|0:0,0:0:0:0:
388,343,205639,2,0,P|397:277|412:249,1,93.7500035762788,0|2,0:0|0:0,0:0:0:0:
442,227,205876,1,2,0:0:0:0:
442,227,205954,2,0,P|433:161|418:133,1,93.7500035762788,2|2,0:0|0:0,0:0:0:0:
392,105,206191,1,0,0:0:0:0:
392,105,206270,6,0,B|316:104|280:35|280:35|208:76|135:31,1,281.250010728836,10|2,0:1|0:0,0:0:0:0:
5,164,206902,2,0,L|18:295,1,93.7500035762788,0|2,0:0|0:0,0:0:0:0:
191,323,207218,2,0,L|200:229,1,93.7500035762788,2|0,0:0|0:0,0:0:0:0:
250,48,207533,6,0,B|441:30|441:30|388:111,1,281.250010728836,4|2,1:2|0:0,0:0:0:0:
298,268,208165,2,0,P|341:279|403:260,1,93.7500035762788,0|0,1:0|0:0,0:0:0:0:
418,238,208402,2,0,L|400:131,1,93.7500035762788,0|0,3:0|0:0,0:0:0:0:
392,104,208639,1,0,3:0:0:0:
206,138,208797,6,0,L|197:260,1,93.7500035762788,10|0,0:1|0:0,0:0:0:0:
71,368,209112,2,0,L|64:274,1,93.7500035762788,2|2,1:2|0:0,0:0:0:0:
90,87,209428,2,0,P|199:11|316:76,1,281.250010728836,0|2,0:0|0:0,0:0:0:0:
387,251,210060,6,0,B|213:233|213:233|310:280,1,281.250010728836,2|2,1:2|1:2,0:0:0:0:
494,301,210691,2,0,P|504:246|486:191,1,93.7500035762788,0|2,1:0|0:0,0:0:0:0:
474,179,210928,1,0,0:0:0:0:
474,179,211007,2,0,P|464:124|482:69,1,93.7500035762788,2|2,3:2|0:0,0:0:0:0:
288,44,211323,6,0,B|224:37|224:37|161:72|161:72|74:58|74:58|126:113,1,281.250010728836,10|2,0:1|0:0,0:0:0:0:
240,237,211954,2,0,L|116:250,1,93.7500035762788,0|2,0:0|0:0,0:0:0:0:
308,148,212270,2,0,L|432:161,1,93.7500035762788,2|0,0:0|0:0,0:0:0:0:
408,308,212586,6,0,P|360:336|262:320,2,150,2|2|2,0:0|0:0|0:0,0:0:0:0:
401,157,213849,2,0,P|353:129|255:145,2,150,2|2|2,0:0|0:0|0:0,0:0:0:0:
270,231,215112,6,0,L|157:219,1,100,2|0,0:0|0:0,0:0:0:0:
143,149,215586,2,0,L|30:161,1,100,2|0,0:0|0:0,0:0:0:0:
5,226,216060,1,2,0:0:0:0:
5,226,216218,1,2,0:0:0:0:
40,298,216376,5,2,0:0:0:0:
40,298,216533,2,0,P|78:302|101:297,1,50,2|0,0:0|0:0,0:0:0:0:
151,257,216849,2,0,L|263:260,1,100,2|0,0:0|0:0,0:0:0:0:
326,264,217323,1,2,0:0:0:0:
