osu file format v14

[General]
AudioFilename: ROL - Endless Line.mp3
AudioLeadIn: 0
PreviewTime: 40790
Countdown: 0
SampleSet: Soft
StackLeniency: 0.5
Mode: 0
LetterboxInBreaks: 0
WidescreenStoryboard: 0

[Editor]
DistanceSpacing: 1.3
BeatDivisor: 8
GridSize: 4
TimelineZoom: 4.099998

[Metadata]
Title:Endless Line
TitleUnicode:エンドレスライン
Artist:REOL
ArtistUnicode:REOL
Creator:DeRandom Otaku
Version:Advanced
Source:
Tags:ギガ お菊 giga okiku akitoshi snownino_
BeatmapID:1497765
BeatmapSetID:706150

[Difficulty]
HPDrainRate:4
CircleSize:3.3
OverallDifficulty:4.5
ApproachRate:5.5
SliderMultiplier:1.65
SliderTickRate:1

[Events]
//Background and Video events
0,0,"BG.jpg",0,0
//Break Periods
2,61207,69987
//Storyboard Layer 0 (Background)
//Storyboard Layer 1 (Fail)
//Storyboard Layer 2 (Pass)
//Storyboard Layer 3 (Foreground)
//Storyboard Sound Samples

[TimingPoints]
376,631.578947368421,4,2,0,40,1,0
9849,-100,4,2,0,40,0,0
10481,-100,4,2,0,60,0,0
15454,-100,4,2,0,5,0,0
15533,-100,4,2,0,60,0,0
30691,-100,4,2,0,65,0,0
39218,-100,4,2,0,65,0,0
40165,-100,4,2,0,65,0,0
40797,-100,4,2,0,98,0,1
45533,-100,4,2,0,98,0,1
45849,-100,4,2,0,98,0,1
61007,-100,4,2,0,60,0,0
71112,-100,4,2,0,55,0,0
75770,-100,4,2,0,5,0,0
75849,-100,4,2,0,55,0,0
76007,-100,4,2,0,55,0,0
76086,-100,4,2,0,5,0,0
76165,-100,4,2,0,55,0,0
81218,-100,4,2,0,60,0,0
91323,-100,4,2,0,65,0,0
101112,-100,4,2,0,65,0,0
101428,-100,4,2,0,98,0,1
106165,-100,4,2,0,98,0,1
106481,-100,4,2,0,98,0,1
121639,-100,4,2,0,55,0,0
127007,-100,4,2,0,55,0,0
127323,-100,4,2,0,55,0,0
129533,-100,4,2,0,55,0,0
141849,-100,4,2,0,60,0,0
151954,-100,4,2,0,67,0,0
160797,-100,4,2,0,40,0,0
162060,-100,4,2,0,98,0,1
166797,-100,4,2,0,98,0,1
167112,-100,4,2,0,98,0,1
181639,-100,4,2,0,85,0,0
182270,-100,4,2,0,99,0,1
202481,-100,4,2,0,90,0,0
212586,-100,4,2,0,45,0,0

[Colours]
Combo1 : 15,177,255
Combo2 : 0,255,255
Combo3 : 255,128,255
Combo4 : 255,128,128

[HitObjects]
256,192,6691,12,8,9849,0:0:0:0:
165,99,10481,6,0,P|106:99|51:135,2,123.75,2|2|2,1:2|0:0|0:0,0:0:0:0:
134,199,11744,2,0,L|127:290,1,82.5,2|0,1:2|0:0,0:0:0:0:
218,339,12375,2,0,L|225:248,1,82.5,0|2,1:0|0:0,0:0:0:0:
292,173,13007,6,0,B|352:161|352:161|420:180,2,123.75,2|2|2,1:2|0:0|0:0,0:0:0:0:
225,257,14270,2,0,L|130:250,1,82.5,2|0,1:2|0:0,0:0:0:0:
35,246,14902,1,0,1:0:0:0:
83,341,15218,1,2,0:0:0:0:
143,251,15533,6,0,L|139:116,2,123.75,2|2|2,1:2|0:0|0:0,0:0:0:0:
210,334,16797,2,0,L|296:330,1,82.5,2|0,1:2|0:0,0:0:0:0:
346,331,17270,1,2,0:0:0:0:
346,331,17428,2,0,P|349:291|340:240,1,82.5,0|0,1:0|0:0,0:0:0:0:
316,144,18060,6,0,P|358:151|409:140,1,82.5,2|0,1:2|0:0,0:0:0:0:
397,37,18691,2,0,P|355:30|304:41,1,82.5,0|2,1:0|0:0,0:0:0:0:
222,90,19323,2,0,L|136:86,1,82.5,2|0,1:2|0:0,0:0:0:0:
32,95,19954,1,0,1:0:0:0:
108,169,20270,1,2,0:0:0:0:
15,223,20586,6,0,B|15:292|15:292|49:343,1,123.75,2|2,1:2|0:0,0:0:0:0:
92,364,21218,2,0,P|131:349|180:350,1,82.5,0|2,1:0|0:0,0:0:0:0:
223,359,21691,2,0,P|264:358|302:343,1,82.5,0|0,0:0|0:0,0:0:0:0:
384,275,22323,1,2,0:0:0:0:
384,275,22481,2,0,P|399:308|407:361,1,82.5,0|2,1:0|0:0,0:0:0:0:
302,343,23112,6,0,P|278:286|288:221,1,123.75,2|2,1:2|0:0,0:0:0:0:
299,173,23744,2,0,L|210:174,1,82.5,0|2,1:0|0:0,0:0:0:0:
162,177,24218,2,0,B|155:147|155:147|161:83,1,82.5,2|2,0:0|0:0,0:0:0:0:
68,38,24849,1,2,0:0:0:0:
68,38,25007,2,0,B|75:68|75:68|69:132,1,82.5,0|2,1:0|0:0,0:0:0:0:
19,214,25639,6,0,B|27:263|27:263|22:297|22:297|33:350,1,123.75,2|2,1:2|0:0,0:0:0:0:
77,360,26270,2,0,P|118:371|170:363,2,82.5,0|2|2,1:0|0:0|1:2,0:0:0:0:
125,263,27218,1,0,0:0:0:0:
125,263,27376,2,0,P|165:259|205:270,1,82.5,2|0,0:0|0:0,0:0:0:0:
254,290,27849,1,2,0:0:0:0:
347,342,28165,6,0,L|351:258,1,82.5,10|0,1:2|0:0,0:0:0:0:
447,211,28797,2,0,L|443:127,1,82.5,0|2,1:0|0:0,0:0:0:0:
427,22,29428,2,0,P|385:35|338:36,1,82.5,2|0,1:2|0:0,0:0:0:0:
239,25,30060,1,0,1:0:0:0:
239,25,30218,2,0,P|248:62|241:111,1,82.5,2|0,0:0|0:0,0:0:0:0:
232,158,30691,6,0,B|273:153|273:153|328:162,1,82.5,2|0,1:2|0:0,0:0:0:0:
417,186,31323,2,0,B|422:227|422:227|413:282,1,82.5,0|2,1:0|0:0,0:0:0:0:
394,373,31954,1,2,1:2:0:0:
313,301,32270,1,0,0:0:0:0:
224,361,32586,2,0,P|207:317|210:271,1,82.5,8|2,1:0|0:0,0:0:0:0:
243,180,33218,6,0,L|149:184,1,82.5,2|0,1:2|0:0,0:0:0:0:
152,76,33849,2,0,L|246:72,1,82.5,0|2,1:0|0:0,0:0:0:0:
341,80,34481,2,0,P|353:119|347:162,1,82.5,2|0,1:2|0:0,0:0:0:0:
243,180,35112,2,0,P|231:219|237:262,1,82.5,8|2,1:0|0:0,0:0:0:0:
288,353,35744,6,0,B|330:348|330:348|383:354,1,82.5,2|0,1:2|0:0,0:0:0:0:
476,366,36376,2,0,B|480:326|480:326|475:284,1,82.5,0|2,1:0|0:0,0:0:0:0:
445,180,37007,1,2,1:2:0:0:
361,247,37323,1,0,0:0:0:0:
316,149,37639,2,0,L|322:62,1,82.5,8|2,1:0|0:0,0:0:0:0:
224,21,38270,5,2,1:1:0:0:
224,21,38428,2,0,L|136:28,2,82.5,0|2|0,0:0|0:0|0:0,0:0:0:0:
271,46,39218,2,0,P|272:67|272:91,1,41.25,2|2,0:0|0:0,0:0:0:0:
252,136,39533,2,0,P|306:137|335:232,1,165,8|10,1:3|0:3,0:0:0:0:
122,253,40797,6,0,L|130:114,1,123.75,4|8,1:0|0:0,0:0:0:0:
133,75,41428,2,0,P|94:88|51:92,1,82.5,0|8,1:0|0:0,0:0:0:0:
19,192,42060,1,0,1:0:0:0:
27,299,42376,1,0,0:0:0:0:
122,254,42691,2,0,L|170:257,1,41.25,8|0,1:0|0:0,0:0:0:0:
216,265,43007,1,8,0:0:0:0:
302,328,43323,6,0,P|318:296|321:247,1,82.5,0|0,1:0|0:0,0:0:0:0:
249,169,43954,2,0,P|251:128|268:90,1,82.5,0|8,1:0|0:0,0:0:0:0:
355,154,44586,2,0,L|442:151,1,82.5,0|0,1:0|0:0,0:0:0:0:
491,151,45060,1,8,0:0:0:0:
491,151,45218,1,8,1:0:0:0:
466,255,45533,1,8,0:0:0:0:
441,359,45849,6,0,L|358:361,1,82.5,0|0,1:0|0:0,0:0:0:0:
320,323,46323,2,0,L|237:320,1,82.5,8|0,0:0|0:0,0:0:0:0:
212,368,46797,1,8,0:0:0:0:
104,362,47112,2,0,P|99:324|108:278,1,82.5,0|0,1:0|0:0,0:0:0:0:
186,208,47744,1,8,1:0:0:0:
82,180,48060,1,8,0:0:0:0:
164,111,48376,6,0,P|200:111|245:127,1,82.5,0|0,1:0|0:0,0:0:0:0:
289,153,48849,2,8,P|330:152|368:137,1,82.5,8|0,0:0|0:0,0:0:0:0:
419,121,49323,1,8,0:0:0:0:
483,206,49639,2,0,P|475:250|476:296,1,82.5,0|0,1:0|0:0,0:0:0:0:
489,339,50112,2,0,L|396:333,1,82.5,8|0,0:0|0:0,0:0:0:0:
352,329,50586,1,8,0:0:0:0:
254,283,50902,6,0,P|259:322|252:368,1,82.5,0|0,1:0|0:0,0:0:0:0:
154,322,51533,1,0,1:0:0:0:
176,217,51849,2,0,L|181:172,1,41.25,8|0,0:0|0:0,0:0:0:0:
199,125,52165,2,0,P|154:132|108:123,1,82.5,0|0,1:0|0:0,0:0:0:0:
14,96,52797,1,8,1:0:0:0:
53,195,53112,2,0,P|55:225|52:255,1,41.25,8|0,0:0|0:0,0:0:0:0:
44,289,53428,6,0,L|132:292,1,82.5,0|0,1:0|0:0,0:0:0:0:
202,367,54060,1,0,1:0:0:0:
277,291,54376,2,0,L|275:238,1,41.25,8|0,0:0|0:0,0:0:0:0:
260,198,54691,2,0,L|262:145,1,41.25,0|2,1:0|0:0,0:0:0:0:
258,49,55165,2,0,P|297:45|347:54,1,82.5,8|0,0:0|0:0,0:0:0:0:
390,69,55639,1,8,0:0:0:0:
485,116,55954,6,0,B|479:157|479:157|483:208,1,82.5,0|0,1:0|0:0,0:0:0:0:
416,283,56586,2,0,B|422:324|422:324|418:375,1,82.5,0|8,1:0|0:0,0:0:0:0:
311,367,57218,2,0,B|305:326|305:326|308:285,1,82.5,0|0,1:0|0:0,0:0:0:0:
357,189,57849,1,8,1:0:0:0:
281,113,58165,2,0,P|257:122|234:123,1,41.25,8|0,0:0|0:0,0:0:0:0:
187,124,58481,6,0,L|196:220,1,82.5,0|0,1:0|0:0,0:0:0:0:
202,259,58954,1,8,0:0:0:0:
107,310,59270,2,0,L|99:227,1,82.5,0|0,0:0|0:0,0:0:0:0:
92,174,59744,1,0,1:0:0:0:
187,124,60060,1,0,0:0:0:0:
287,161,60376,1,8,1:0:0:0:
287,161,60533,2,0,P|328:154|371:159,1,82.5,0|0,0:0|0:0,0:0:0:0:
420,170,61007,5,2,1:2:0:0:
420,170,71112,6,0,L|292:165,1,123.75,8|8,0:0|0:0,0:0:0:0:
242,161,71744,2,0,P|237:201|237:243,1,82.5,0|8,0:0|0:0,0:0:0:0:
272,344,72375,2,0,L|144:339,1,123.75,8|8,0:0|0:0,0:0:0:0:
94,335,73007,1,8,0:1:0:0:
39,127,73639,6,0,P|39:96|44:67,1,41.25,8|2,0:0|0:0,0:0:0:0:
78,47,73954,2,0,P|95:46|123:48,1,41.25,0|8,0:0|0:0,0:0:0:0:
171,59,74270,2,0,P|213:68|260:59,1,82.5,2|8,0:0|0:0,0:0:0:0:
358,51,74902,2,0,L|360:92,1,41.25,8|2,0:0|0:0,0:0:0:0:
368,145,75218,2,0,L|366:186,1,41.25,0|0,0:0|0:0,0:0:0:0:
355,238,75533,2,0,P|396:231|445:244,1,82.5,2|2,0:1|0:1,0:0:0:0:
393,338,76165,6,0,L|347:337,1,41.25,8|0,0:0|0:0,0:0:0:0:
298,333,76481,1,0,0:0:0:0:
222,257,76797,2,0,L|175:258,1,41.25,0|0,0:0|0:0,0:0:0:0:
126,262,77113,1,8,0:0:0:0:
19,275,77428,2,0,B|15:239|15:239|21:188,1,82.5,8|0,0:0|0:0,0:0:0:0:
29,139,77902,1,8,0:0:0:0:
29,139,78060,2,0,P|65:148|117:140,1,82.5,0|8,0:0|0:0,0:0:0:0:
196,79,78691,6,0,P|220:78|241:79,1,41.25,8|2,0:0|0:0,0:0:0:0:
290,84,79007,1,0,0:0:0:0:
340,178,79323,1,0,0:0:0:0:
340,178,79481,2,0,P|333:216|338:262,1,82.5,0|2,0:0|0:0,0:0:0:0:
352,310,79954,1,8,0:0:0:0:
352,310,80112,2,0,P|390:306|444:311,1,82.5,2|2,0:0|0:0,0:0:0:0:
487,312,80586,1,8,0:1:0:0:
487,97,81218,5,2,1:2:0:0:
487,97,81375,2,0,L|403:101,2,82.5,0|2|0,0:0|0:0|0:0,0:0:0:0:
486,204,82323,2,0,L|402:208,1,82.5,0|0,0:0|0:0,0:0:0:0:
349,213,82797,1,0,0:0:0:0:
251,169,83112,2,0,P|243:212|256:266,1,82.5,0|2,1:0|0:0,0:0:0:0:
266,301,83586,6,0,L|166:297,2,82.5,0|0|2,0:0|0:0|0:0,0:0:0:0:
310,330,84375,2,0,L|392:326,1,82.5,0|2,1:0|0:0,0:0:0:0:
492,365,85007,2,0,P|497:316|455:238,1,123.75,2|2,1:2|0:0,0:0:0:0:
414,237,85639,2,0,L|421:111,1,123.75,2|2,1:2|0:0,0:0:0:0:
441,64,86270,6,0,P|382:79|314:78,1,123.75,2|2,1:2|0:0,0:0:0:0:
265,72,86902,1,2,1:2:0:0:
157,65,87218,2,0,P|161:85|158:123,1,41.25,2|2,0:0|0:0,0:0:0:0:
141,155,87533,2,0,L|149:283,1,123.75,2|2,1:2|0:0,0:0:0:0:
156,331,88165,2,0,P|209:346|275:323,1,123.75,2|2,1:2|0:0,0:0:0:0:
316,293,88797,6,0,P|373:272|432:286,1,123.75,2|2,1:2|0:0,0:0:0:0:
480,310,89428,2,0,B|492:269|492:269|481:182,1,123.75,2|2,1:2|0:0,0:0:0:0:
466,136,90060,1,2,1:2:0:0:
342,33,90533,1,2,0:0:0:0:
342,33,90691,2,0,L|351:121,1,82.5,2|2,1:2|0:0,0:0:0:0:
364,221,91323,6,0,P|334:231|282:228,1,82.5,2|0,1:2|0:0,0:0:0:0:
193,170,91954,2,0,P|152:166|112:177,1,82.5,0|2,1:0|0:0,0:0:0:0:
55,268,92586,1,2,1:2:0:0:
162,270,92902,1,0,0:0:0:0:
113,177,93218,2,0,L|116:90,1,82.5,8|2,1:0|0:0,0:0:0:0:
198,25,93849,6,0,P|235:22|282:24,1,82.5,2|0,1:2|0:0,0:0:0:0:
314,125,94481,2,0,P|355:126|396:123,1,82.5,0|2,1:0|0:0,0:0:0:0:
502,108,95112,1,2,1:2:0:0:
503,215,95428,1,0,0:0:0:0:
398,219,95744,2,0,L|401:306,1,82.5,8|2,1:0|0:0,0:0:0:0:
488,363,96375,6,0,P|412:340|326:374,1,165,2|0,1:2|1:0,0:0:0:0:
244,307,97323,1,2,0:0:0:0:
145,348,97639,2,0,P|138:307|149:256,1,82.5,2|0,1:2|0:0,0:0:0:0:
191,170,98270,2,0,P|198:129|187:78,1,82.5,8|2,1:0|0:0,0:0:0:0:
115,10,98902,6,0,P|96:68|108:128,2,123.75,2|2|2,1:2|0:0|0:0,0:0:0:0:
191,89,100165,1,2,1:2:0:0:
191,89,100323,2,0,P|212:90|245:91,1,41.25,10|0,0:0|0:0,0:0:0:0:
286,92,100639,1,2,0:0:0:0:
286,92,100797,2,0,B|295:133|295:133|290:173,1,82.5,8|2,1:0|0:1,0:0:0:0:
217,259,101428,6,0,L|341:267,1,123.75,4|8,1:0|0:0,0:0:0:0:
394,275,102059,2,0,P|407:236|411:193,1,82.5,0|8,1:0|0:0,0:0:0:0:
409,87,102691,1,0,1:0:0:0:
501,142,103007,1,0,0:0:0:0:
411,194,103323,1,8,1:0:0:0:
319,139,103639,1,8,0:0:0:0:
256,225,103954,6,0,P|288:241|337:244,1,82.5,0|0,1:0|0:0,0:0:0:0:
319,139,104586,2,0,P|287:123|238:120,1,82.5,0|8,1:0|0:0,0:0:0:0:
187,127,105060,1,0,0:0:0:0:
187,127,105218,2,0,P|146:124|108:107,1,82.5,0|0,1:0|0:0,0:0:0:0:
173,21,105849,1,8,1:0:0:0:
279,21,106164,1,8,0:0:0:0:
365,84,106481,6,0,L|367:167,1,82.5,0|0,1:0|0:0,0:0:0:0:
371,220,106954,2,0,P|327:216|286:220,1,82.5,8|0,0:0|0:0,0:0:0:0:
236,230,107428,1,8,0:0:0:0:
135,267,107744,2,0,P|130:229|139:183,1,82.5,0|0,1:0|0:0,0:0:0:0:
158,80,108375,1,8,1:0:0:0:
58,119,108691,1,8,0:0:0:0:
138,186,109007,6,0,P|174:186|221:178,1,82.5,0|0,1:0|0:0,0:0:0:0:
270,162,109481,2,8,P|311:163|349:178,1,82.5,8|0,0:0|0:0,0:0:0:0:
389,213,109954,1,8,0:0:0:0:
469,284,110270,2,0,P|469:242|476:202,1,82.5,0|0,1:0|0:0,0:0:0:0:
484,148,110744,2,0,P|483:106|476:66,1,82.5,8|0,0:0|0:0,0:0:0:0:
465,13,111217,1,8,0:0:0:0:
374,70,111533,6,0,P|335:75|289:68,1,82.5,0|0,1:0|0:0,0:0:0:0:
186,54,112164,1,0,1:0:0:0:
219,155,112481,2,0,L|214:195,1,41.25,8|0,0:0|0:0,0:0:0:0:
219,249,112796,2,0,P|178:243|137:250,1,82.5,0|0,1:0|0:0,0:0:0:0:
30,257,113428,1,8,1:0:0:0:
72,158,113744,2,0,P|72:137|70:116,1,41.25,8|0,0:0|0:0,0:0:0:0:
61,63,114059,6,0,P|102:58|149:66,1,82.5,0|0,1:0|0:0,0:0:0:0:
247,88,114691,1,0,1:0:0:0:
179,171,115007,2,0,L|180:212,1,41.25,8|0,0:0|0:0,0:0:0:0:
202,261,115323,2,0,L|200:302,1,41.25,0|2,1:0|0:0,0:0:0:0:
281,373,115796,2,0,P|321:366|362:370,1,82.5,8|0,0:0|0:0,0:0:0:0:
416,375,116270,1,8,0:0:0:0:
395,270,116586,6,0,B|391:229|391:229|397:188,1,82.5,0|0,1:0|0:0,0:0:0:0:
433,86,117217,2,0,B|392:82|392:82|351:88,1,82.5,0|8,1:0|0:0,0:0:0:0:
267,157,117849,2,0,B|226:160|226:160|185:154,1,82.5,0|0,1:0|0:0,0:0:0:0:
85,114,118480,1,8,1:0:0:0:
169,47,118797,1,8,0:0:0:0:
185,154,119112,6,0,P|188:196|187:252,1,82.5,0|0,1:0|0:0,0:0:0:0:
183,289,119586,2,0,B|224:283|224:283|272:289,1,82.5,8|0,0:0|0:0,0:0:0:0:
317,299,120060,1,8,0:0:0:0:
422,319,120375,2,0,P|424:293|422:268,1,41.25,0|8,1:0|0:0,0:0:0:0:
403,227,120691,1,0,0:0:0:0:
403,227,120849,2,0,L|406:127,2,82.5,8|0|0,0:0|0:0|0:0,0:0:0:0:
423,277,121639,6,0,L|280:269,2,123.75,6|2|2,1:2|0:0|0:0,0:0:0:0:
431,170,122902,2,0,L|288:162,2,123.75,2|2|2,1:2|0:0|0:0,0:0:0:0:
439,63,124165,5,2,1:2:0:0:
439,63,124323,2,0,L|348:57,1,82.5,0|2,0:0|0:0,0:0:0:0:
305,76,124797,2,0,L|214:70,1,82.5,0|2,1:0|0:0,0:0:0:0:
115,61,125428,2,0,P|105:96|109:152,1,82.5,2|0,1:2|0:0,0:0:0:0:
102,249,126060,2,0,L|143:247,1,41.25,0|0,1:0|0:0,0:0:0:0:
195,258,126375,2,0,L|236:259,1,41.25,2|0,0:0|0:0,0:0:0:0:
289,266,126691,5,2,1:2:0:0:
243,172,127007,2,0,B|238:132|238:132|243:91,1,82.5,2|0,0:1|1:0,0:0:0:0:
354,91,127639,1,2,0:0:0:0:
354,91,127797,2,0,B|359:131|359:131|354:172,2,82.5,0|0|2,0:0|0:0|0:0,0:0:0:0:
370,39,128586,2,0,P|392:40|414:36,1,41.25,0|0,1:0|0:0,0:0:0:0:
463,49,128902,2,0,P|465:76|464:96,1,41.25,2|0,0:0|0:0,0:0:0:0:
459,143,129218,5,2,1:2:0:0:
354,173,129533,2,0,B|354:215|354:215|367:264,1,82.5,2|0,0:1|1:0,0:0:0:0:
396,356,130165,1,2,0:0:0:0:
396,356,130323,2,0,P|436:350|481:355,2,82.5,2|2|2,0:0|0:0|0:0,0:0:0:0:
344,370,131112,1,0,1:0:0:0:
199,298,131586,1,0,0:0:0:0:
199,298,131744,6,0,P|206:241|192:165,2,123.75,2|2|2,1:2|0:0|0:0,0:0:0:0:
193,351,132849,1,0,0:0:0:0:
193,351,133007,2,0,L|62:352,1,123.75,2|2,1:2|0:0,0:0:0:0:
15,354,133639,2,0,P|9:317|8:257,1,82.5,0|2,1:0|0:0,0:0:0:0:
47,172,134270,6,0,P|23:166|6:165,2,41.25,2|0|0,1:2|0:0|0:0,0:0:0:0:
91,202,134744,1,2,0:0:0:0:
91,202,134902,2,0,P|133:196|178:197,1,82.5,0|2,1:0|0:0,0:0:0:0:
266,248,135533,2,0,P|307:248|347:242,1,82.5,2|0,1:2|0:0,0:0:0:0:
454,225,136165,2,0,P|453:205|454:183,1,41.25,0|0,1:0|0:0,0:0:0:0:
468,131,136481,2,0,P|469:111|468:89,1,41.25,2|0,0:0|0:0,0:0:0:0:
457,36,136797,6,0,P|421:49|371:53,1,82.5,2|0,1:2|0:0,0:0:0:0:
272,29,137428,2,0,L|276:115,1,82.5,0|2,1:0|0:0,0:0:0:0:
300,159,137902,2,0,L|296:245,2,82.5,0|0|2,0:0|0:0|0:0,0:0:0:0:
276,112,138691,2,0,P|236:120|183:121,1,82.5,0|2,1:0|0:0,0:0:0:0:
109,55,139323,6,0,P|111:138|112:233,2,165,2|0|2,1:2|1:0|1:2,0:0:0:0:
308,133,141218,2,0,P|345:135|400:128,1,82.5,2|2,1:2|0:0,0:0:0:0:
494,103,141849,5,6,1:2:0:0:
256,192,142007,12,2,144376,0:0:0:0:
193,99,145639,6,0,L|198:199,1,82.5,2|0,0:0|0:0,0:0:0:0:
204,288,146270,1,0,0:0:0:0:
294,230,146586,1,2,0:0:0:0:
197,182,146902,6,0,P|158:194|104:192,1,82.5,2|0,0:0|0:0,0:0:0:0:
104,87,147533,2,0,P|143:75|197:77,1,82.5,0|2,0:0|0:0,0:0:0:0:
283,117,148165,1,2,0:0:0:0:
197,182,148481,1,0,0:0:0:0:
300,210,148797,2,0,P|346:188|373:150,1,82.5,0|2,0:0|0:0,0:0:0:0:
462,117,149428,6,0,L|460:205,2,82.5,2|0|0,0:0|0:0|0:0,0:0:0:0:
370,59,150376,1,2,0:0:0:0:
366,165,150691,1,2,0:0:0:0:
295,246,151007,1,0,0:0:0:0:
190,221,151323,2,0,L|143:201,1,41.25,2|2,0:0|0:0,0:0:0:0:
111,187,151639,1,2,0:0:0:0:
111,187,151797,1,2,0:0:0:0:
111,187,151954,6,0,P|70:180|31:148,1,82.5,8|8,0:0|0:0,0:0:0:0:
8,110,152428,1,0,0:0:0:0:
90,41,152744,2,0,L|90:-10,2,41.25,0|8|0,0:0|0:0|0:0,0:0:0:0:
109,90,153218,2,0,L|199:91,1,82.5,8|8,0:0|0:0,0:0:0:0:
229,52,153691,2,0,L|319:53,1,82.5,0|0,0:0|0:0,0:0:0:0:
365,56,154165,1,8,0:0:0:0:
465,94,154481,6,0,P|460:135|467:177,1,82.5,8|8,0:0|0:0,0:0:0:0:
484,225,154954,2,0,P|451:239|404:240,1,82.5,0|0,0:0|0:0,0:0:0:0:
352,228,155428,2,0,L|303:228,1,41.25,8|0,0:0|0:0,0:0:0:0:
256,230,155744,2,0,P|256:190|271:146,1,82.5,8|8,0:0|0:0,0:0:0:0:
288,99,156218,2,0,P|248:99|204:84,1,82.5,0|0,0:0|0:0,0:0:0:0:
159,68,156691,1,8,0:0:0:0:
58,29,157007,6,0,L|64:120,1,82.5,8|8,0:0|0:0,0:0:0:0:
101,149,157481,2,0,L|95:240,1,82.5
57,269,157954,2,0,L|60:323,1,41.25,8|0,0:0|0:0,0:0:0:0:
63,364,158270,2,0,P|102:356|151:361,1,82.5,8|8,0:0|0:0,0:0:0:0:
250,374,158902,2,0,P|244:318|256:240,1,123.75,8|0,0:0|0:0,0:0:0:0:
282,206,159533,6,0,L|276:147,2,41.25,8|0|8,0:0|0:0|0:0,0:0:0:0:
332,224,160007,1,0,0:0:0:0:
332,224,160165,2,0,B|400:245|393:203|465:232,1,123.75,8|0,0:0|0:0,0:0:0:0:
504,246,160797,1,0,0:0:0:0:
332,373,161428,2,0,L|250:374,1,82.5,8|8,0:0|0:0,0:0:0:0:
196,372,161902,1,2,0:0:0:0:
196,372,162060,6,0,P|210:318|196:235,1,123.75,4|8,1:0|0:0,0:0:0:0:
192,198,162691,2,0,P|152:193|108:198,1,82.5,0|8,1:0|0:0,0:0:0:0:
16,249,163323,1,0,1:0:0:0:
38,144,163639,1,0,0:0:0:0:
58,39,163954,2,0,L|106:42,1,41.25,8|0,1:0|0:0,0:0:0:0:
151,52,164270,1,8,0:0:0:0:
258,39,164586,6,0,P|255:79|238:117,1,82.5,0|0,1:0|0:0,0:0:0:0:
154,183,165218,2,0,P|156:223|173:261,1,82.5,0|8,1:0|0:0,0:0:0:0:
239,345,165849,2,0,P|277:337|326:342,1,82.5,0|0,1:0|0:0,0:0:0:0:
372,352,166323,1,8,0:0:0:0:
372,352,166481,1,8,1:0:0:0:
478,363,166796,1,8,0:0:0:0:
432,265,167112,6,0,L|434:178,1,82.5,0|0,1:0|0:0,0:0:0:0:
440,128,167586,2,0,P|399:121|359:123,1,82.5,8|0,0:0|0:0,0:0:0:0:
315,156,168060,2,0,L|266:157,1,41.25,8|0,0:0|0:0,0:0:0:0:
220,152,168375,2,0,P|215:190|224:236,1,82.5,0|0,1:0|0:0,0:0:0:0:
252,336,169007,1,8,1:0:0:0:
150,300,169323,1,8,0:0:0:0:
59,357,169639,6,0,P|44:318|43:277,1,82.5,0|0,1:0|0:0,0:0:0:0:
81,239,170112,2,8,P|80:198|65:160,1,82.5,8|0,0:0|0:0,0:0:0:0:
27,120,170586,1,8,0:0:0:0:
70,21,170902,2,0,L|111:21|153:21,1,82.5,0|0,1:0|0:0,0:0:0:0:
190,59,171376,2,0,L|231:59|273:59,1,82.5,8|0,0:0|0:0,0:0:0:0:
326,60,171849,1,8,0:0:0:0:
428,22,172165,6,0,P|435:62|426:107,1,82.5,0|0,1:0|0:0,0:0:0:0:
340,165,172796,1,0,1:0:0:0:
405,250,173112,2,0,L|449:248,1,41.25,8|0,0:0|0:0,0:0:0:0:
500,247,173428,2,0,L|497:329,1,82.5,0|0,1:0|0:0,0:0:0:0:
399,374,174060,1,8,1:0:0:0:
301,329,174376,2,0,L|299:275,1,41.25,8|0,0:0|0:0,0:0:0:0:
306,234,174691,6,0,L|224:238,1,82.5,0|0,1:0|0:0,0:0:0:0:
116,246,175323,1,0,1:0:0:0:
8,254,175639,2,0,L|6:201,1,41.25,8|0,0:0|0:0,0:0:0:0:
37,168,175954,2,0,L|39:115,1,41.25,0|2,1:0|0:0,0:0:0:0:
105,42,176428,2,0,P|144:46|191:42,1,82.5,8|0,0:0|0:0,0:0:0:0:
240,37,176902,1,8,0:0:0:0:
345,21,177217,6,0,B|342:66|342:66|347:113,1,82.5,0|0,1:0|0:0,0:0:0:0:
401,195,177849,2,0,B|407:236|407:236|403:287,1,82.5,0|8,1:0|0:0,0:0:0:0:
296,276,178481,2,0,B|290:235|290:235|293:194,1,82.5,0|0,1:0|0:0,0:0:0:0:
346,104,179112,1,8,1:0:0:0:
401,195,179428,1,8,0:0:0:0:
293,194,179744,6,0,P|249:194|207:188,1,82.5,0|0,1:0|0:0,0:0:0:0:
158,178,180217,1,8,0:0:0:0:
62,127,180533,1,0,0:0:0:0:
62,127,180691,2,0,P|50:161|56:215,1,82.5,8|0,0:0|1:0,0:0:0:0:
87,308,181323,1,0,0:0:0:0:
190,278,181639,2,0,B|229:278|229:278|243:283|243:283|289:283,1,82.5,8|2,1:0|0:1,0:0:0:0:
325,283,182112,1,2,0:3:0:0:
325,283,182270,6,0,L|323:157,1,123.75,4|8,1:0|0:0,0:0:0:0:
322,105,182902,2,0,P|359:97|409:106,1,82.5,0|8,1:0|0:0,0:0:0:0:
507,127,183533,1,0,1:0:0:0:
432,203,183849,2,0,L|432:244,1,41.25,0|8,0:0|0:0,0:0:0:0:
434,298,184165,1,8,1:0:0:0:
358,373,184481,1,8,0:0:0:0:
282,297,184796,6,0,P|241:299|203:316,1,82.5,0|0,1:0|0:0,0:0:0:0:
104,356,185428,2,0,P|101:335|101:307,1,41.25,0|0,1:0|0:0,0:0:0:0:
107,261,185744,1,8,0:0:0:0:
163,169,186060,2,0,P|122:166|84:149,1,82.5,0|0,1:0|0:0,0:0:0:0:
146,60,186691,1,8,1:0:0:0:
163,169,187006,1,8,0:0:0:0:
242,95,187323,6,0,P|283:91|324:95,1,82.5,0|0,1:0|0:0,0:0:0:0:
376,84,187796,2,0,P|372:125|376:166,1,82.5,8|0,0:0|0:0,0:0:0:0:
386,219,188270,1,8,0:0:0:0:
423,319,188586,2,0,P|385:324|339:315,1,82.5,0|0,1:0|0:0,0:0:0:0:
294,288,189060,2,0,P|253:280|212:285,1,82.5,8|0,0:0|0:0,0:0:0:0:
161,301,189533,1,8,0:0:0:0:
63,346,189849,6,0,P|54:312|61:261,1,82.5,0|0,1:0|0:0,0:0:0:0:
164,220,190481,2,0,P|170:261|161:301,1,82.5,0|8,1:0|0:0,0:0:0:0:
60,266,191112,2,0,P|54:225|63:185,1,82.5,0|0,1:0|0:0,0:0:0:0:
110,158,191586,2,0,P|115:117|106:77,1,82.5,8|0,0:0|0:0,0:0:0:0:
85,28,192059,1,8,0:0:0:0:
189,51,192375,6,0,P|229:56|270:51,1,82.5,0|0,1:0|0:0,0:0:0:0:
377,40,193006,1,0,1:0:0:0:
331,136,193323,2,0,L|334:178,1,41.25,8|0,0:0|0:0,0:0:0:0:
347,229,193638,2,0,P|306:223|265:230,1,82.5,0|0,1:0|0:0,0:0:0:0:
307,331,194270,1,8,1:0:0:0:
407,294,194586,2,0,L|459:299,1,41.25,8|0,0:0|0:0,0:0:0:0:
501,304,194902,6,0,P|506:263|501:222,1,82.5,0|0,1:0|0:0,0:0:0:0:
471,119,195533,1,0,1:0:0:0:
430,19,195849,2,0,L|388:22,1,41.25,8|0,0:0|0:0,0:0:0:0:
350,60,196165,2,0,L|308:56,1,41.25,0|2,1:0|0:0,0:0:0:0:
254,55,196481,1,0,0:0:0:0:
254,55,196639,2,0,P|263:92|250:146,1,82.5,8|0,0:0|0:0,0:0:0:0:
247,188,197112,1,8,0:0:0:0:
209,288,197428,6,0,B|250:292|250:292|291:286,1,82.5,0|0,1:0|0:0,0:0:0:0:
329,186,198059,2,0,B|288:182|288:182|247:188,1,82.5,0|8,1:0|0:0,0:0:0:0:
141,206,198691,2,0,L|146:155,1,41.25,0|0,1:0|0:0,0:0:0:0:
152,111,199007,1,0,0:0:0:0:
168,5,199322,1,8,1:0:0:0:
251,72,199639,1,8,0:0:0:0:
328,145,199954,6,0,P|331:187|330:243,1,82.5,0|0,1:0|0:0,0:0:0:0:
317,334,200586,2,0,P|275:336|234:336,1,82.5,0|8,1:0|0:0,0:0:0:0:
127,329,201218,2,0,P|126:303|126:286,1,41.25,0|8,1:0|0:0,0:0:0:0:
163,249,201533,2,0,P|164:223|164:206,1,41.25,0|8,0:0|0:0,0:0:0:0:
164,153,201849,1,8,1:0:0:0:
61,185,202165,1,8,0:0:0:0:
112,90,202481,6,0,P|149:74|199:78,1,82.5,6|2,1:2|0:0,0:0:0:0:
241,91,202954,2,0,P|281:92|319:76,1,82.5,2|2,0:0|0:0,0:0:0:0:
361,41,203428,2,0,L|406:44,1,41.25,2|2,0:0|0:0,0:0:0:0:
455,49,203744,2,0,B|446:82|446:82|450:131,1,82.5,10|2,0:1|1:2,0:0:0:0:
455,183,204218,1,2,0:0:0:0:
468,289,204533,1,2,0:0:0:0:
468,289,204691,2,0,P|448:283|420:283,1,41.25,2|2,0:0|0:0,0:0:0:0:
381,309,205007,6,0,L|288:307,1,82.5,0|2,1:0|0:0,0:0:0:0:
245,315,205481,2,0,P|241:271|248:224,1,82.5,2|2,0:0|0:0,0:0:0:0:
257,180,205954,1,2,0:0:0:0:
257,180,206112,1,2,0:0:0:0:
272,128,206270,2,0,L|184:131,1,82.5,10|2,0:1|0:0,0:0:0:0:
135,134,206744,1,2,0:0:0:0:
36,176,207060,1,2,0:0:0:0:
36,176,207218,1,2,0:0:0:0:
111,251,207533,6,0,L|109:297,1,41.25,4|2,1:2|0:0,0:0:0:0:
108,346,207849,1,2,0:0:0:0:
108,346,208007,2,0,B|141:339|141:339|206:348,1,82.5,2|0,0:0|0:0,0:0:0:0:
240,361,208481,2,0,L|294:361,1,41.25,0|0,0:0|3:0,0:0:0:0:
335,361,208797,1,10,0:1:0:0:
300,259,209112,1,2,1:2:0:0:
300,259,209270,2,0,L|305:162,1,82.5,2|2,0:0|0:0,0:0:0:0:
300,122,209744,2,0,P|323:121|343:123,1,41.25,2|2,0:0|0:0,0:0:0:0:
394,127,210060,5,2,1:2:0:0:
500,143,210376,1,2,0:0:0:0:
500,143,210533,2,0,B|488:182|488:182|491:233,1,82.5,2|2,1:2|0:0,0:0:0:0:
495,277,211007,1,2,3:2:0:0:
495,277,211165,1,2,0:0:0:0:
470,324,211323,2,0,B|428:313|431:335|373:320,1,82.5,10|2,0:1|0:0,0:0:0:0:
337,305,211797,2,0,B|294:293|297:315|255:304,1,82.5,2|2,0:0|0:0,0:0:0:0:
202,296,212270,1,2,0:0:0:0:
115,237,212586,6,0,P|98:296|118:359,2,123.75,2|2|2,0:0|0:0|0:0,0:0:0:0:
172,146,213849,2,0,L|39:154,2,123.75,2|2|2,0:0|0:0|0:0,0:0:0:0:
279,144,215112,6,0,P|262:85|279:26,2,123.75,2|2|2,0:0|0:0|0:0,0:0:0:0:
310,187,216218,1,2,0:0:0:0:
310,187,216376,2,0,L|308:247,1,41.25,2|2,0:0|0:0,0:0:0:0:
299,335,216849,2,0,P|362:349|428:334,1,123.75,2|2,0:0|0:0,0:0:0:0:
