osu file format v14

[General]
AudioFilename: ROL - Endless Line.mp3
AudioLeadIn: 0
PreviewTime: 40790
Countdown: 0
SampleSet: Soft
StackLeniency: 0.3
Mode: 0
LetterboxInBreaks: 0
WidescreenStoryboard: 1

[Editor]
Bookmarks: 10481,30691,45060,61007,81218,91323,101428,141849,162060,182270,202481,212586
DistanceSpacing: 1.1
BeatDivisor: 8
GridSize: 16
TimelineZoom: 2.799999

[Metadata]
Title:Endless Line
TitleUnicode:エンドレスライン
Artist:REOL
ArtistUnicode:REOL
Creator:DeRandom Otaku
Version:NiNo's Hyper
Source:
Tags:ギガ お菊 giga okiku akitoshi snownino_
BeatmapID:1501236
BeatmapSetID:706150

[Difficulty]
HPDrainRate:5
CircleSize:4
OverallDifficulty:7.6
ApproachRate:8.5
SliderMultiplier:3
SliderTickRate:1

[Events]
//Background and Video events
0,0,"BG.jpg",0,0
//Break Periods
2,144576,151279
//Storyboard Layer 0 (Background)
//Storyboard Layer 1 (Fail)
//Storyboard Layer 2 (Pass)
//Storyboard Layer 3 (Foreground)
//Storyboard Sound Samples

[TimingPoints]
376,631.578947368421,4,2,0,40,1,0
30691,-100,4,2,0,60,0,0
40797,-83.3333333333333,4,2,0,90,0,1
61007,-100,4,2,0,60,0,0
75218,-66.6666666666667,4,2,0,60,0,0
76165,-100,4,2,0,60,0,0
101428,-83.3333333333333,4,2,0,90,0,1
121639,-100,4,2,0,40,0,0
151954,-100,4,2,0,70,0,0
161428,-66.6666666666667,4,2,0,70,0,0
162060,-83.3333333333333,4,2,0,90,0,1
181639,-66.6666666666667,4,2,0,90,0,1
182270,-83.3333333333333,4,2,0,90,0,1
212586,-83.3333333333333,4,2,0,90,0,0

[Colours]
Combo1 : 15,177,255
Combo2 : 0,255,255
Combo3 : 255,128,255
Combo4 : 255,128,128

[HitObjects]
214,114,376,6,0,L|365:109,1,150,2|0,0:0|0:0,0:0:0:0:
190,25,849,2,0,P|151:45|132:150,1,150,2|0,0:0|0:0,0:0:0:0:
219,189,1323,2,0,L|213:106,1,75,2|0,0:0|0:0,0:0:0:0:
107,249,1639,6,0,B|158:250|158:250|196:274|196:274|277:276,1,150,2|0,0:0|0:0,0:0:0:0:
369,193,2112,2,0,L|217:189,1,150,2|0,0:0|0:0,0:0:0:0:
333,277,2586,2,0,L|407:278,1,75,2|0,0:0|0:0,0:0:0:0:
462,203,2902,6,0,P|436:167|456:57,1,150,2|0,0:0|0:0,0:0:0:0:
371,33,3376,2,0,B|211:49,1,150,2|0,0:0|0:0,0:0:0:0:
153,94,3849,5,0,0:0:0:0:
200,162,4007,1,0,0:0:0:0:
268,115,4165,1,0,0:0:0:0:
221,47,4323,1,0,0:0:0:0:
221,47,4639,2,0,L|66:39,1,150,2|0,0:0|0:0,0:0:0:0:
53,119,5112,2,0,L|127:122,1,75,2|0,0:0|0:0,0:0:0:0:
200,162,5428,6,0,P|124:175|88:248,1,150,2|0,0:0|0:0,0:0:0:0:
174,243,5902,2,0,P|223:302|304:296,1,150,2|0,0:0|0:0,0:0:0:0:
259,220,6376,2,0,L|266:137,1,75,2|0,0:0|0:0,0:0:0:0:
293,18,6691,6,0,B|301:65|301:65|341:106|341:106|349:154,1,150,2|0,0:0|0:0,0:0:0:0:
321,277,7165,2,0,B|312:229|312:229|272:188|272:188|264:140,1,150,2|0,0:0|0:0,0:0:0:0:
216,77,7639,2,0,P|183:94|140:101,1,75,2|0,0:0|0:0,0:0:0:0:
67,75,7954,6,0,P|106:110|106:206,1,150,2|0,0:0|0:0,0:0:0:0:
67,275,8428,2,0,P|103:324|206:330,1,150,2|0,0:0|0:0,0:0:0:0:
260,299,8902,5,2,0:0:0:0:
223,224,9060,1,2,0:0:0:0:
296,186,9218,1,2,0:0:0:0:
259,111,9376,2,0,L|256:22,1,75,2|0,0:0|0:0,0:0:0:0:
338,28,9691,1,2,0:0:0:0:
338,28,9849,5,8,0:0:0:0:
468,329,10481,6,0,P|434:363|318:361,1,150,2|0,1:2|0:0,0:0:0:0:
257,345,10954,1,2,0:0:0:0:
257,345,11112,2,0,L|264:185,1,150,0|2,1:0|0:0,0:0:0:0:
262,29,11744,6,0,P|209:52|177:49,1,75,2|0,1:2|0:0,0:0:0:0:
135,111,12060,2,0,P|82:88|50:91,1,75,0|2,0:0|0:0,0:0:0:0:
28,161,12375,1,0,1:0:0:0:
28,161,12533,2,0,L|31:244,1,75,0|2,0:0|0:0,0:0:0:0:
35,318,12849,1,0,0:0:0:0:
35,318,13007,6,0,P|69:356|171:348,1,150,2|0,1:2|0:0,0:0:0:0:
210,287,13481,1,2,0:0:0:0:
210,287,13639,2,0,L|299:272,1,75,0|0,1:0|0:0,0:0:0:0:
333,208,13954,2,0,L|244:193,1,75,2|2,0:0|0:0,0:0:0:0:
216,124,14270,6,0,L|305:109,1,75,2|2,1:2|0:0,0:0:0:0:
334,41,14586,2,0,L|391:110,1,75,0|2,0:0|0:0,0:0:0:0:
464,101,14902,2,0,L|432:185,1,75,0|0,1:0|0:0,0:0:0:0:
477,243,15218,2,0,L|388:257,1,75,2|0,0:0|0:0,0:0:0:0:
349,318,15533,6,0,P|299:282|203:283,1,150,2|0,1:2|0:0,0:0:0:0:
139,318,16007,1,2,0:0:0:0:
139,318,16165,2,0,P|131:276|142:229,1,75,0|0,1:0|0:0,0:0:0:0:
204,198,16481,1,2,0:0:0:0:
213,279,16639,1,0,0:0:0:0:
282,233,16797,5,2,1:2:0:0:
282,233,16954,2,0,L|366:224,1,75,0|0,0:0|0:0,0:0:0:0:
391,149,17270,2,0,L|307:140,1,75,2|0,0:0|1:0,0:0:0:0:
263,77,17586,2,0,P|223:115|122:117,1,150,0|0,0:0|0:0,0:0:0:0:
62,79,18060,6,0,P|52:132|59:163,1,75,2|0,1:2|0:0,0:0:0:0:
6,218,18376,2,0,P|46:253|77:262,1,75,0|2,0:0|0:0,0:0:0:0:
103,333,18691,2,0,P|153:315|177:293,1,75,0|0,1:0|0:0,0:0:0:0:
252,299,19007,2,0,P|262:246|255:214,1,75,2|2,0:0|0:0,0:0:0:0:
186,184,19323,6,0,P|175:237|182:268,1,75,2|2,1:2|0:0,0:0:0:0:
257,142,19639,2,0,P|216:106|185:97,1,75,0|2,0:0|0:0,0:0:0:0:
258,226,19954,2,0,P|308:208|332:186,1,75,0|0,1:0|0:0,0:0:0:0:
264,69,20270,2,0,P|253:122|260:153,1,75,2|0,0:0|0:0,0:0:0:0:
405,174,20586,6,0,P|409:115|325:132,1,150,2|0,1:2|0:0,0:0:0:0:
324,195,21060,1,2,0:0:0:0:
324,195,21218,2,0,L|328:284,1,75,0|0,1:0|0:0,0:0:0:0:
278,336,21533,1,2,0:0:0:0:
212,285,21691,6,0,L|125:278,1,75,0|2,0:0|1:2,0:0:0:0:
107,201,22007,2,0,L|32:207,1,75,0|0,0:0|0:0,0:0:0:0:
32,207,22323,1,2,0:0:0:0:
151,130,22481,2,0,L|225:136,1,75,0|0,1:0|0:0,0:0:0:0:
120,52,22797,2,0,L|45:58,1,75,2|0,0:0|0:0,0:0:0:0:
198,21,23112,6,0,L|362:34,1,150,2|0,1:2|0:0,0:0:0:0:
394,101,23586,1,2,0:0:0:0:
394,101,23744,2,0,P|367:140|363:178,1,75,0|0,1:0|0:0,0:0:0:0:
445,166,24060,1,2,0:0:0:0:
404,238,24218,6,0,P|368:248|331:243,1,75,2|2,0:0|1:2,0:0:0:0:
281,178,24533,2,0,P|245:167|208:172,1,75,2|0,0:0|0:0,0:0:0:0:
239,249,24849,1,2,0:0:0:0:
281,178,25007,2,0,L|279:95,1,75,0|0,1:0|0:0,0:0:0:0:
280,19,25323,2,0,L|197:21,1,75,2|0,0:0|0:0,0:0:0:0:
122,33,25639,6,0,B|106:90|106:90|115:117|115:117|99:187,1,150,2|0,1:2|0:0,0:0:0:0:
178,205,26112,1,2,0:0:0:0:
178,205,26270,2,0,L|190:142,2,50,0|0|0,1:0|0:0|0:0,0:0:0:0:
153,287,26586,2,0,P|185:308|241:313,1,75,2|0,0:0|0:0,0:0:0:0:
275,252,26902,6,0,P|277:213|253:162,1,75,2|0,1:2|0:0,0:0:0:0:
187,155,27218,1,0,0:0:0:0:
187,155,27376,2,0,L|104:161,1,75,2|0,0:0|1:0,0:0:0:0:
246,99,27691,1,0,0:0:0:0:
246,99,27849,2,0,L|329:105,1,75,2|0,0:0|0:0,0:0:0:0:
457,115,28165,6,0,P|417:118|385:221,1,150,10|0,1:2|0:0,0:0:0:0:
427,275,28639,1,2,0:0:0:0:
368,333,28797,2,0,L|281:340,1,75,0|0,1:0|0:0,0:0:0:0:
236,279,29112,2,0,L|149:272,1,75,2|2,0:0|0:0,0:0:0:0:
78,266,29428,6,0,P|64:216|72:176,1,75,2|2,1:2|0:0,0:0:0:0:
123,133,29744,2,0,P|137:83|129:43,1,75,0|2,0:0|0:0,0:0:0:0:
43,114,30060,1,0,1:0:0:0:
66,193,30218,2,0,P|102:230|214:224,1,150,2|0,0:0|0:0,0:0:0:0:
222,156,30691,6,0,L|218:71,1,75,2|0,1:2|0:0,0:0:0:0:
305,152,31007,2,0,L|362:89,1,75,0|2,0:0|0:0,0:0:0:0:
366,207,31323,2,0,L|451:203,1,75,0|0,1:0|0:0,0:0:0:0:
370,289,31639,2,0,L|432:346,1,75,2|0,0:0|0:0,0:0:0:0:
291,239,31954,5,2,1:2:0:0:
291,239,32112,1,0,0:0:0:0:
212,284,32270,2,0,L|130:292,1,75,0|2,0:0|0:0,0:0:0:0:
62,327,32586,2,0,B|32:260|89:254|54:169,1,150,8|2,1:0|0:0,0:0:0:0:
17,109,33060,1,0,0:0:0:0:
87,65,33218,6,0,P|132:76|159:109,1,75,2|0,1:2|0:0,0:0:0:0:
222,53,33533,2,0,P|234:97|219:137,1,75,0|2,0:0|0:0,0:0:0:0:
299,163,33849,2,0,P|266:196|224:203,1,75,0|0,1:0|0:0,0:0:0:0:
242,284,34165,2,0,P|197:273|169:239,1,75,2|2,0:0|0:0,0:0:0:0:
164,171,34481,6,0,L|77:165,1,75,2|2,1:2|0:0,0:0:0:0:
102,248,34797,2,0,L|176:253,1,75,0|2,0:0|0:0,0:0:0:0:
226,318,35112,2,0,B|288:311|288:311|314:288|314:288|384:280,1,150,8|2,1:0|0:0,0:0:0:0:
381,279,35507,1,0,0:0:0:0:
393,270,35586,1,0,0:0:0:0:
401,257,35665,1,0,0:0:0:0:
402,242,35744,6,0,P|404:201|376:152,1,75,2|0,1:2|0:0,0:0:0:0:
453,115,36060,2,0,P|418:92|362:92,1,75,0|2,0:0|0:0,0:0:0:0:
368,8,36376,2,0,P|331:26|303:75,1,75,0|0,1:0|0:0,0:0:0:0:
232,28,36691,2,0,P|230:69|258:118,1,75,2|0,0:0|0:0,0:0:0:0:
262,180,37007,6,0,L|178:186,1,75,2|0,1:2|0:0,0:0:0:0:
140,116,37323,2,0,L|56:110,1,75,0|2,0:0|0:0,0:0:0:0:
11,174,37639,2,0,P|61:194|74:307,1,150,8|2,1:0|0:0,0:0:0:0:
46,352,38112,1,0,0:0:0:0:
127,367,38270,5,2,1:1:0:0:
127,367,38428,2,0,L|208:355,1,75,0|0,0:0|0:0,0:0:0:0:
256,293,38744,2,0,P|220:274|177:276,1,75,2|0,0:0|1:0,0:0:0:0:
284,373,39060,2,0,P|318:351|338:313,1,75,0|2,0:0|0:0,0:0:0:0:
319,241,39376,1,2,0:0:0:0:
256,293,39533,6,0,L|167:287,1,75,8|8,1:3|0:3,0:0:0:0:
319,241,39849,1,2,0:0:0:0:
335,322,40007,1,8,0:3:0:0:
398,270,40165,2,0,P|403:222|332:155,1,150,10|0,0:3|0:0,0:0:0:0:
335,155,40797,6,0,B|270:145|270:145|243:109|243:109|155:96,1,179.999994506836,4|0,1:0|0:0,0:0:0:0:
86,80,41270,1,8,0:0:0:0:
106,171,41428,2,0,L|209:186,1,89.9999972534181,0|0,1:0|0:0,0:0:0:0:
126,262,41744,2,0,L|36:274,1,89.9999972534181,8|0,0:0|0:0,0:0:0:0:
146,353,42060,6,0,B|240:374|240:374|344:344,1,179.999994506836,0|0,1:0|0:0,0:0:0:0:
376,280,42533,1,8,0:0:0:0:
376,280,42691,2,0,L|368:178,1,89.9999972534181,8|0,1:0|0:0,0:0:0:0:
447,144,43007,2,0,L|455:42,1,89.9999972534181,8|0,0:0|0:0,0:0:0:0:
370,19,43323,6,0,P|332:44|268:50,1,89.9999972534181,0|0,1:0|0:0,0:0:0:0:
227,119,43639,2,0,P|189:94|125:88,1,89.9999972534181,0|8,0:0|0:0,0:0:0:0:
55,92,43954,1,0,1:0:0:0:
52,182,44112,1,0,0:0:0:0:
52,182,44270,2,0,L|48:278,1,89.9999972534181,8|0,0:0|0:0,0:0:0:0:
101,345,44586,6,0,B|194:300|204:387|297:331,1,179.999994506836,0|0,1:0|0:0,0:0:0:0:
358,376,45060,1,8,0:0:0:0:
347,287,45218,2,0,P|334:228|348:182,1,89.9999972534181,8|0,1:0|0:0,0:0:0:0:
365,162,45454,1,0,0:0:0:0:
365,162,45533,2,0,P|378:103|364:57,1,89.9999972534181,8|0,0:0|0:0,0:0:0:0:
292,31,45849,6,0,B|224:38|224:38|203:62|203:62|109:73,1,179.999994506836,0|0,1:0|0:0,0:0:0:0:
33,58,46323,2,0,P|85:63|98:176,1,179.999994506836,8|0,0:0|0:0,0:0:0:0:
39,235,46797,2,0,P|18:281|20:323,1,89.9999972534181,8|0,0:0|0:0,0:0:0:0:
100,359,47112,6,0,L|219:345,1,89.9999972534181,0|0,1:0|0:0,0:0:0:0:
328,299,47428,2,0,B|262:292|262:292|227:262|227:262|144:252,1,179.999994506836,0|8,0:0|1:0,0:0:0:0:
89,196,47902,1,0,0:0:0:0:
172,163,48060,2,0,L|289:177,1,89.9999972534181,8|0,0:0|0:0,0:0:0:0:
417,199,48376,6,0,P|349:203|334:308,1,179.999994506836,0|0,1:0|0:0,0:0:0:0:
264,362,48849,2,8,L|153:353,1,89.9999972534181,8|0,0:0|1:0,0:0:0:0:
83,358,49165,2,0,B|112:250|112:250|80:175,1,179.999994506836,0|0,0:0|0:0,0:0:0:0:
32,113,49639,6,0,P|45:57|87:27,1,89.9999972534181,0|8,1:0|0:0,0:0:0:0:
156,51,49954,1,0,0:0:0:0:
156,51,50112,2,0,P|206:71|252:66,1,89.9999972534181,8|8,0:0|1:0,0:0:0:0:
278,151,50428,2,0,P|289:71|386:60,1,179.999994506836,0|0,0:0|0:0,0:0:0:0:
350,199,50902,6,0,P|314:231|256:233,1,89.9999972534181,0|0,1:0|0:0,0:0:0:0:
199,107,51218,2,0,P|256:69|255:162,1,179.999994506836,0|0,0:0|1:0,0:0:0:0:
119,268,51849,5,8,0:0:0:0:
119,268,52007,1,0,0:0:0:0:
36,232,52165,2,0,P|70:191|112:179,1,89.9999972534181,0|0,1:0|0:0,0:0:0:0:
189,332,52481,2,0,P|123:353|149:260,1,179.999994506836,0|8,0:0|1:0,0:0:0:0:
335,141,53112,5,8,0:0:0:0:
335,141,53270,1,0,0:0:0:0:
256,184,53428,2,0,P|244:140|258:89,1,89.9999972534181,0|0,1:0|0:0,0:0:0:0:
426,77,53744,2,0,P|405:162|328:125,1,179.999994506836,0|0,0:0|1:0,0:0:0:0:
188,45,54376,6,0,L|65:34,1,89.9999972534181,8|0,0:0|0:0,0:0:0:0:
8,30,54691,1,0,1:0:0:0:
48,110,54849,2,0,L|171:121,1,89.9999972534181,2|0,0:0|0:0,0:0:0:0:
239,142,55165,2,0,P|179:136|116:234,1,179.999994506836,8|0,0:0|0:0,0:0:0:0:
206,309,55639,2,0,L|201:199,1,89.9999972534181,8|0,0:0|0:0,0:0:0:0:
290,91,55954,6,0,B|282:161|282:161|303:196|303:196|293:286,1,179.999994506836,0|0,1:0|0:0,0:0:0:0:
300,354,56428,1,8,0:0:0:0:
373,301,56586,2,0,P|331:269|283:266,1,89.9999972534181,0|0,1:0|0:0,0:0:0:0:
222,317,56902,2,0,P|264:349|312:352,1,89.9999972534181,8|0,0:0|0:0,0:0:0:0:
212,227,57218,6,0,P|162:251|151:370,1,179.999994506836,0|0,1:0|0:0,0:0:0:0:
295,264,57691,1,8,0:0:0:0:
285,174,57849,2,0,P|247:143|201:139,1,89.9999972534181,8|0,1:0|0:0,0:0:0:0:
212,227,58165,1,8,0:0:0:0:
212,227,58323,1,0,0:0:0:0:
285,174,58481,6,0,L|280:67,1,89.9999972534181,0|0,1:0|0:0,0:0:0:0:
213,23,58797,1,0,0:0:0:0:
147,84,58954,2,0,L|142:173,1,89.9999972534181,8|0,0:0|1:0,0:0:0:0:
52,179,59270,2,0,L|60:367,1,179.999994506836,0|0,0:0|0:0,0:0:0:0:
148,378,59744,6,0,P|195:351|240:357,1,89.9999972534181,0|8,1:0|0:0,0:0:0:0:
289,285,60060,2,0,P|336:312|381:306,1,89.9999972534181,0|8,0:0|0:0,0:0:0:0:
449,265,60376,1,8,1:0:0:0:
449,265,60533,2,0,L|444:75,1,179.999994506836,0|0,0:0|0:0,0:0:0:0:
369,49,61007,6,0,L|263:56,1,75,2|0,1:2|0:0,0:0:0:0:
264,131,61323,2,0,L|370:138,1,75,0|2,0:0|0:0,0:0:0:0:
214,65,61639,2,0,L|108:72,2,75,0|0|2,1:0|0:0|0:0,0:0:0:0:
294,53,62112,1,0,0:0:0:0:
264,131,62270,6,0,L|256:223,1,75,2|0,1:2|0:0,0:0:0:0:
180,234,62586,2,0,L|172:141,1,75,0|2,0:0|0:0,0:0:0:0:
258,205,62902,1,0,1:0:0:0:
247,286,63060,1,0,0:0:0:0:
324,256,63218,2,0,L|422:248,1,75,2|0,0:0|0:0,0:0:0:0:
480,236,63533,6,0,P|459:191|462:137,1,75,2|0,1:2|0:0,0:0:0:0:
386,122,63849,2,0,P|407:77|404:23,1,75,0|2,0:0|0:0,0:0:0:0:
326,63,64165,2,0,L|245:59,2,75,0|0|2,1:0|0:0|0:0,0:0:0:0:
409,52,64639,1,2,0:0:0:0:
469,108,64797,6,0,L|474:202,1,75,2|2,1:2|0:0,0:0:0:0:
395,211,65112,2,0,L|390:305,1,75,2|2,0:0|0:0,0:0:0:0:
383,368,65428,1,8,1:0:0:0:
315,319,65586,2,0,L|266:312,4,37.5,0|0|2|0|0,0:0|0:0|0:0|0:0|0:0,0:0:0:0:
250,233,66060,6,0,P|215:253|195:286,1,75,2|0,1:2|0:0,0:0:0:0:
120,312,66375,2,0,P|120:271|101:237,1,75,0|2,0:0|0:0,0:0:0:0:
116,159,66691,2,0,P|150:179|189:180,2,75,0|0|2,1:0|0:0|0:0,0:0:0:0:
94,78,67165,1,0,0:0:0:0:
173,99,67323,6,0,L|256:97,1,75,2|0,1:2|0:0,0:0:0:0:
305,37,67639,2,0,L|388:39,1,75,0|2,0:0|0:0,0:0:0:0:
461,46,67954,1,0,1:0:0:0:
453,128,68112,1,0,0:0:0:0:
372,121,68270,2,0,L|297:119,1,75,2|0,0:0|0:0,0:0:0:0:
214,123,68586,6,0,P|194:167|194:205,1,75,2|0,1:2|0:0,0:0:0:0:
217,226,68823,1,0,0:0:0:0:
217,226,68902,2,0,P|237:270|237:308,1,75,0|2,0:0|0:0,0:0:0:0:
237,379,69218,2,0,L|147:370,1,75,0|0,1:0|0:0,0:0:0:0:
310,339,69533,2,0,L|400:330,1,75,2|2,0:0|0:0,0:0:0:0:
467,331,69849,5,2,1:2:0:0:
468,312,69927,1,0,0:0:0:0:
469,293,70006,1,2,0:0:0:0:
470,274,70085,1,0,0:0:0:0:
471,256,70165,2,0,L|475:178,1,75,0|2,0:0|0:0,0:0:0:0:
481,90,70481,1,8,1:0:0:0:
482,72,70560,1,0,0:0:0:0:
483,53,70639,1,0,0:0:0:0:
484,34,70718,1,0,0:0:0:0:
485,15,70796,1,2,0:1:0:0:
402,22,70954,1,2,0:1:0:0:
402,22,71112,6,0,B|334:58|334:-4|237:30,1,150,8|0,0:0|0:0,0:0:0:0:
178,53,71586,2,0,P|223:55|257:145,1,150,8|0,0:0|0:0,0:0:0:0:
193,194,72060,2,0,P|180:230|185:272,1,75,8|0,0:0|0:0,0:0:0:0:
236,329,72375,6,0,B|285:310|285:310|327:318|327:318|399:295,1,150,8|0,0:0|0:0,0:0:0:0:
416,227,72849,1,8,0:0:0:0:
341,192,73007,1,8,0:1:0:0:
341,192,73639,5,8,0:0:0:0:
283,132,73797,2,0,L|275:39,1,75,2|0,0:0|0:0,0:0:0:0:
204,17,74112,2,0,P|136:9|70:77,1,150,8|0,0:0|0:0,0:0:0:0:
64,140,74586,1,8,0:0:0:0:
64,140,74744,1,0,0:0:0:0:
116,203,74902,6,0,L|217:211,1,75,8|2,0:0|0:0,0:0:0:0:
287,108,75218,6,0,B|271:168|271:168|283:208|283:208|265:283,1,168.750006437302,0|0,0:0|0:0,0:0:0:0:
171,372,75533,2,0,B|187:312|187:312|175:272|175:272|193:197,1,168.750006437302,2|0,0:1|0:0,0:0:0:0:
194,122,75849,1,2,0:1:0:0:
194,122,76007,1,2,0:3:0:0:
287,108,76165,6,0,L|372:106,1,75,8|0,0:0|0:0,0:0:0:0:
444,95,76481,2,0,P|399:125|392:192,1,112.5,0|0,0:0|0:0,0:0:0:0:
410,214,76797,2,0,P|430:263|430:300,1,75,0|0,0:0|0:0,0:0:0:0:
373,343,77112,2,0,L|248:329,1,112.5,8|0,0:0|0:0,0:0:0:0:
228,304,77428,6,0,L|128:315,1,75,8|0,0:0|0:0,0:0:0:0:
70,309,77744,1,0,0:0:0:0:
70,309,77902,1,8,0:0:0:0:
116,238,78060,2,0,P|144:184|128:95,1,150,0|8,0:0|0:0,0:0:0:0:
93,24,78533,1,0,0:0:0:0:
93,24,78691,6,0,L|180:18,1,75,8|2,0:0|0:0,0:0:0:0:
212,88,79007,2,0,L|299:94,1,75,0|8,0:0|0:0,0:0:0:0:
369,103,79323,1,0,0:0:0:0:
320,169,79481,2,0,L|233:175,1,75,0|8,0:0|0:0,0:0:0:0:
162,179,79797,1,2,0:0:0:0:
169,260,79954,5,8,0:0:0:0:
169,260,80112,2,0,L|174:334,1,75,2|2,0:0|0:0,0:0:0:0:
250,367,80428,1,2,0:0:0:0:
301,302,80586,2,0,B|340:266|340:266|448:292,1,150,8|0,0:1|0:0,0:0:0:0:
454,88,81218,5,2,1:2:0:0:
400,25,81375,2,0,L|312:31,1,75,0|0,0:0|0:0,0:0:0:0:
287,104,81691,2,0,L|199:98,1,75,2|0,0:0|1:0,0:0:0:0:
129,100,82007,2,0,P|149:137|143:192,1,75,0|2,0:0|0:0,0:0:0:0:
109,241,82323,6,0,P|169:201|260:223,1,150,0|0,0:0|0:0,0:0:0:0:
305,265,82797,2,0,P|271:290|232:292,1,75,0|2,0:0|0:0,0:0:0:0:
320,185,83112,2,0,P|358:201|379:234,1,75,0|0,1:0|0:0,0:0:0:0:
242,211,83428,1,2,0:0:0:0:
257,131,83586,6,0,P|292:104|328:103,1,75,0|2,0:0|1:2,0:0:0:0:
385,156,83902,2,0,P|350:183|314:184,1,75,0|0,0:0|0:0,0:0:0:0:
401,74,84218,1,2,0:0:0:0:
465,129,84375,2,0,L|471:216,1,75,0|0,1:0|0:0,0:0:0:0:
404,254,84691,2,0,L|398:341,1,75,2|2,0:0|0:0,0:0:0:0:
320,357,85007,6,0,L|242:348,1,75,2|0,1:2|0:0,0:0:0:0:
215,318,85244,2,0,L|137:327,1,75,2|0,0:0|0:0,0:0:0:0:
99,332,85481,1,2,0:0:0:0:
47,267,85639,2,0,P|64:226|61:184,1,75,2|0,1:2|0:0,0:0:0:0:
31,170,85875,2,0,P|14:129|20:91,1,75,2|0,0:0|0:0,0:0:0:0:
43,67,86112,1,2,0:0:0:0:
121,40,86270,6,0,L|264:47,2,112.5,2|2|2,1:2|0:0|0:0,0:0:0:0:
221,139,86902,2,0,L|364:132,2,112.5,2|0|2,1:2|0:0|0:0,0:0:0:0:
114,162,87533,2,0,P|95:200|94:251,1,75,2|0,1:2|0:0,0:0:0:0:
99,272,87770,2,0,P|141:269|186:244,1,75,2|0,0:0|0:0,0:0:0:0:
196,223,88007,1,2,0:0:0:0:
278,217,88165,2,0,L|270:309,1,75,2|0,1:2|0:0,0:0:0:0:
268,333,88402,2,0,P|299:351|349:351,1,75,2|0,0:0|0:0,0:0:0:0:
374,334,88639,1,2,0:0:0:0:
437,222,88797,6,0,L|426:102,2,112.5,2|2|2,1:2|0:0|0:0,0:0:0:0:
338,146,89428,2,0,L|349:26,2,112.5,2|2|2,1:2|0:0|0:0,0:0:0:0:
264,212,90060,2,0,P|223:233|178:227,1,75,2|0,1:2|0:0,0:0:0:0:
173,196,90297,2,0,P|132:175|87:181,1,75,2|0,0:2|0:0,0:0:0:0:
74,204,90533,1,2,0:0:0:0:
65,92,90691,2,0,B|141:59|146:132|232:82,1,150,2|2,1:2|0:0,0:0:0:0:
458,46,91323,6,0,L|451:142,1,75,2|0,1:2|0:0,0:0:0:0:
444,203,91639,1,0,0:0:0:0:
444,203,91797,1,2,0:0:0:0:
382,80,91954,2,0,L|375:176,1,75,0|0,1:0|0:0,0:0:0:0:
368,237,92270,1,2,0:0:0:0:
368,237,92428,1,0,0:0:0:0:
305,113,92586,2,0,L|298:209,1,75,2|0,1:2|0:0,0:0:0:0:
223,221,92902,2,0,L|230:317,1,75,0|2,0:0|0:0,0:0:0:0:
173,358,93218,2,0,P|120:370|47:292,1,150,8|2,1:0|0:0,0:0:0:0:
54,230,93691,1,0,0:0:0:0:
54,230,93849,6,0,L|59:155,1,75,2|0,1:2|0:0,0:0:0:0:
66,72,94165,1,0,0:0:0:0:
66,72,94323,1,2,0:0:0:0:
130,195,94481,2,0,L|135:120,1,75,0|0,1:0|0:0,0:0:0:0:
142,37,94797,1,2,0:0:0:0:
142,37,94955,1,2,0:0:0:0:
205,159,95112,2,0,L|210:84,1,75,2|2,1:2|0:0,0:0:0:0:
286,49,95428,2,0,L|291:123,1,75,0|2,0:0|0:0,0:0:0:0:
354,177,95744,2,0,L|348:251,1,75,8|0,1:0|0:0,0:0:0:0:
334,264,95981,1,0,0:0:0:0:
320,277,96060,2,0,L|325:351,1,75,2|0,0:0|0:0,0:0:0:0:
242,352,96375,6,0,L|136:344,1,75,2|0,1:2|0:0,0:0:0:0:
84,341,96691,1,0,0:0:0:0:
84,341,96849,1,2,0:0:0:0:
204,277,97007,2,0,L|98:269,1,75,0|0,1:0|0:0,0:0:0:0:
46,266,97323,1,2,0:0:0:0:
46,266,97481,1,0,0:0:0:0:
166,202,97639,2,0,L|60:194,1,75,2|0,1:2|0:0,0:0:0:0:
211,131,97954,2,0,L|317:123,1,75,0|2,0:0|0:0,0:0:0:0:
324,51,98270,2,0,B|383:57|383:57|408:81|408:81|477:86,1,150,8|2,1:0|0:0,0:0:0:0:
499,160,98744,1,0,0:0:0:0:
499,160,98902,6,0,L|491:325,1,150,2|0,1:2|0:0,0:0:0:0:
415,340,99375,2,0,L|411:265,1,75,2|0,0:0|1:0,0:0:0:0:
402,182,99691,2,0,P|373:237|276:241,1,150,0|2,0:0|0:0,0:0:0:0:
226,198,100165,6,0,L|231:110,1,75,2|10,1:2|0:0,0:0:0:0:
176,266,100481,1,0,0:0:0:0:
111,215,100639,2,0,L|116:127,1,75,2|8,0:0|1:0,0:0:0:0:
117,121,100875,1,0,0:0:0:0:
119,102,100954,1,0,0:0:0:0:
121,83,101033,1,0,0:0:0:0:
123,64,101112,1,2,0:1:0:0:
204,16,101270,1,2,0:1:0:0:
234,100,101428,6,0,B|303:112|303:112|328:148|328:148|401:161,1,179.999994506836,4|0,1:0|0:0,0:0:0:0:
420,246,101902,1,8,0:0:0:0:
341,289,102060,2,0,L|243:293,1,89.9999972534181,0|0,1:0|0:0,0:0:0:0:
200,367,102375,2,0,L|102:363,1,89.9999972534181,8|0,0:0|0:0,0:0:0:0:
19,367,102691,6,0,P|74:347|72:227,1,179.999994506836,0|0,1:0|0:0,0:0:0:0:
17,176,103165,1,8,0:0:0:0:
81,112,103323,2,0,L|260:109,1,179.999994506836,8|8,1:0|0:0,0:0:0:0:
351,109,103797,1,0,0:0:0:0:
351,109,103954,6,0,L|363:217,1,89.9999972534181,0|0,1:0|0:0,0:0:0:0:
438,245,104270,2,0,L|460:46,1,179.999994506836,0|0,0:0|1:0,0:0:0:0:
377,24,104744,1,0,0:0:0:0:
377,24,104902,2,0,L|278:36,1,89.9999972534181,8|0,0:0|0:0,0:0:0:0:
256,119,105218,6,0,P|256:71|145:57,1,179.999994506836,0|0,1:0|0:0,0:0:0:0:
119,138,105691,1,8,0:0:0:0:
193,188,105849,2,0,P|235:211|288:207,1,89.9999972534181,8|0,1:0|0:0,0:0:0:0:
293,195,106086,1,0,0:0:0:0:
293,195,106165,2,0,P|335:172|388:176,1,89.9999972534181,8|0,0:0|0:0,0:0:0:0:
439,237,106481,6,0,P|401:194|458:104,1,179.999994506836,0|0,1:0|0:0,0:0:0:0:
401,34,106954,2,0,L|303:38,1,89.9999972534181,8|0,0:0|1:0,0:0:0:0:
258,111,107270,2,0,B|198:101|198:101|169:63|169:63|86:52,1,179.999994506836,0|0,0:0|0:0,0:0:0:0:
27,110,107744,5,0,1:0:0:0:
27,110,107902,1,0,0:0:0:0:
70,188,108060,2,0,P|93:233|223:229,1,179.999994506836,0|8,0:0|1:0,0:0:0:0:
265,170,108533,1,0,0:0:0:0:
265,170,108691,2,0,P|315:158|359:164,1,89.9999972534181,8|0,0:0|0:0,0:0:0:0:
210,241,109007,6,0,P|177:198|236:79,1,179.999994506836,0|0,1:0|0:0,0:0:0:0:
300,61,109481,2,8,L|421:77,1,89.9999972534181,8|0,0:0|1:0,0:0:0:0:
443,146,109797,2,0,L|227:174,1,179.999994506836,0|0,0:0|0:0,0:0:0:0:
305,249,110270,2,0,L|426:265,1,89.9999972534181,0|8,1:0|0:0,0:0:0:0:
264,168,110586,1,0,0:0:0:0:
215,245,110744,2,0,L|223:351,1,89.9999972534181,8|8,0:0|1:0,0:0:0:0:
174,164,111060,2,0,P|188:115|315:90,1,179.999994506836,0|0,0:0|0:0,0:0:0:0:
215,245,111533,6,0,P|163:255|120:237,1,89.9999972534181,0|0,1:0|0:0,0:0:0:0:
125,80,111849,2,0,P|189:76|151:165,1,179.999994506836,0|0,0:0|1:0,0:0:0:0:
339,257,112481,5,8,0:0:0:0:
339,257,112639,1,0,0:0:0:0:
413,206,112797,2,0,P|370:171|317:166,1,89.9999972534181,0|0,1:0|0:0,0:0:0:0:
254,277,113112,2,0,P|332:317|321:241,1,179.999994506836,0|8,0:0|1:0,0:0:0:0:
150,115,113744,5,8,0:0:0:0:
150,115,113902,1,0,0:0:0:0:
60,122,114060,2,0,P|66:76|100:40,1,89.9999972534181,0|0,1:0|0:0,0:0:0:0:
234,91,114375,2,0,P|227:154|154:99,1,179.999994506836,0|0,0:0|1:0,0:0:0:0:
374,94,115007,5,8,0:0:0:0:
374,94,115165,1,0,0:0:0:0:
450,141,115323,1,0,1:0:0:0:
407,220,115481,2,0,L|306:210,1,89.9999972534181,2|0,0:0|0:0,0:0:0:0:
229,190,115797,2,0,P|275:192|279:320,1,179.999994506836,8|0,0:0|0:0,0:0:0:0:
154,244,116270,2,0,P|137:194|152:145,1,89.9999972534181,8|0,0:0|0:0,0:0:0:0:
182,76,116586,6,0,B|263:36|272:125|361:73,1,179.999994506836,0|0,1:0|0:0,0:0:0:0:
441,54,117060,1,8,0:0:0:0:
490,129,117218,2,0,P|446:149|422:191,1,89.9999972534181,0|0,1:0|0:0,0:0:0:0:
359,245,117533,2,0,P|403:265|427:307,1,89.9999972534181,8|0,0:0|0:0,0:0:0:0:
339,330,117849,6,0,P|295:304|311:170,1,179.999994506836,0|0,1:0|0:0,0:0:0:0:
345,113,118323,1,8,0:0:0:0:
270,62,118481,2,0,L|169:71,1,89.9999972534181,8|0,1:0|0:0,0:0:0:0:
149,155,118797,2,0,L|48:146,1,89.9999972534181,8|0,0:0|0:0,0:0:0:0:
136,262,119112,6,0,B|195:255|195:255|234:217|234:217|312:211,1,179.999994506836,0|0,1:0|0:0,0:0:0:0:
369,309,119586,2,0,L|268:300,1,89.9999972534181,8|0,0:0|1:0,0:0:0:0:
388,202,119902,2,0,L|489:193,1,89.9999972534181,0|8,0:0|0:0,0:0:0:0:
464,104,120218,1,0,0:0:0:0:
331,132,120375,2,0,P|304:167|299:211,1,89.9999972534181,0|8,1:0|0:0,0:0:0:0:
388,202,120691,1,0,0:0:0:0:
214,224,120849,2,0,P|231:264|267:291,1,89.9999972534181,8|8,0:0|1:0,0:0:0:0:
245,143,121165,2,0,P|191:141|131:247,1,179.999994506836,0|0,0:0|0:0,0:0:0:0:
145,318,121639,6,0,B|203:311|203:311|232:330|232:330|298:324,1,150,6|0,1:2|0:0,0:0:0:0:
366,353,122112,2,0,P|335:320|373:222,1,150,2|0,0:0|0:0,0:0:0:0:
443,214,122586,2,0,P|462:182|462:136,1,75,2|0,0:0|0:0,0:0:0:0:
437,66,122902,6,0,B|380:59|380:59|349:78|349:78|273:67,1,150,2|0,1:2|0:0,0:0:0:0:
216,39,123375,2,0,P|268:67|255:154,1,150,2|0,0:0|0:0,0:0:0:0:
189,190,123849,2,0,P|170:230|178:268,1,75,2|0,0:0|0:0,0:0:0:0:
219,329,124165,5,2,1:2:0:0:
286,281,124323,2,0,L|377:277,1,75,0|0,0:0|0:0,0:0:0:0:
425,330,124639,2,0,P|392:294|430:206,1,150,2|0,0:0|0:0,0:0:0:0:
503,186,125112,2,0,P|516:144|511:108,1,75,2|2,0:0|0:0,0:0:0:0:
498,31,125428,2,0,L|329:18,1,150,2|0,1:2|0:0,0:0:0:0:
348,19,126060,5,0,1:0:0:0:
281,67,126218,1,0,0:0:0:0:
334,129,126375,1,2,0:0:0:0:
267,177,126533,1,0,0:0:0:0:
320,239,126691,2,0,L|482:231,1,150,2|2,1:2|0:1,0:0:0:0:
499,309,127165,1,2,0:0:0:0:
499,309,127323,2,0,L|349:316,1,150,0|2,1:0|0:0,0:0:0:0:
278,359,127797,1,0,0:0:0:0:
278,359,127954,6,0,L|169:353,1,75,2|0,1:2|0:0,0:0:0:0:
155,287,128270,2,0,L|46:292,1,75,0|2,0:0|0:0,0:0:0:0:
13,241,128586,1,0,1:0:0:0:
62,174,128744,1,0,0:0:0:0:
129,223,128902,1,2,0:0:0:0:
80,290,129060,1,0,0:0:0:0:
13,241,129218,6,0,L|17:153,1,75,2|0,1:2|0:0,0:0:0:0:
16,83,129533,2,0,B|92:57|103:118|184:80,1,150,2|0,0:1|1:0,0:0:0:0:
327,69,130165,1,2,0:0:0:0:
274,132,130323,2,0,P|251:101|248:53,1,75,2|2,0:0|1:2,0:0:0:0:
355,146,130639,2,0,P|339:181|299:208,1,75,2|0,0:0|0:0,0:0:0:0:
229,204,130954,2,0,P|288:221|279:378,1,225,2|2,0:0|0:0,0:0:0:0:
216,369,131586,1,0,0:0:0:0:
216,369,131744,6,0,L|58:360,1,150,2|0,1:2|0:0,0:0:0:0:
31,285,132218,2,0,L|180:276,1,150,2|0,0:0|0:0,0:0:0:0:
209,199,132691,2,0,L|129:194,1,75,2|0,0:0|0:0,0:0:0:0:
229,111,133007,6,0,P|264:127|285:244,1,150,2|0,1:2|0:0,0:0:0:0:
141,312,133481,2,0,P|137:273|228:197,1,150,2|0,0:0|0:0,0:0:0:0:
293,226,133954,2,0,L|290:305,1,75,2|0,0:0|0:0,0:0:0:0:
218,343,134270,5,2,1:2:0:0:
141,312,134428,1,0,0:0:0:0:
69,355,134586,1,0,0:0:0:0:
12,295,134744,2,0,L|30:123,1,150,2|0,0:0|0:0,0:0:0:0:
41,63,135218,2,0,P|80:48|133:52,1,75,2|2,0:0|0:0,0:0:0:0:
139,125,135533,2,0,B|214:108|214:108|277:143|277:143|362:123,1,225,2|2,1:2|0:0,0:0:0:0:
431,104,136165,5,0,1:0:0:0:
410,184,136323,1,0,0:0:0:0:
469,243,136481,1,2,0:0:0:0:
448,323,136639,1,0,0:0:0:0:
367,341,136797,6,0,L|200:330,1,150,2|0,1:2|0:0,0:0:0:0:
134,325,137270,1,2,0:0:0:0:
134,325,137428,2,0,L|145:239,2,75,0|0|2,1:0|0:0|0:0,0:0:0:0:
57,292,137902,2,0,L|46:206,1,75,0|2,0:0|1:2,0:0:0:0:
116,171,138218,2,0,L|127:85,1,75,0|0,0:0|0:0,0:0:0:0:
133,14,138533,2,0,P|165:63|272:72,1,150,2|0,0:0|0:0,0:0:0:0:
325,45,139007,1,2,0:0:0:0:
387,197,139323,6,0,B|325:164|300:222|234:178,1,150,2|0,1:2|0:0,0:0:0:0:
170,139,139797,1,2,0:0:0:0:
170,139,139954,2,0,L|159:296,1,150,0|2,1:0|0:0,0:0:0:0:
178,369,140428,1,2,0:0:0:0:
178,369,140586,2,0,P|195:314|302:320,1,150,2|0,1:2|0:0,0:0:0:0:
348,343,141060,1,2,0:0:0:0:
348,343,141218,2,0,P|361:301|351:261,1,75,2|0,1:2|0:0,0:0:0:0:
285,227,141533,2,0,P|272:269|282:309,1,75,2|0,0:0|0:0,0:0:0:0:
359,189,141849,5,6,1:2:0:0:
256,192,141928,12,2,144376,0:0:0:0:
71,94,151954,6,0,L|149:88,1,75,8|0,0:0|0:0,0:0:0:0:
181,163,152270,2,0,L|106:168,1,75,8|0,0:0|0:0,0:0:0:0:
228,95,152586,2,0,L|306:89,1,75,8|0,0:0|0:0,0:0:0:0:
338,164,152902,2,0,L|263:169,1,75,8|0,0:0|0:0,0:0:0:0:
385,96,153218,6,0,P|415:131|419:172,1,75,8|0,0:0|0:0,0:0:0:0:
373,226,153533,2,0,P|343:191|339:150,1,75,8|0,0:0|0:0,0:0:0:0:
456,233,153849,2,0,P|440:276|407:300,1,75,8|0,0:0|0:0,0:0:0:0:
337,288,154165,2,8,P|352:244|385:220,1,75,8|0,0:0|0:0,0:0:0:0:
372,363,154481,6,0,P|326:371|289:354,1,75,8|0,0:0|0:0,0:0:0:0:
266,289,154797,2,0,P|302:279|338:289,1,75,8|0,0:0|0:0,0:0:0:0:
300,362,155112,2,0,P|254:370|217:353,1,75,8|0,0:0|0:0,0:0:0:0:
195,289,155428,2,0,P|231:279|267:289,1,75,8|0,0:0|0:0,0:0:0:0:
146,355,155744,6,0,P|118:322|110:286,1,75,8|0,0:0|0:0,0:0:0:0:
159,225,156060,2,0,P|184:252|194:288,1,75,8|0,0:0|0:0,0:0:0:0:
75,218,156376,2,0,P|86:182|111:155,1,75,8|0,0:0|0:0,0:0:0:0:
197,162,156691,2,0,P|185:197|160:224,1,75,8|0,0:0|0:0,0:0:0:0:
159,88,157007,6,0,P|195:79|231:88,1,75,8|0,0:0|0:0,0:0:0:0:
269,162,157323,2,0,P|233:171|197:162,1,75,8|0,0:0|0:0,0:0:0:0:
231,88,157639,2,0,P|267:79|303:88,1,75,8|0,0:0|0:0,0:0:0:0:
341,162,157955,2,0,P|305:171|269:162,1,75,8|0,0:0|0:0,0:0:0:0:
387,91,158270,6,0,P|413:119|423:155,1,75,8|0,0:0|0:0,0:0:0:0:
377,225,158586,2,0,P|351:197|341:162,1,75,8|0,0:0|0:0,0:0:0:0:
456,249,158902,2,0,P|436:284|406:304,1,75,8|0,0:0|0:0,0:0:0:0:
328,279,159218,2,0,P|348:244|378:224,1,75,8|0,0:0|0:0,0:0:0:0:
346,360,159533,6,0,L|265:356,1,75,8|0,0:0|0:0,0:0:0:0:
328,279,159849,2,0,L|402:282,1,75,8|0,0:0|0:0,0:0:0:0:
247,272,160165,2,0,L|166:268,1,75,8|0,0:0|0:0,0:0:0:0:
211,194,160481,2,0,L|285:197,1,75,8|0,0:0|0:0,0:0:0:0:
376,199,160797,5,0,0:0:0:0:
376,199,161428,6,0,P|382:140|339:199,1,168.750006437302,8|2,0:0|0:0,0:0:0:0:
325,265,161744,1,8,0:0:0:0:
325,265,161902,1,2,0:0:0:0:
228,176,162060,6,0,B|167:170|167:170|126:193|126:193|44:183,1,179.999994506836,4|0,1:0|0:0,0:0:0:0:
5,109,162533,1,8,0:0:0:0:
80,59,162691,2,0,L|189:50,1,89.9999972534181,0|0,1:0|0:0,0:0:0:0:
252,15,163007,2,0,L|361:24,1,89.9999972534181,8|0,0:0|0:0,0:0:0:0:
428,47,163323,6,0,P|366:59|350:174,1,179.999994506836,0|0,1:0|0:0,0:0:0:0:
379,243,163797,1,8,0:0:0:0:
297,279,163954,2,0,P|250:295|198:288,1,89.9999972534181,8|0,1:0|0:0,0:0:0:0:
168,211,164270,2,0,P|121:195|69:202,1,89.9999972534181,8|0,0:0|0:0,0:0:0:0:
58,352,164586,6,0,P|95:319|115:270,1,89.9999972534181,0|0,1:0|0:0,0:0:0:0:
167,211,164902,2,0,B|244:271|165:314|238:374,1,179.999994506836,0|0,0:0|1:0,0:0:0:0:
322,355,165376,1,0,0:0:0:0:
322,355,165533,2,0,L|328:258,1,89.9999972534181,8|0,0:0|0:0,0:0:0:0:
363,182,165849,6,0,B|325:139|325:139|260:131|260:131|208:166,1,179.999994506836,0|0,1:0|0:0,0:0:0:0:
164,239,166323,1,8,0:0:0:0:
124,158,166481,2,0,L|135:51,1,89.9999972534181,8|0,1:0|0:0,0:0:0:0:
76,235,166797,2,0,L|87:342,1,89.9999972534181,8|0,0:0|0:0,0:0:0:0:
36,154,167112,6,0,P|102:148|161:259,1,179.999994506836,0|0,1:0|0:0,0:0:0:0:
180,321,167586,2,0,L|276:315,1,89.9999972534181,8|0,0:0|1:0,0:0:0:0:
360,310,167902,1,0,0:0:0:0:
220,238,168060,2,0,L|316:232,1,89.9999972534181,8|0,0:0|0:0,0:0:0:0:
401,227,168376,1,0,1:0:0:0:
360,310,168533,1,0,0:0:0:0:
309,232,168691,2,0,P|321:181|455:154,1,179.999994506836,0|8,0:0|1:0,0:0:0:0:
401,227,169165,1,0,0:0:0:0:
401,227,169323,2,0,L|406:325,1,89.9999972534181,8|0,0:0|0:0,0:0:0:0:
321,349,169639,6,0,B|243:301|217:386|133:325,1,179.999994506836,0|0,1:0|0:0,0:0:0:0:
176,183,170112,2,8,P|199:237|185:283,1,89.9999972534181,8|0,0:0|1:0,0:0:0:0:
106,242,170428,2,0,P|85:189|157:92,1,179.999994506836,0|0,0:0|0:0,0:0:0:0:
236,116,170902,6,0,L|336:116,1,89.9999972534181,0|8,1:0|0:0,0:0:0:0:
176,183,171218,1,0,0:0:0:0:
148,94,171376,2,0,P|174:47|222:27,1,89.9999972534181,8|8,0:0|1:0,0:0:0:0:
326,116,171691,2,0,P|274:178|240:107,1,179.999994506836
375,45,172165,6,0,P|406:81|409:137,1,89.9999972534181,0|0,1:0|0:0,0:0:0:0:
264,210,172481,2,0,P|239:147|338:127,1,179.999994506836,0|0,0:0|1:0,0:0:0:0:
150,259,173112,5,8,0:0:0:0:
150,259,173270,1,0,0:0:0:0:
76,206,173428,2,0,P|116:172|165:170,1,89.9999972534181,0|0,1:0|0:0,0:0:0:0:
229,313,173744,2,0,P|164:342|172:248,1,179.999994506836,0|8,0:0|1:0,0:0:0:0:
397,179,174376,5,8,0:0:0:0:
397,179,174533,1,0,0:0:0:0:
449,105,174691,2,0,P|480:141|485:195,1,89.9999972534181,0|0,1:0|0:0,0:0:0:0:
349,261,175007,2,0,P|316:195|411:210,1,179.999994506836,0|0,0:0|1:0,0:0:0:0:
249,352,175639,5,8,0:0:0:0:
249,352,175797,1,0,0:0:0:0:
278,267,175954,1,0,1:0:0:0:
194,232,176112,2,0,L|103:239,1,89.9999972534181,2|0,0:0|0:0,0:0:0:0:
38,301,176428,2,0,P|96:258|80:149,1,179.999994506836,8|0,0:0|0:0,0:0:0:0:
31,88,176902,2,0,P|14:41|23:-8,1,89.9999972534181,8|0,0:0|0:0,0:0:0:0:
103,34,177218,6,0,B|174:39|174:39|203:69|203:69|288:76,1,179.999994506836,0|0,1:0|0:0,0:0:0:0:
353,107,177691,1,8,0:0:0:0:
279,159,177849,2,0,P|261:113|278:61,1,89.9999972534181,0|0,1:0|0:0,0:0:0:0:
362,198,178165,2,0,P|331:236|277:247,1,89.9999972534181,8|0,0:0|0:0,0:0:0:0:
146,186,178481,6,0,B|170:124|170:124|294:164,1,179.999994506836,0|0,1:0|0:0,0:0:0:0:
293,247,178954,1,8,0:0:0:0:
207,275,179112,2,0,L|103:267,1,89.9999972534181,8|0,1:0|0:0,0:0:0:0:
222,364,179428,2,0,L|326:356,1,89.9999972534181,8|0,0:0|0:0,0:0:0:0:
454,357,179744,6,0,P|406:331|452:225,1,179.999994506836,0|0,1:0|0:0,0:0:0:0:
487,154,180218,2,0,P|447:139|390:151,1,89.9999972534181,8|0,0:0|1:0,0:0:0:0:
324,192,180533,1,0,0:0:0:0:
270,264,180691,2,0,P|230:279|173:267,1,89.9999972534181,8|0,0:0|0:0,0:0:0:0:
103,231,181007,5,0,1:0:0:0:
144,150,181165,1,8,0:0:0:0:
225,191,181323,1,0,0:0:0:0:
266,110,181481,1,8,0:0:0:0:
347,151,181639,6,0,B|360:214|360:214|338:257|338:257|349:337,1,168.750006437302,8|0,1:0|0:0,0:0:0:0:
384,352,181954,1,2,0:1:0:0:
384,352,182112,1,2,0:3:0:0:
266,347,182270,6,0,B|144:342|144:342|97:283,1,179.999994506836,4|0,1:0|0:0,0:0:0:0:
73,212,182744,1,8,0:0:0:0:
152,168,182902,2,0,B|194:186|194:186|253:185,1,89.9999972534181,0|0,1:0|0:0,0:0:0:0:
285,107,183218,2,0,B|327:89|327:89|386:90,1,89.9999972534181,8|0,0:0|0:0,0:0:0:0:
406,248,183533,6,0,B|366:293|366:293|340:160,1,179.999994506836,0|0,1:0|0:0,0:0:0:0:
371,89,184007,1,8,0:0:0:0:
451,129,184165,2,0,B|478:172|478:172|480:230,1,89.9999972534181,8|0,1:0|0:0,0:0:0:0:
371,89,184481,2,0,B|394:44|394:44|443:13,1,89.9999972534181,8|0,0:0|0:0,0:0:0:0:
343,175,184797,6,0,B|226:167|226:167|177:100,1,179.999994506836,0|0,1:0|0:0,0:0:0:0:
148,35,185270,1,8,0:0:0:0:
101,112,185428,2,0,B|83:156|83:156|89:202,1,89.9999972534181,0|0,1:0|0:0,0:0:0:0:
188,116,185744,2,0,B|235:109|235:109|271:81,1,89.9999972534181,8|0,0:0|0:0,0:0:0:0:
176,206,186060,6,0,B|263:198|263:198|353:125,1,179.999994506836,0|0,1:0|0:0,0:0:0:0:
352,51,186533,1,8,0:0:0:0:
268,83,186691,2,0,L|170:76,1,89.9999972534181,8|0,1:0|0:0,0:0:0:0:
110,16,187007,2,0,L|12:23,1,89.9999972534181,8|0,0:0|0:0,0:0:0:0:
11,112,187323,6,0,B|63:146|63:146|36:275,1,179.999994506836,0|0,1:0|0:0,0:0:0:0:
16,349,187797,1,8,0:0:0:0:
103,329,187954,2,0,B|149:316|149:316|200:330,1,89.9999972534181,0|0,1:0|0:0,0:0:0:0:
183,236,188270,2,0,B|229:249|229:249|280:235,1,89.9999972534181,8|0,0:0|0:0,0:0:0:0:
340,181,188586,6,0,B|281:216|281:216|272:337,1,179.999994506836,0|0,1:0|0:0,0:0:0:0:
362,317,189060,1,8,0:0:0:0:
410,240,189218,2,0,B|428:195|428:195|422:141,1,89.9999972534181,8|0,1:0|0:0,0:0:0:0:
353,95,189533,2,0,B|335:140|335:140|341:194,1,89.9999972534181,8|0,0:0|0:0,0:0:0:0:
293,259,189849,6,0,B|249:218|249:218|118:245,1,179.999994506836,0|0,1:0|0:0,0:0:0:0:
58,295,190323,1,8,0:0:0:0:
18,214,190481,2,0,B|5:170|5:170|15:124,1,89.9999972534181,0|0,1:0|0:0,0:0:0:0:
100,100,190797,2,0,B|113:56|113:56|103:10,1,89.9999972534181,8|0,0:0|0:0,0:0:0:0:
191,30,191112,6,0,B|262:42|262:42|283:72|283:72|375:84,1,179.999994506836,0|0,1:0|0:0,0:0:0:0:
444,81,191586,2,0,B|430:128|430:128|443:177,1,89.9999972534181,8|8,0:0|1:0,0:0:0:0:
372,227,191902,2,0,B|295:269|295:269|198:244,1,179.999994506836,0|0,0:0|0:0,0:0:0:0:
160,167,192376,6,0,B|204:157|204:157|259:172,1,89.9999972534181,0|0,1:0|0:0,0:0:0:0:
261,304,192691,2,0,B|234:360|234:360|203:234,1,179.999994506836,0|0,0:0|1:0,0:0:0:0:
329,135,193323,5,8,0:0:0:0:
333,140,193481,1,0,0:0:0:0:
247,168,193639,2,0,B|240:124|240:124|262:71,1,89.9999972534181,0|0,1:0|0:0,0:0:0:0:
406,97,193954,2,0,B|453:133|453:133|307:141,1,179.999994506836,0|8,0:0|1:0,0:0:0:0:
131,100,194586,5,8,0:0:0:0:
131,100,194744,1,0,0:0:0:0:
192,34,194902,2,0,B|215:78|215:78|213:131,1,89.9999972534181,0|0,1:0|0:0,0:0:0:0:
82,154,195218,2,0,B|21:132|21:132|142:97,1,179.999994506836,0|0,0:0|1:0,0:0:0:0:
266,238,195849,5,8,0:0:0:0:
266,238,196007,1,0,0:0:0:0:
256,148,196165,1,0,1:0:0:0:
338,112,196323,2,0,B|386:120|386:120|428:156,1,89.9999972534181,2|0,0:0|0:0,0:0:0:0:
382,286,196639,2,0,B|337:317|337:317|351:191,1,179.999994506836,8|0,0:0|0:0,0:0:0:0:
434,225,197112,2,0,B|460:261|460:261|458:316,1,89.9999972534181,8|0,0:0|0:0,0:0:0:0:
385,361,197428,6,0,B|334:335|334:335|267:336|267:336|215:301,1,179.999994506836,0|0,1:0|0:0,0:0:0:0:
150,248,197902,1,8,0:0:0:0:
230,207,198060,2,0,B|276:198|276:198|321:213,1,89.9999972534181,0|0,1:0|0:0,0:0:0:0:
307,300,198376,2,0,B|266:313|266:313|220:304,1,89.9999972534181,8|0,0:0|0:0,0:0:0:0:
150,248,198691,6,0,B|143:187|143:187|170:141|170:141|162:52,1,179.999994506836,0|0,1:0|0:0,0:0:0:0:
251,50,199165,2,0,B|298:53|298:53|340:80,1,89.9999972534181,8|8,0:0|1:0,0:0:0:0:
334,166,199481,1,0,0:0:0:0:
414,33,199639,2,0,B|423:79|423:79|408:126,1,89.9999972534181,8|0,0:0|0:0,0:0:0:0:
334,166,199954,6,0,B|393:134|393:134|380:254,1,179.999994506836,0|0,1:0|0:0,0:0:0:0:
300,292,200428,1,8,0:0:0:0:
254,212,200586,2,0,B|241:167|241:167|254:106,1,89.9999972534181,0|0,1:0|0:0,0:0:0:0:
330,78,200902,2,0,B|343:123|343:123|330:184,1,89.9999972534181,8|0,0:0|0:0,0:0:0:0:
168,133,201218,6,0,B|200:49|200:49|258:137,1,179.999994506836,0|0,1:0|0:0,0:0:0:0:
221,209,201691,1,8,0:0:0:0:
131,215,201849,2,0,B|94:184|94:184|73:124,1,89.9999972534181,8|0,1:0|0:0,0:0:0:0:
117,62,202165,2,0,B|154:93|154:93|175:153,1,89.9999972534181,8|0,0:0|0:0,0:0:0:0:
28,71,202481,6,0,B|70:24|70:24|202:15,1,179.999994506836,6|2,1:2|0:0,0:0:0:0:
269,52,202954,1,2,0:0:0:0:
241,137,203112,2,0,B|222:180|222:180|231:230,1,89.9999972534181,0|2,0:0|0:0,0:0:0:0:
302,275,203428,2,0,B|321:232|321:232|312:182,1,89.9999972534181,2|2,0:0|0:0,0:0:0:0:
219,311,203744,6,0,B|245:348|245:348|302:373,1,89.9999972534181,10|0,0:1|0:0,0:0:0:0:
464,292,204060,2,0,B|412:250|412:250|293:276,1,179.999994506836,2|0,1:2|0:0,0:0:0:0:
219,311,204533,1,2,0:0:0:0:
188,226,204691,2,0,B|175:183|175:183|191:135,1,89.9999972534181,2|2,0:0|0:0,0:0:0:0:
273,107,205007,6,0,B|188:140|188:140|89:78,1,179.999994506836,0|2,1:0|0:0,0:0:0:0:
46,31,205481,1,2,0:0:0:0:
23,118,205639,2,0,B|9:167|9:167|23:216,1,89.9999972534181,0|2,0:0|0:0,0:0:0:0:
105,231,205954,2,0,B|119:280|119:280|105:329,1,89.9999972534181,2|2,0:0|0:0,0:0:0:0:
29,363,206270,6,0,B|66:321|66:321|228:347,1,179.999994506836,10|2,0:1|0:0,0:0:0:0:
273,371,206744,1,2,0:0:0:0:
188,340,206902,2,0,B|175:289|175:289|182:240,1,89.9999972534181,0|2,0:0|0:0,0:0:0:0:
270,264,207218,2,0,B|283:213|283:213|276:164,1,89.9999972534181,2|0,0:0|0:0,0:0:0:0:
266,91,207533,6,0,B|308:92|308:92|351:121,1,89.9999972534181,4|2,1:2|0:0,0:0:0:0:
277,176,207849,2,0,B|235:175|235:175|192:146,1,89.9999972534181,2|2,0:0|0:0,0:0:0:0:
115,104,208165,2,0,B|167:140|167:140|149:260,1,179.999994506836,0|0,1:0|0:0,0:0:0:0:
135,344,208639,1,0,3:0:0:0:
69,279,208797,6,0,B|108:251|108:251|176:258,1,89.9999972534181,10|0,0:1|0:0,0:0:0:0:
216,315,209112,2,0,B|171:280|171:280|189:140,1,179.999994506836,2|0,1:2|0:0,0:0:0:0:
200,68,209586,1,2,0:0:0:0:
200,68,209744,2,0,B|244:92|244:92|274:139,1,89.9999972534181,2|2,0:0|0:0,0:0:0:0:
186,158,210060,6,0,B|115:116|115:116|107:-7,1,179.999994506836,2|2,1:2|0:0,0:0:0:0:
27,57,210533,1,2,1:2:0:0:
27,57,210691,2,0,B|10:101|10:101|19:149,1,89.9999972534181,0|2,1:0|0:0,0:0:0:0:
76,212,211007,2,0,B|93:256|93:256|84:304,1,89.9999972534181,2|2,3:2|0:0,0:0:0:0:
18,359,211323,6,0,B|70:320|70:320|208:345,1,179.999994506836,10|2,0:1|0:0,0:0:0:0:
272,355,211797,1,2,0:0:0:0:
240,271,211954,1,0,0:0:0:0:
297,202,212112,1,2,0:0:0:0:
386,217,212270,1,2,0:0:0:0:
418,301,212428,1,0,0:0:0:0:
361,370,212586,5,2,0:0:0:0:
