osu file format v14

[General]
AudioFilename: ROL - Endless Line.mp3
AudioLeadIn: 0
PreviewTime: 40790
Countdown: 0
SampleSet: Soft
StackLeniency: 0.3
Mode: 0
LetterboxInBreaks: 0
WidescreenStoryboard: 0

[Editor]
DistanceSpacing: 1.2
BeatDivisor: 8
GridSize: 4
TimelineZoom: 4.099998

[Metadata]
Title:Endless Line
TitleUnicode:エンドレスライン
Artist:REOL
ArtistUnicode:REOL
Creator:DeRandom Otaku
Version:Infinite
Source:
Tags:ギガ お菊 giga okiku akitoshi snownino_
BeatmapID:1493345
BeatmapSetID:706150

[Difficulty]
HPDrainRate:6
CircleSize:4
OverallDifficulty:9
ApproachRate:9.3
SliderMultiplier:2.2
SliderTickRate:1

[Events]
//Background and Video events
0,0,"BG.jpg",0,0
//Break Periods
//Storyboard Layer 0 (Background)
//Storyboard Layer 1 (Fail)
//Storyboard Layer 2 (Pass)
//Storyboard Layer 3 (Foreground)
//Storyboard Sound Samples

[TimingPoints]
376,631.578947368421,4,2,0,40,1,0
9849,-133.333333333333,4,2,0,40,0,0
10481,-90.9090909090909,4,2,0,60,0,0
15454,-90.9090909090909,4,2,0,5,0,0
15533,-90.9090909090909,4,2,0,60,0,0
30691,-83.3333333333333,4,2,0,65,0,0
39218,-76.9230769230769,4,2,0,65,0,0
40165,-59.1715976331361,4,2,0,65,0,0
40797,-62.5,4,2,0,98,0,1
45533,-86.9565217391304,4,2,0,98,0,1
45849,-62.5,4,2,0,98,0,1
61007,-83.3333333333333,4,2,0,60,0,0
71112,-100,4,2,0,55,0,0
75770,-100,4,2,0,5,0,0
75849,-100,4,2,0,55,0,0
76007,-83.3333333333333,4,2,0,55,0,0
76086,-83.3333333333333,4,2,0,5,0,0
76165,-100,4,2,0,55,0,0
81218,-86.9565217391304,4,2,0,60,0,0
91323,-80,4,2,0,65,0,0
101112,-71.4285714285714,4,2,0,65,0,0
101428,-59.1715976331361,4,2,0,98,0,1
106165,-86.9565217391304,4,2,0,98,0,1
106481,-59.1715976331361,4,2,0,98,0,1
121639,-90.9090909090909,4,2,0,55,0,0
127007,-60.6060606060606,4,2,0,55,0,0
127323,-90.9090909090909,4,2,0,55,0,0
129533,-57.1428571428571,4,2,0,55,0,0
129849,-90.9090909090909,4,2,0,55,0,0
141849,-86.9565217391304,4,2,0,60,0,0
151954,-80,4,2,0,67,0,0
160797,-142.857142857143,4,2,0,40,0,0
162060,-59.1715976331361,4,2,0,98,0,1
166797,-83.3333333333333,4,2,0,98,0,1
167112,-59.1715976331361,4,2,0,98,0,1
181639,-59.1715976331361,4,2,0,85,0,0
182270,-59.1715976331361,4,2,0,99,0,1
202481,-59.1715976331361,4,2,0,90,0,0
212586,-111.111111111111,4,2,0,45,0,0

[Colours]
Combo1 : 15,177,255
Combo2 : 0,255,255
Combo3 : 255,128,255
Combo4 : 255,128,128

[HitObjects]
74,316,376,5,2,0:0:0:0:
82,234,849,1,2,0:0:0:0:
146,282,1323,1,2,0:0:0:0:
235,171,1639,5,2,0:0:0:0:
224,251,2112,1,2,0:0:0:0:
160,203,2586,1,2,0:0:0:0:
384,348,2902,5,2,0:0:0:0:
443,288,3376,1,2,0:0:0:0:
443,204,3849,2,2,L|450:143,1,55
360,72,4165,6,2,L|366:126,1,55
366,127,4639,1,2,0:0:0:0:
366,127,5112,1,2,0:0:0:0:
296,263,5428,6,0,P|242:263|195:217,1,110,2|0,0:0|0:0,0:0:0:0:
133,336,5902,2,0,P|187:336|234:290,1,110,2|0,0:0|0:0,0:0:0:0:
270,187,6376,1,2,0:0:0:0:
486,365,6691,6,0,B|492:324|492:324|477:244,1,110,2|0,0:0|0:0,0:0:0:0:
476,121,7165,2,0,B|464:189|464:189|470:230,1,110,2|0,0:0|0:0,0:0:0:0:
486,95,7639,1,2,0:0:0:0:
360,234,7954,6,0,L|470:230,1,110,2|0,0:0|0:0,0:0:0:0:
307,296,8428,2,0,P|282:257|293:186,1,110,2|0,0:0|0:0,0:0:0:0:
359,152,8902,1,2,0:0:0:0:
360,235,9060,1,2,0:0:0:0:
287,195,9218,1,2,0:0:0:0:
432,192,9376,1,2,0:0:0:0:
430,109,9691,5,2,0:0:0:0:
360,235,9849,2,0,P|398:284|352:328,1,123.750004720688,8|0,0:0|0:0,0:0:0:0:
247,332,10481,6,0,B|318:309|303:349|379:322,1,121.000003692627,2|0,1:2|0:0,0:0:0:0:
473,312,10954,1,2,0:0:0:0:
473,312,11112,2,0,P|477:276|473:240,1,60.5000018463135,0|0,1:0|0:0,0:0:0:0:
353,174,11428,2,0,L|360:235,1,60.5000018463135,2|0,0:0|0:0,0:0:0:0:
248,216,11744,2,0,L|283:265,1,60.5000018463135,2|0,1:2|0:0,0:0:0:0:
176,304,12060,2,0,L|231:328,1,60.5000018463135,0|2,0:0|0:0,0:0:0:0:
160,217,12375,1,0,1:0:0:0:
98,276,12533,2,0,P|95:312|105:349,1,60.5000018463135,0|2,0:0|0:0,0:0:0:0:
176,304,12849,1,0,0:0:0:0:
82,189,13007,6,0,L|92:57,1,121.000003692627,2|0,1:2|0:0,0:0:0:0:
225,137,13481,1,2,0:0:0:0:
224,137,13639,2,0,P|195:143|165:138,1,60.5000018463135,0|0,1:0|0:0,0:0:0:0:
289,74,13954,1,2,0:0:0:0:
319,160,14112,1,2,0:0:0:0:
195,223,14270,1,2,1:2:0:0:
224,137,14428,1,2,0:0:0:0:
358,230,14586,2,0,P|332:240|293:239,1,60.5000018463135,0|2,0:0|0:0,0:0:0:0:
225,137,14902,2,0,P|196:126|166:126,1,60.5000018463135,0|0,1:0|0:0,0:0:0:0:
40,182,15218,2,0,L|35:65,1,90.7500027694703,2|0,0:0|0:0,0:0:0:0:
32,44,15533,6,0,B|104:29|87:63|157:46,1,121.000003692627,2|0,1:2|0:0,0:0:0:0:
284,129,16007,1,2,0:0:0:0:
209,162,16165,2,0,P|203:130|206:101,1,60.5000018463135,0|0,1:0|0:0,0:0:0:0:
338,67,16481,1,2,0:0:0:0:
284,129,16639,1,0,0:0:0:0:
396,134,16797,1,2,1:2:0:0:
396,134,16954,2,0,L|392:208,1,60.5000018463135,0|0,0:0|0:0,0:0:0:0:
475,299,17270,2,0,L|478:238,1,60.5000018463135,2|0,0:0|1:0,0:0:0:0:
470,96,17586,2,0,P|410:95|364:57,1,121.000003692627,0|0,0:0|0:0,0:0:0:0:
246,137,18060,6,0,P|278:133|319:134,1,60.5000018463135,2|0,1:2|0:0,0:0:0:0:
184,210,18376,2,0,P|152:206|111:207,1,60.5000018463135,0|2,0:0|0:0,0:0:0:0:
244,282,18691,2,0,P|274:278|305:278,1,60.5000018463135,0|0,1:0|0:0,0:0:0:0:
184,356,19007,1,2,0:0:0:0:
184,356,19165,1,2,0:0:0:0:
184,210,19323,1,2,1:2:0:0:
304,277,19481,2,0,P|273:278|243:282,1,60.5000018463135,2|0,0:0|0:0,0:0:0:0:
123,351,19797,1,2,0:0:0:0:
184,356,19954,2,0,P|153:355|123:351,1,60.5000018463135,0|0,1:0|0:0,0:0:0:0:
249,222,20270,2,0,P|248:253|244:283,1,60.5000018463135,2|0,0:0|0:0,0:0:0:0:
32,203,20586,6,0,P|32:149|70:90,1,121.000003692627,2|0,1:2|0:0,0:0:0:0:
66,93,21060,1,2,0:0:0:0:
185,177,21218,2,0,L|125:172,1,60.5000018463135,0|0,1:0|0:0,0:0:0:0:
244,105,21533,1,2,0:0:0:0:
263,233,21691,2,0,P|266:265|274:301,1,60.5000018463135,0|2,0:0|1:2,0:0:0:0:
176,236,22007,2,0,P|182:207|185:177,1,60.5000018463135,0|0,0:0|0:0,0:0:0:0:
153,320,22323,1,2,0:0:0:0:
263,233,22481,2,0,L|334:238,1,60.5000018463135,0|0,1:0|0:0,0:0:0:0:
213,324,22797,2,0,L|153:320,1,60.5000018463135,2|0,0:0|0:0,0:0:0:0:
383,291,23112,6,0,P|403:243|380:179,1,121.000003692627,2|0,1:2|0:0,0:0:0:0:
321,102,23586,1,2,0:0:0:0:
263,233,23744,2,0,L|334:238,1,60.5000018463135,0|0,1:0|0:0,0:0:0:0:
406,100,24060,1,2,0:0:0:0:
453,247,24218,1,2,0:0:0:0:
470,159,24376,1,2,1:2:0:0:
383,291,24533,2,0,L|393:362,1,60.5000018463135,2|0,0:0|0:0,0:0:0:0:
453,247,24849,1,2,0:0:0:0:
323,238,25007,2,0,L|249:246,1,60.5000018463135,0|0,1:0|0:0,0:0:0:0:
198,115,25323,2,0,L|258:121,1,60.5000018463135,2|0,0:0|0:0,0:0:0:0:
82,241,25639,6,0,B|88:188|88:188|86:173|86:173|93:112,1,121.000003692627,2|0,1:2|0:0,0:0:0:0:
46,52,26112,1,2,0:0:0:0:
172,206,26270,2,0,L|166:263,2,40.333334564209,0|0|0,1:0|0:0|0:0,0:0:0:0:
177,160,26586,2,0,B|248:144|228:182|306:164,1,121.000003692627,2|2,0:0|1:2,0:0:0:0:
296,166,27218,1,0,0:0:0:0:
366,231,27376,2,0,P|384:201|391:171,1,60.5000018463135,2|0,0:0|1:0,0:0:0:0:
296,166,27691,1,0,0:0:0:0:
274,260,27849,2,0,P|290:290|313:311,1,60.5000018463135,2|0,0:0|0:0,0:0:0:0:
348,84,28165,5,10,1:2:0:0:
348,84,28481,2,0,P|318:89|280:94,1,60.5000018463135,0|2,0:0|0:0,0:0:0:0:
149,141,28797,2,0,P|178:145|208:150,1,60.5000018463135,0|0,1:0|0:0,0:0:0:0:
196,47,29112,1,2,0:0:0:0:
196,47,29270,1,2,0:0:0:0:
68,130,29428,2,0,P|71:162|85:193,1,60.5000018463135,2|2,1:2|0:0,0:0:0:0:
166,316,29744,2,0,P|177:288|179:258,1,60.5000018463135,0|2,0:0|0:0,0:0:0:0:
149,141,30060,1,0,1:0:0:0:
254,217,30218,2,0,B|338:196|319:244|405:221,1,151.250004615784,2|0,0:0|0:0,0:0:0:0:
401,221,30691,5,2,1:2:0:0:
368,131,30849,1,0,0:0:0:0:
497,59,31007,1,0,0:0:0:0:
465,151,31165,1,2,0:0:0:0:
306,78,31323,2,0,P|333:57|365:50,1,65.9999979858399,0|0,1:0|0:0,0:0:0:0:
254,217,31639,2,0,P|222:209|196:189,1,65.9999979858399,2|0,0:0|0:0,0:0:0:0:
368,131,31954,5,2,1:2:0:0:
322,301,32112,1,0,0:0:0:0:
258,135,32270,2,0,P|254:101|246:60,1,65.9999979858399,0|2,0:0|0:0,0:0:0:0:
89,304,32586,1,8,1:0:0:0:
89,304,32902,2,0,L|158:302,1,65.9999979858399,2|0,0:0|0:0,0:0:0:0:
288,226,33218,6,0,P|240:270|240:350,1,131.99999597168,2|0,1:2|0:0,0:0:0:0:
370,225,33691,1,2,0:0:0:0:
370,225,33849,2,0,P|359:187|340:162,1,65.9999979858399,0|0,1:0|0:0,0:0:0:0:
320,310,34165,1,2,0:0:0:0:
451,291,34323,1,2,0:0:0:0:
396,165,34481,6,0,P|378:193|370:225,1,65.9999979858399,2|2,1:2|0:0,0:0:0:0:
454,356,34797,2,0,L|451:291,1,65.9999979858399,0|2,0:0|0:0,0:0:0:0:
272,95,35112,1,8,1:0:0:0:
272,95,35428,1,2,0:0:0:0:
271,105,35507,1,0,0:0:0:0:
270,115,35586,1,0,0:0:0:0:
269,125,35665,1,0,0:0:0:0:
268,135,35744,5,2,1:2:0:0:
370,61,35902,1,0,0:0:0:0:
255,16,36060,1,0,0:0:0:0:
370,61,36218,1,2,0:0:0:0:
268,135,36376,2,0,P|232:135|191:128,1,65.9999979858399,0|0,1:0|0:0,0:0:0:0:
79,81,36691,1,2,0:0:0:0:
79,81,37007,6,0,B|99:145|99:145|83:207,1,131.99999597168,2|0,1:2|0:0,0:0:0:0:
159,61,37481,1,2,0:0:0:0:
210,318,37639,1,8,1:0:0:0:
210,318,37954,2,0,P|243:320|283:317,1,65.9999979858399,2|0,0:0|0:0,0:0:0:0:
451,294,38270,5,2,1:1:0:0:
394,353,38428,2,0,P|370:303|405:227,1,131.99999597168,0|2,0:0|0:0,0:0:0:0:
496,362,38902,1,0,1:0:0:0:
396,235,39060,1,0,0:0:0:0:
281,364,39218,2,0,P|316:369|351:366,1,71.4999967269899,2|2,0:0|0:0,0:0:0:0:
460,142,39533,5,8,1:3:0:0:
320,286,39691,1,8,0:3:0:0:
320,286,39849,1,0,0:0:0:0:
504,284,40007,1,8,0:3:0:0:
202,150,40165,6,0,B|169:129|159:78|159:78|189:212|141:164|177:287,1,278.850005212269,10|0,0:3|0:0,0:0:0:0:
252,12,40797,6,0,P|238:79|330:84,1,176,4|0,1:0|0:0,0:0:0:0:
481,118,41270,1,8,0:0:0:0:
320,285,41428,2,0,P|322:244|319:190,1,88,0|0,1:0|0:0,0:0:0:0:
159,78,41744,2,0,P|156:121|158:165,1,88,8|0,0:0|0:0,0:0:0:0:
240,373,42060,6,0,P|196:318|95:320,1,176,0|0,1:0|0:0,0:0:0:0:
228,229,42533,1,8,0:0:0:0:
26,357,42691,1,8,1:0:0:0:
240,373,42849,1,0,0:0:0:0:
101,233,43007,2,0,B|90:266|90:266|98:325,1,88,8|0,0:0|0:0,0:0:0:0:
322,244,43323,6,0,L|315:139,1,88,0|0,1:0|0:0,0:0:0:0:
163,33,43639,1,0,0:0:0:0:
172,173,43797,1,8,0:0:0:0:
373,79,43954,2,0,P|333:60|290:62,1,88,0|0,1:0|0:0,0:0:0:0:
88,155,44270,2,0,P|128:174|172:173,1,88,8|0,0:0|0:0,0:0:0:0:
316,156,44586,5,0,1:0:0:0:
145,95,44744,1,2,0:0:0:0:
246,274,44902,1,0,0:0:0:0:
240,81,45060,1,8,0:0:0:0:
159,292,45218,1,8,1:0:0:0:
394,251,45376,5,0,0:0:0:0:
394,251,45454,1,0,0:0:0:0:
394,251,45533,2,0,P|394:307|400:355,1,94.8750018095971,8|0,0:0|0:0,0:0:0:0:
484,346,45849,6,0,B|414:335|414:335|399:345|399:345|379:340|379:340|312:366,1,176,0|0,1:0|0:0,0:0:0:0:
208,195,46323,2,0,P|218:238|224:282,1,88,8|0,0:0|1:0,0:0:0:0:
125,377,46639,1,0,0:0:0:0:
47,217,46797,1,8,0:0:0:0:
224,282,46954,1,0,0:0:0:0:
192,93,47112,5,0,1:0:0:0:
47,217,47270,1,0,0:0:0:0:
261,186,47428,2,0,P|304:182|350:181,1,88,0|8,0:0|0:0,0:0:0:0:
113,146,47744,2,0,P|97:108|108:47,1,88,8|0,1:0|0:0,0:0:0:0:
295,88,48060,1,8,0:0:0:0:
140,177,48218,1,0,0:0:0:0:
349,269,48376,6,0,L|349:171,1,88,0|0,1:0|0:0,0:0:0:0:
349,181,48612,1,0,0:0:0:0:
349,181,48691,1,0,0:0:0:0:
177,353,48849,2,8,P|217:364|267:355,1,88,8|0,0:0|1:0,0:0:0:0:
451,201,49165,1,0,0:0:0:0:
225,267,49323,1,8,0:0:0:0:
486,305,49481,1,0,0:0:0:0:
197,182,49639,6,0,P|161:206|136:251,1,88,0|8,1:0|0:0,0:0:0:0:
348,313,49954,1,0,0:0:0:0:
317,89,50112,1,8,0:0:0:0:
225,267,50270,1,8,1:0:0:0:
212,291,50349,1,0,0:0:0:0:
206,318,50428,1,0,0:0:0:0:
207,345,50507,1,0,0:0:0:0:
215,371,50586,1,8,0:0:0:0:
355,196,50744,1,0,0:0:0:0:
138,243,50902,6,0,B|131:199|131:199|145:130,1,88,0|0,1:0|0:0,0:0:0:0:
219,8,51218,1,0,0:0:0:0:
228,201,51376,1,8,0:0:0:0:
87,38,51533,1,0,1:0:0:0:
87,38,51849,5,8,0:0:0:0:
36,242,52007,1,0,0:0:0:0:
232,112,52165,6,0,L|331:117,1,88,0|0,1:0|0:0,0:0:0:0:
505,174,52481,1,0,0:0:0:0:
385,262,52639,1,8,0:0:0:0:
394,12,52797,1,8,1:0:0:0:
394,12,53112,5,8,0:0:0:0:
388,237,53270,1,0,0:0:0:0:
155,141,53428,6,0,P|153:95|175:51,1,88,0|0,1:0|0:0,0:0:0:0:
217,254,53744,1,0,0:0:0:0:
27,194,53902,1,8,0:0:0:0:
247,114,54060,1,0,1:0:0:0:
247,114,54376,5,8,0:0:0:0:
27,194,54534,1,0,0:0:0:0:
295,194,54692,1,0,1:0:0:0:
12,198,54849,2,0,P|20:243|25:288,1,88,2|0,0:0|0:0,0:0:0:0:
155,141,55165,1,8,0:0:0:0:
168,336,55323,1,8,1:0:0:0:
121,234,55481,1,0,0:0:0:0:
121,234,55560,1,0,0:0:0:0:
121,234,55639,1,8,0:0:0:0:
276,343,55797,1,0,0:0:0:0:
465,103,55954,6,0,B|371:75|386:128|279:95,1,176,0|0,1:0|0:0,0:0:0:0:
418,235,56428,1,8,0:0:0:0:
342,15,56586,2,0,P|292:12|244:14,1,88,0|0,1:0|0:0,0:0:0:0:
330,236,56902,2,0,P|374:237|418:235,1,88,8|0,0:0|0:0,0:0:0:0:
207,149,57218,5,0,1:0:0:0:
151,364,57376,1,0,0:0:0:0:
330,236,57533,1,0,0:0:0:0:
54,265,57691,1,8,0:0:0:0:
296,120,57849,2,0,P|293:75|285:28,1,88,8|0,1:0|0:0,0:0:0:0:
132,208,58165,1,8,0:0:0:0:
375,162,58323,1,0,0:0:0:0:
114,112,58481,6,0,L|15:121,1,88,0|0,1:0|0:0,0:0:0:0:
26,119,58718,1,0,0:0:0:0:
26,119,58797,1,0,0:0:0:0:
242,243,58954,2,0,L|330:236,1,88,8|0,0:0|1:0,0:0:0:0:
163,352,59270,1,0,0:0:0:0:
216,142,59428,1,8,0:0:0:0:
262,375,59586,1,0,0:0:0:0:
37,292,59744,6,0,P|43:335|56:377,1,88,0|8,1:0|0:0,0:0:0:0:
220,247,60060,1,0,0:0:0:0:
32,179,60218,1,8,0:0:0:0:
290,188,60376,1,8,1:0:0:0:
322,190,60454,1,0,0:0:0:0:
355,193,60533,1,0,0:0:0:0:
388,195,60612,1,0,0:0:0:0:
421,198,60691,1,8,0:0:0:0:
216,142,60849,1,0,0:0:0:0:
344,362,61007,6,0,P|376:358|411:344,2,65.9999979858399,2|0|0,1:2|0:0|0:0,0:0:0:0:
379,228,61481,2,0,P|347:232|312:246,2,65.9999979858399,2|0|0,0:0|1:0|0:0,0:0:0:0:
471,270,61954,1,2,0:0:0:0:
471,270,62112,1,0,0:0:0:0:
320,310,62270,6,0,P|316:277|316:245,2,65.9999979858399,2|0|0,1:2|0:0|0:0,0:0:0:0:
214,184,62744,2,0,P|217:216|218:249,2,65.9999979858399,2|0|0,0:0|1:0|0:0,0:0:0:0:
194,74,63218,1,2,0:0:0:0:
194,74,63376,1,0,0:0:0:0:
134,221,63533,6,0,L|65:218,2,65.9999979858399,2|0|0,1:2|0:0|0:0,0:0:0:0:
279,181,64007,2,0,L|214:184,2,65.9999979858399,2|0|0,0:0|1:0|0:0,0:0:0:0:
359,224,64481,1,2,0:0:0:0:
332,77,64639,1,2,0:0:0:0:
438,178,64797,5,2,1:2:0:0:
289,157,64954,1,2,0:0:0:0:
444,193,65112,1,2,0:0:0:0:
295,172,65269,1,2,0:0:0:0:
482,116,65428,1,8,1:0:0:0:
359,224,65586,1,0,0:0:0:0:
360,248,65665,1,0,0:0:0:0:
361,273,65744,1,2,0:0:0:0:
363,298,65823,1,0,0:0:0:0:
364,322,65902,1,0,0:0:0:0:
212,281,66060,6,0,B|243:273|243:273|285:280,2,65.9999979858399,2|0|0,1:2|0:0|0:0,0:0:0:0:
151,357,66533,1,2,0:0:0:0:
212,281,66691,2,0,B|217:247|217:247|209:216,1,65.9999979858399,0|0,1:0|0:0,0:0:0:0:
121,250,67007,1,2,0:0:0:0:
121,250,67165,1,0,0:0:0:0:
276,355,67323,6,0,P|313:353|343:350,2,65.9999979858399,2|0|0,1:2|0:0|0:0,0:0:0:0:
212,281,67797,1,2,0:0:0:0:
296,233,67954,2,0,P|294:200|291:167,1,65.9999979858399,0|0,1:0|0:0,0:0:0:0:
272,67,68270,1,2,0:0:0:0:
272,67,68428,1,0,0:0:0:0:
361,234,68586,6,0,L|296:233,1,65.9999979858399,2|0,1:2|0:0,0:0:0:0:
296,233,68823,1,0,0:0:0:0:
296,233,68902,1,0,0:0:0:0:
388,152,69060,1,2,0:0:0:0:
403,318,69218,2,0,L|337:316,1,65.9999979858399,0|0,1:0|0:0,0:0:0:0:
473,235,69533,1,2,0:0:0:0:
337,316,69691,1,2,0:0:0:0:
388,152,69849,5,2,1:2:0:0:
395,96,69928,1,0,0:0:0:0:
358,54,70007,1,2,0:0:0:0:
302,56,70086,1,0,0:0:0:0:
267,100,70165,1,0,0:0:0:0:
480,88,70323,1,2,0:0:0:0:
258,155,70481,5,8,1:0:0:0:
260,204,70560,1,0,0:0:0:0:
262,253,70639,1,0,0:0:0:0:
265,303,70718,1,0,0:0:0:0:
267,352,70797,1,2,0:1:0:0:
387,248,70954,1,2,0:1:0:0:
193,369,71112,6,0,L|188:249,1,110,8|0,0:0|0:0,0:0:0:0:
183,174,71586,1,8,0:0:0:0:
114,293,71744,2,0,L|116:347,1,55,0|0,0:0|0:0,0:0:0:0:
267,335,72060,2,0,L|264:280,1,55,8|0,0:0|0:0,0:0:0:0:
154,97,72375,6,0,P|115:129|104:200,1,110,8|0,0:0|0:0,0:0:0:0:
114,293,72849,1,8,0:0:0:0:
54,73,73007,1,8,0:1:0:0:
54,73,73323,1,0,0:0:0:0:
183,174,73639,5,8,0:0:0:0:
154,97,73797,1,2,0:0:0:0:
101,185,73954,2,0,L|107:250,1,55,0|8,0:0|0:0,0:0:0:0:
237,179,74270,2,0,L|183:174,1,55,2|0,0:0|0:0,0:0:0:0:
51,235,74586,2,0,L|105:240,1,55,8|0,0:0|0:0,0:0:0:0:
298,260,74902,5,8,0:0:0:0:
237,179,75060,1,2,0:0:0:0:
225,323,75218,1,0,0:0:0:0:
225,323,75375,1,0,0:0:0:0:
322,182,75533,2,0,L|424:187,1,82.5,2|0,0:1|0:0,0:0:0:0:
437,188,75849,1,2,0:1:0:0:
384,93,76007,2,0,L|385:60,1,32.99999899292,2|0,0:3|0:0,0:0:0:0:
322,182,76165,5,8,0:0:0:0:
437,188,76323,1,0,0:0:0:0:
283,109,76481,2,0,P|261:126|243:160,1,55,0|8,0:0|0:0,0:0:0:0:
322,297,76797,1,0,0:0:0:0:
322,182,76955,1,0,0:0:0:0:
252,339,77113,2,0,P|270:360|305:376,1,55,8|0,0:0|0:0,0:0:0:0:
437,291,77428,5,8,0:0:0:0:
322,297,77586,1,0,0:0:0:0:
322,182,77744,1,0,0:0:0:0:
437,176,77902,1,8,0:0:0:0:
283,109,78060,2,0,P|261:126|246:149,1,55,0|0,0:0|0:0,0:0:0:0:
322,297,78375,1,8,0:0:0:0:
322,182,78533,1,0,0:0:0:0:
252,339,78691,5,8,0:0:0:0:
387,247,78849,1,2,0:0:0:0:
387,247,78928,1,0,0:0:0:0:
387,247,79007,2,0,L|452:250,1,55,0|8,0:0|0:0,0:0:0:0:
257,232,79323,1,0,0:0:0:0:
441,250,79481,2,0,P|448:223|452:196,1,55,0|8,0:0|0:0,0:0:0:0:
384,70,79797,1,2,0:0:0:0:
257,232,79954,5,8,0:0:0:0:
460,203,80112,1,2,0:0:0:0:
460,203,80191,1,0,0:0:0:0:
460,203,80270,1,2,0:0:0:0:
361,314,80428,1,2,0:0:0:0:
384,70,80586,1,8,0:1:0:0:
384,70,80902,5,0,0:0:0:0:
363,71,80981,1,0,0:0:0:0:
342,72,81060,1,0,0:0:0:0:
322,73,81139,1,0,0:0:0:0:
301,74,81218,5,2,1:2:0:0:
193,228,81375,2,0,P|225:229|257:232,1,63.250001206398,0|0,0:0|0:0,0:0:0:0:
175,121,81691,2,0,P|143:120|111:117,1,63.250001206398,2|0,0:0|1:0,0:0:0:0:
301,74,82007,2,0,P|307:108|308:140,1,63.250001206398,0|2,0:0|0:0,0:0:0:0:
194,229,82323,1,0,0:0:0:0:
175,121,82481,5,2,1:2:0:0:
308,137,82639,1,0,0:0:0:0:
194,229,82797,2,0,B|195:261|195:261|201:291,1,63.250001206398,0|2,0:0|0:0,0:0:0:0:
308,137,83112,2,0,B|307:105|307:105|301:75,1,63.250001206398,0|0,1:0|0:0,0:0:0:0:
281,245,83428,1,2,0:0:0:0:
387,105,83586,1,0,0:0:0:0:
387,245,83744,5,2,1:2:0:0:
466,83,83902,2,0,P|447:51|421:32,1,63.250001206398,0|0,0:0|0:0,0:0:0:0:
387,245,84218,1,2,0:0:0:0:
387,105,84375,2,0,P|350:95|319:100,1,63.250001206398,0|0,1:0|0:0,0:0:0:0:
387,245,84691,1,2,0:0:0:0:
466,83,84849,1,2,0:0:0:0:
466,267,85007,6,0,P|447:299|421:318,1,63.250001206398,2|0,1:2|0:0,0:0:0:0:
387,245,85244,2,0,L|309:250,1,63.250001206398,2|0,0:0|0:0,0:0:0:0:
245,256,85481,1,2,0:0:0:0:
466,267,85639,1,2,1:2:0:0:
381,147,85797,1,0,0:0:0:0:
381,147,85875,1,2,0:0:0:0:
381,147,85954,1,0,0:0:0:0:
382,327,86112,1,2,0:0:0:0:
470,147,86270,6,0,L|466:84,1,63.250001206398,2|0,1:2|0:0,0:0:0:0:
385,83,86507,2,0,L|381:147,1,63.250001206398,2|0,0:0|0:0,0:0:0:0:
427,214,86744,1,2,0:0:0:0:
384,47,86902,2,0,L|317:51,1,63.250001206398,2|0,1:2|0:0,0:0:0:0:
224,117,87218,1,2,0:0:0:0:
381,147,87375,1,2,0:0:0:0:
228,178,87533,6,0,B|219:151|219:151|224:117,1,63.250001206398,2|0,1:2|0:0,0:0:0:0:
231,82,87770,1,2,0:0:0:0:
231,82,87849,1,0,0:0:0:0:
317,224,88007,1,2,0:0:0:0:
165,175,88165,2,0,L|229:179,1,63.250001206398,2|0,1:2|0:0,0:0:0:0:
229,179,88402,1,2,0:0:0:0:
229,179,88481,1,0,0:0:0:0:
381,148,88639,1,2,0:0:0:0:
314,287,88797,6,0,L|317:224,1,63.250001206398,2|0,1:2|0:0,0:0:0:0:
317,224,89033,1,2,0:0:0:0:
317,224,89112,1,0,0:0:0:0:
409,354,89270,1,2,0:0:0:0:
381,148,89428,2,0,L|465:152,1,63.250001206398,2|0,1:2|0:0,0:0:0:0:
488,156,89665,1,2,0:0:0:0:
488,156,89744,1,0,0:0:0:0:
279,141,89902,1,2,0:0:0:0:
386,32,90060,5,2,1:2:0:0:
396,256,90218,1,0,0:0:0:0:
396,256,90297,1,2,0:2:0:0:
396,256,90375,1,0,0:0:0:0:
488,156,90533,1,2,0:0:0:0:
301,248,90691,1,2,1:2:0:0:
302,279,90770,1,0,0:0:0:0:
315,308,90849,1,0,0:0:0:0:
337,330,90928,1,0,0:0:0:0:
365,344,91007,1,2,0:0:0:0:
485,248,91165,1,0,0:0:0:0:
253,355,91323,6,0,P|215:351|174:350,1,68.75,2|0,1:2|0:0,0:0:0:0:
90,234,91639,2,0,P|88:273|82:317,1,68.75,0|2,0:0|0:0,0:0:0:0:
57,159,91954,1,0,1:0:0:0:
196,168,92112,1,0,0:0:0:0:
90,234,92270,1,2,0:0:0:0:
226,171,92428,1,0,0:0:0:0:
57,159,92586,6,0,P|61:124|72:64,1,68.75,2|0,1:2|0:0,0:0:0:0:
158,231,92902,2,0,P|124:236|90:234,1,68.75,0|2,0:0|0:0,0:0:0:0:
403,113,93218,1,8,1:0:0:0:
400,208,93375,1,0,0:0:0:0:
400,208,93454,1,0,0:0:0:0:
400,208,93533,2,0,P|432:204|465:186,1,68.75,2|0,0:0|0:0,0:0:0:0:
321,154,93849,5,2,1:2:0:0:
344,287,94007,1,0,0:0:0:0:
464,186,94165,1,0,0:0:0:0:
487,319,94323,1,2,0:0:0:0:
266,260,94481,2,0,P|262:294|271:327,1,68.75,0|0,1:0|0:0,0:0:0:0:
321,154,94797,2,0,P|324:119|315:86,1,68.75,2|2,0:0|0:0,0:0:0:0:
141,187,95112,6,0,L|223:183,1,68.75,2|2,1:2|0:0,0:0:0:0:
344,287,95428,1,0,0:0:0:0:
321,154,95586,1,2,0:0:0:0:
82,355,95744,2,0,P|74:321|69:280,1,68.75,8|0,1:0|0:0,0:0:0:0:
69,287,95981,1,0,0:0:0:0:
69,287,96060,1,2,0:0:0:0:
141,187,96218,1,0,0:0:0:0:
260,364,96375,6,0,P|224:362|179:361,1,68.75,2|0,1:2|0:0,0:0:0:0:
344,287,96691,2,0,P|380:285|425:284,1,68.75,0|2,0:0|0:0,0:0:0:0:
260,210,97007,2,0,P|224:208|179:207,1,68.75,0|0,1:0|0:0,0:0:0:0:
344,133,97323,2,0,P|380:131|425:130,1,68.75,2|0,0:0|0:0,0:0:0:0:
260,56,97639,5,2,1:2:0:0:
260,210,97797,1,0,0:0:0:0:
412,130,97954,2,0,P|378:131|344:133,1,68.75,0|2,0:0|0:0,0:0:0:0:
66,342,98270,2,0,P|61:308|54:275,1,68.75,8|0,1:0|0:0,0:0:0:0:
172,225,98586,2,0,P|176:190|184:157,1,68.75,2|0,0:0|0:0,0:0:0:0:
339,333,98902,6,0,P|302:332|261:330,1,68.75,2|0,1:2|0:0,0:0:0:0:
270,330,99139,1,0,0:0:0:0:
270,330,99218,1,0,0:0:0:0:
172,225,99375,2,0,P|209:226|250:228,1,68.75,2|0,0:0|1:0,0:0:0:0:
408,335,99691,2,0,L|374:334|340:333,1,68.75,0|2,0:0|0:0,0:0:0:0:
315,234,100007,1,2,0:0:0:0:
477,370,100165,5,2,1:2:0:0:
462,140,100323,1,10,0:0:0:0:
462,140,100402,1,0,0:0:0:0:
462,140,100481,1,0,0:0:0:0:
407,335,100639,1,2,0:0:0:0:
332,66,100797,5,8,1:0:0:0:
374,59,100875,1,0,0:0:0:0:
415,71,100954,1,0,0:0:0:0:
446,100,101033,1,0,0:0:0:0:
462,139,101112,2,0,P|441:144|416:149,1,38.4999988250733,2|0,0:1|0:0,0:0:0:0:
277,226,101270,2,0,P|296:229|315:234,1,38.4999988250733,2|0,0:1|0:0,0:0:0:0:
126,21,101428,6,0,B|134:96|134:96|125:132|125:132|135:210,1,185.900003474846,4|0,1:0|0:0,0:0:0:0:
35,84,101902,1,8,0:0:0:0:
215,230,102060,2,0,P|192:269|144:294,1,92.950001737423,0|0,1:0|0:0,0:0:0:0:
126,21,102375,2,0,L|223:24,1,92.950001737423,8|0,0:0|0:0,0:0:0:0:
32,175,102691,6,0,B|25:132|25:132|37:73,1,92.950001737423,0|0,1:0|0:0,0:0:0:0:
290,188,103007,2,0,B|297:231|297:231|285:290,1,92.950001737423,0|8,0:0|0:0,0:0:0:0:
262,356,103244,1,0,0:0:0:0:
262,356,103323,1,8,1:0:0:0:
400,174,103481,1,0,0:0:0:0:
204,230,103639,2,0,P|155:229|103:225,1,92.950001737423,8|0,0:0|0:0,0:0:0:0:
400,174,103954,6,0,P|412:217|401:267,1,92.950001737423,0|0,1:0|0:0,0:0:0:0:
315,79,104270,1,0,0:0:0:0:
490,99,104428,1,8,0:0:0:0:
331,219,104586,2,0,P|283:218|221:213,1,92.950001737423,0|0,1:0|0:0,0:0:0:0:
485,367,104902,2,0,P|484:320|480:274,1,92.950001737423,8|0,0:0|0:0,0:0:0:0:
403,89,105218,5,0,1:0:0:0:
397,273,105375,1,2,0:0:0:0:
490,99,105533,1,0,0:0:0:0:
315,79,105691,1,8,0:0:0:0:
481,274,105849,1,8,1:0:0:0:
265,308,106007,5,0,0:0:0:0:
265,308,106086,1,0,0:0:0:0:
265,308,106165,2,0,P|261:267|268:209,1,94.8750018095971,8|0,0:0|0:0,0:0:0:0:
357,169,106481,6,0,B|245:196|289:136|168:168,1,185.900003474846,0|0,1:0|0:0,0:0:0:0:
63,356,106954,2,0,P|72:310|66:265,1,92.950001737423,8|0,0:0|1:0,0:0:0:0:
103,70,107270,1,0,0:0:0:0:
177,255,107428,1,8,0:0:0:0:
8,147,107586,1,0,0:0:0:0:
210,119,107744,5,0,1:0:0:0:
66,265,107902,1,0,0:0:0:0:
274,308,108060,2,0,P|315:299|375:301,1,92.950001737423,0|8,0:0|0:0,0:0:0:0:
138,160,108375,2,0,P|129:110|151:58,1,92.950001737423,8|0,1:0|0:0,0:0:0:0:
337,119,108691,1,8,0:0:0:0:
177,255,108849,1,0,0:0:0:0:
405,168,109007,6,0,P|418:125|404:67,1,92.950001737423,0|0,1:0|0:0,0:0:0:0:
409,78,109244,1,0,0:0:0:0:
409,78,109323,1,0,0:0:0:0:
274,308,109481,2,8,P|319:310|367:308,1,92.950001737423,8|0,0:0|1:0,0:0:0:0:
209,120,109797,1,0,0:0:0:0:
195,336,109954,1,8,0:0:0:0:
326,194,110112,1,0,0:0:0:0:
76,286,110270,5,0,1:0:0:0:
349,305,110428,1,8,0:0:0:0:
60,286,110586,1,0,0:0:0:0:
366,308,110744,1,8,0:0:0:0:
129,142,110902,1,8,1:0:0:0:
127,107,110981,1,0,0:0:0:0:
139,75,111060,1,0,0:0:0:0:
164,50,111139,1,0,0:0:0:0:
196,38,111218,1,8,0:0:0:0:
326,194,111375,1,0,0:0:0:0:
94,364,111533,6,0,P|52:364|9:329,1,92.950001737423,0|0,1:0|0:0,0:0:0:0:
188,201,111849,1,0,0:0:0:0:
94,364,112007,1,8,0:0:0:0:
50,132,112165,1,0,1:0:0:0:
50,132,112481,5,8,0:0:0:0:
150,291,112639,1,0,0:0:0:0:
104,36,112797,6,0,B|153:29|153:29|196:38,1,92.950001737423,0|0,1:0|0:0,0:0:0:0:
305,209,113112,1,0,0:0:0:0:
152,112,113270,1,8,0:0:0:0:
396,110,113428,1,8,1:0:0:0:
396,110,113744,5,8,0:0:0:0:
188,201,113902,1,0,0:0:0:0:
456,300,114060,6,0,P|458:256|466:189,1,92.950001737423,0|0,1:0|0:0,0:0:0:0:
293,38,114375,1,0,0:0:0:0:
499,105,114533,1,8,0:0:0:0:
305,209,114691,1,0,1:0:0:0:
305,209,115007,5,8,0:0:0:0:
415,18,115165,1,0,0:0:0:0:
379,253,115323,1,0,1:0:0:0:
293,38,115481,2,0,P|244:44|200:58,1,92.950001737423,2|0,0:0|0:0,0:0:0:0:
67,116,115797,1,8,0:0:0:0:
340,127,115954,1,8,1:0:0:0:
193,218,116112,1,0,0:0:0:0:
193,218,116191,1,0,0:0:0:0:
193,218,116270,1,8,0:0:0:0:
202,57,116428,1,0,0:0:0:0:
271,309,116586,6,0,B|320:285|320:285|453:301,1,185.900003474846,0|0,1:0|0:0,0:0:0:0:
336,372,117060,1,8,0:0:0:0:
274,216,117218,2,0,P|270:262|271:309,1,92.950001737423,0|0,1:0|0:0,0:0:0:0:
492,318,117533,2,0,P|495:271|495:225,1,92.950001737423,8|0,0:0|0:0,0:0:0:0:
364,160,117849,5,0,1:0:0:0:
492,318,118007,1,0,0:0:0:0:
459,106,118165,1,0,0:0:0:0:
274,216,118323,1,8,0:0:0:0:
434,16,118481,2,0,P|449:60|458:106,1,92.950001737423,8|0,1:0|0:0,0:0:0:0:
274,216,118797,2,0,P|259:171|249:126,1,92.950001737423,8|0,0:0|0:0,0:0:0:0:
452,272,119112,5,0,1:0:0:0:
267,346,119270,1,0,0:0:0:0:
267,346,119349,1,0,0:0:0:0:
267,346,119428,1,0,0:0:0:0:
471,269,119586,2,0,P|469:322|464:374,1,92.950001737423,8|0,0:0|1:0,0:0:0:0:
277,217,119902,1,0,0:0:0:0:
464,160,120060,1,8,0:0:0:0:
278,118,120218,1,0,0:0:0:0:
471,269,120375,5,0,1:0:0:0:
213,272,120533,1,8,0:0:0:0:
381,109,120691,1,0,0:0:0:0:
384,367,120849,1,8,0:0:0:0:
232,192,121007,1,8,1:0:0:0:
208,190,121086,1,0,0:0:0:0:
186,195,121165,1,0,0:0:0:0:
165,205,121244,1,0,0:0:0:0:
147,220,121323,1,8,0:0:0:0:
325,279,121481,1,0,0:0:0:0:
260,107,121639,6,0,L|381:109,1,121.000003692627,6|0,1:2|0:0,0:0:0:0:
474,140,122112,1,2,0:0:0:0:
379,168,122270,2,0,P|377:138|381:109,1,60.5000018463135,0|0,1:0|0:0,0:0:0:0:
391,13,122586,1,2,0:0:0:0:
391,13,122902,6,0,L|270:11,1,121.000003692627,2|0,1:2|0:0,0:0:0:0:
181,50,123375,1,2,0:0:0:0:
260,107,123533,2,0,P|267:134|270:168,1,60.5000018463135,0|0,1:0|0:0,0:0:0:0:
204,238,123849,2,0,P|197:265|194:299,1,60.5000018463135,2|0,0:0|0:0,0:0:0:0:
335,304,124165,5,2,1:2:0:0:
335,304,124323,2,0,P|302:287|272:283,1,60.5000018463135,0|0,0:0|0:0,0:0:0:0:
138,277,124639,2,0,P|164:291|193:297,2,60.5000018463135,2|0|0,0:0|1:0|0:0,0:0:0:0:
208,191,125112,1,2,0:0:0:0:
279,283,125270,1,2,0:0:0:0:
142,281,125428,5,2,1:2:0:0:
142,281,125586,2,0,P|105:231|95:169,1,121.000003692627,2|2,0:0|0:0,0:0:0:0:
223,80,126060,1,0,1:0:0:0:
208,191,126218,1,0,0:0:0:0:
95,174,126375,1,2,0:0:0:0:
110,63,126533,1,0,0:0:0:0:
208,191,126691,6,0,L|277:197,1,60.5000018463135,2|0,1:2|0:0,0:0:0:0:
433,109,127007,6,0,B|389:95|389:95|343:101,1,90.7500008654595,2|2,0:1|0:0,0:0:0:0:
147,185,127323,6,0,L|208:191,1,60.5000018463135,0|0,1:0|0:0,0:0:0:0:
328,201,127639,1,2,0:0:0:0:
263,329,127797,2,0,P|259:298|262:263,1,60.5000018463135,0|2,0:0|1:2,0:0:0:0:
416,302,128112,2,0,L|356:297,1,60.5000018463135,0|0,0:0|0:0,0:0:0:0:
261,269,128428,1,2,0:0:0:0:
328,375,128586,5,0,1:0:0:0:
247,253,128744,1,0,0:0:0:0:
356,297,128902,1,2,0:0:0:0:
219,331,129060,1,0,0:0:0:0:
361,216,129218,6,0,P|393:225|419:246,1,60.5000018463135,2|0,1:2|0:0,0:0:0:0:
216,172,129533,6,0,L|219:61,1,96.2500009179115,2|2,0:1|0:0,0:0:0:0:
415,241,129849,6,0,P|431:269|434:303,1,60.5000018463135,0|0,1:0|0:0,0:0:0:0:
247,253,130165,1,2,0:0:0:0:
434,297,130323,2,0,P|425:328|403:354,1,60.5000018463135,2|2,0:0|1:2,0:0:0:0:
247,253,130639,2,0,P|255:221|277:195,1,60.5000018463135,2|0,0:0|0:0,0:0:0:0:
289,350,130954,1,2,0:0:0:0:
289,350,131112,2,0,L|160:337,1,121.000003692627,0|2,1:0|0:0,0:0:0:0:
156,249,131586,1,0,0:0:0:0:
26,362,131744,6,0,P|33:307|33:218,1,121.000003692627,2|0,1:2|0:0,0:0:0:0:
106,146,132218,1,2,0:0:0:0:
155,249,132376,2,0,P|186:246|216:243,1,60.5000018463135,0|0,1:0|0:0,0:0:0:0:
34,241,132691,1,2,0:0:0:0:
84,344,132849,1,0,0:0:0:0:
216,243,133007,6,0,L|207:172,2,60.5000018463135,2|0|0,1:2|0:0|0:0,0:0:0:0:
263,362,133481,1,2,0:0:0:0:
326,277,133639,2,0,P|360:279|395:284,1,60.5000018463135,0|0,1:0|0:0,0:0:0:0:
216,243,133954,2,0,P|185:246|155:248,1,60.5000018463135,2|0,0:0|0:0,0:0:0:0:
34,241,134270,5,2,1:2:0:0:
84,344,134428,1,0,0:0:0:0:
26,226,134586,1,0,0:0:0:0:
92,359,134744,2,0,P|127:353|153:351,2,60.5000018463135,2|0|0,0:0|1:0|0:0,0:0:0:0:
26,226,135218,2,0,P|20:191|18:165,1,60.5000018463135,2|2,0:0|0:0,0:0:0:0:
139,251,135533,5,2,1:2:0:0:
139,251,135691,1,2,0:0:0:0:
140,96,135849,2,0,P|170:92|206:98,1,60.5000018463135,0|2,0:0|0:0,0:0:0:0:
302,138,136165,1,0,1:0:0:0:
171,172,136323,1,0,0:0:0:0:
287,143,136481,1,2,0:0:0:0:
156,177,136639,1,0,0:0:0:0:
342,203,136797,6,0,P|365:163|340:81,1,121.000003692627,2|0,1:2|0:0,0:0:0:0:
287,143,137270,1,2,0:0:0:0:
414,236,137428,2,0,P|432:205|440:179,1,60.5000018463135,0|0,1:0|0:0,0:0:0:0:
328,222,137744,1,2,0:0:0:0:
346,310,137902,6,0,P|377:328|403:336,1,60.5000018463135,0|2,0:0|1:2,0:0:0:0:
328,222,138218,2,0,P|299:231|273:247,1,60.5000018463135,0|0,0:0|0:0,0:0:0:0:
256,359,138533,1,2,0:0:0:0:
414,236,138691,2,0,B|416:187|416:187|410:168|410:168|414:105,1,121.000003692627,0|2,1:0|0:0,0:0:0:0:
413,116,139165,1,0,0:0:0:0:
290,21,139323,6,0,P|225:21|184:71,1,121.000003692627,2|0,1:2|0:0,0:0:0:0:
188,58,139797,1,2,0:0:0:0:
255,215,139954,2,0,L|260:95,1,121.000003692627,0|2,1:0|0:0,0:0:0:0:
176,201,140428,1,2,0:0:0:0:
343,146,140586,1,2,1:2:0:0:
189,59,140744,1,2,0:0:0:0:
343,146,140902,2,0,P|373:145|414:141,1,60.5000018463135,0|2,0:0|0:0,0:0:0:0:
260,95,141218,6,0,L|256:170,1,60.5000018463135,2|0,1:2|0:0,0:0:0:0:
251,323,141533,2,0,L|255:206,1,90.7500027694703,2|0,0:0|0:0,0:0:0:0:
257,156,141849,5,6,1:2:0:0:
379,229,142007,1,0,0:0:0:0:
379,229,142086,1,0,0:0:0:0:
379,229,142165,1,0,0:0:0:0:
450,126,142323,1,2,0:0:0:0:
328,53,142481,2,0,P|335:85|343:116,1,63.250001206398,0|0,0:0|0:0,0:0:0:0:
472,225,142797,1,2,0:0:0:0:
497,59,142954,6,0,P|460:45|430:45,1,63.250001206398,0|2,0:0|0:0,0:0:0:0:
343,115,143270,1,0,0:0:0:0:
450,126,143428,1,0,0:0:0:0:
472,225,143586,1,2,0:0:0:0:
365,214,143744,1,0,0:0:0:0:
343,115,143902,1,0,0:0:0:0:
249,185,144060,2,0,P|217:183|189:171,1,63.250001206398,2|0,0:0|0:0,0:0:0:0:
244,41,144376,6,0,L|239:105,1,63.250001206398,2|0,0:0|0:0,0:0:0:0:
194,234,144691,2,0,L|188:170,1,63.250001206398,0|2,0:0|0:0,0:0:0:0:
143,41,145007,1,0,0:0:0:0:
87,169,145165,1,0,0:0:0:0:
87,169,145244,1,0,0:0:0:0:
87,169,145323,1,2,0:0:0:0:
189,171,145481,1,2,0:0:0:0:
38,92,145639,6,0,P|39:61|47:26,1,63.250001206398,2|2,0:0|0:0,0:0:0:0:
87,169,145954,2,0,P|86:200|78:235,1,63.250001206398,0|2,0:0|0:0,0:0:0:0:
169,330,146270,2,0,P|208:305|268:305,1,94.8750018095971
269,321,146586,2,0,P|315:317|355:292,1,94.8750018095971,2|0,0:0|0:0,0:0:0:0:
371,274,146902,5,2,0:0:0:0:
297,195,147060,1,0,0:0:0:0:
297,195,147139,1,0,0:0:0:0:
297,195,147218,1,0,0:0:0:0:
297,87,147376,1,2,0:0:0:0:
223,8,147533,2,0,P|190:12|147:26,1,63.250001206398,0|0,0:0|0:0,0:0:0:0:
40,88,147849,2,0,P|73:92|116:106,1,63.250001206398,2|0,0:0|0:0,0:0:0:0:
222,142,148165,5,2,0:0:0:0:
119,212,148323,1,0,0:0:0:0:
222,282,148481,1,0,0:0:0:0:
119,352,148639,1,2,0:0:0:0:
239,274,148797,2,0,P|272:275|312:285,1,63.250001206398,0|0,0:0|0:0,0:0:0:0:
412,338,149112,1,2,0:0:0:0:
412,338,149270,1,0,0:0:0:0:
301,218,149428,6,0,L|301:281,1,63.250001206398,2|0,0:0|0:0,0:0:0:0:
412,252,149744,1,0,0:0:0:0:
281,139,149902,2,0,P|253:152|231:174,1,63.250001206398,2|0,0:0|0:0,0:0:0:0:
412,252,150218,1,0,0:0:0:0:
440,238,150297,1,0,0:0:0:0:
462,216,150376,1,2,0:0:0:0:
301,218,150533,1,2,0:0:0:0:
387,348,150691,5,2,0:0:0:0:
462,216,150849,1,2,0:0:0:0:
375,357,151007,1,2,0:0:0:0:
476,206,151165,1,2,0:0:0:0:
304,303,151323,5,2,0:0:0:0:
496,348,151481,1,2,0:0:0:0:
395,150,151639,1,2,0:0:0:0:
375,357,151797,1,2,0:0:0:0:
471,120,151954,6,0,P|430:78|340:87,1,137.5,8|8,0:0|0:0,0:0:0:0:
199,173,152428,2,0,P|232:168|275:175,1,68.75,0|8,0:0|0:0,0:0:0:0:
395,150,152744,1,0,0:0:0:0:
235,250,152902,1,8,0:0:0:0:
355,78,153060,1,0,0:0:0:0:
199,173,153218,6,0,B|149:183|99:172|99:172|130:145,1,137.5,8|8,0:0|0:0,0:0:0:0:
235,250,153691,2,0,P|241:287|241:323,1,68.75,0|8,0:0|0:0,0:0:0:0:
102,294,154007,1,0,0:0:0:0:
235,250,154165,2,8,L|318:256,1,68.75,8|0,0:0|0:0,0:0:0:0:
486,348,154481,6,0,L|403:354,1,68.75,8|0,0:0|0:0,0:0:0:0:
265,336,154797,1,8,0:0:0:0:
390,208,154954,2,0,P|399:243|399:282,1,68.75,0|8,0:0|0:0,0:0:0:0:
274,167,155270,1,0,0:0:0:0:
274,149,155349,1,0,0:0:0:0:
278,132,155428,1,8,0:0:0:0:
367,52,155586,1,0,0:0:0:0:
390,208,155744,5,8,0:0:0:0:
285,117,155902,1,0,0:0:0:0:
424,138,156060,1,8,0:0:0:0:
251,187,156218,1,0,0:0:0:0:
422,283,156376,2,0,P|452:260|468:229,1,68.75,8|0,0:0|0:0,0:0:0:0:
466,233,156612,1,0,0:0:0:0:
466,233,156691,1,8,0:0:0:0:
336,311,156849,1,0,0:0:0:0:
285,117,157007,6,0,P|248:108|211:119,1,68.75,8|0,0:0|0:0,0:0:0:0:
155,223,157323,1,8,0:0:0:0:
91,331,157481,2,0,P|57:337|25:329,2,68.75,0|8|0,0:0|0:0|0:0,0:0:0:0:
155,223,157954,1,8,0:0:0:0:
63,258,158112,1,0,0:0:0:0:
183,296,158270,5,8,0:0:0:0:
91,331,158428,1,0,0:0:0:0:
155,223,158586,1,8,0:0:0:0:
274,261,158744,1,0,0:0:0:0:
274,261,158902,2,0,P|276:203|272:114,1,137.5,8|8,0:0|0:0,0:0:0:0:
195,43,159376,1,0,0:0:0:0:
375,85,159533,6,0,P|407:76|444:57,1,68.75,8|0,0:0|0:0,0:0:0:0:
438,60,159770,1,0,0:0:0:0:
438,60,159849,1,8,0:0:0:0:
300,14,160007,1,0,0:0:0:0:
323,181,160165,1,8,0:0:0:0:
488,153,160323,1,0,0:0:0:0:
488,153,160402,1,0,0:0:0:0:
488,153,160481,2,0,L|484:227,1,68.75,8|0,0:0|0:0,0:0:0:0:
409,265,160718,1,0,0:0:0:0:
409,265,160797,6,0,L|404:226,3,38.4999988250733
422,351,161428,5,8,0:0:0:0:
384,140,161586,1,2,0:0:0:0:
384,140,161665,1,2,0:0:0:0:
384,140,161744,1,8,0:0:0:0:
488,273,161902,1,2,0:0:0:0:
133,133,162060,6,0,B|128:198|128:198|134:222|134:222|111:264|132:328,1,185.900003474846,4|0,1:0|0:0,0:0:0:0:
34,123,162533,1,8,0:0:0:0:
216,274,162691,2,0,P|262:264|308:266,1,92.950001737423,0|0,1:0|0:0,0:0:0:0:
475,132,163007,2,0,P|430:142|384:140,1,92.950001737423,8|0,0:0|0:0,0:0:0:0:
133,20,163323,6,0,P|72:76|133:133,1,185.900003474846,0|0,1:0|0:0,0:0:0:0:
262,236,163797,1,8,0:0:0:0:
191,78,163954,1,8,1:0:0:0:
180,311,164112,1,0,0:0:0:0:
296,131,164270,2,0,P|332:150|363:192,1,92.950001737423,8|0,0:0|0:0,0:0:0:0:
91,353,164586,6,0,L|97:243,1,92.950001737423,0|0,1:0|0:0,0:0:0:0:
275,336,164902,1,0,0:0:0:0:
296,131,165060,1,8,0:0:0:0:
272,351,165218,2,0,B|320:351|320:351|356:325,1,92.950001737423,0|0,1:0|0:0,0:0:0:0:
302,115,165533,2,0,B|254:115|254:115|212:144,1,92.950001737423,8|0,0:0|0:0,0:0:0:0:
424,272,165849,5,0,1:0:0:0:
346,92,166007,1,2,0:0:0:0:
294,272,166165,1,0,0:0:0:0:
437,123,166323,1,8,0:0:0:0:
481,363,166481,1,8,1:0:0:0:
357,192,166639,5,0,0:0:0:0:
357,192,166718,1,0,0:0:0:0:
357,192,166797,2,0,B|304:179|308:206|237:190,1,98.9999969787599,8|0,0:0|0:0,0:0:0:0:
235,95,167112,6,0,B|265:57|265:57|259:199,1,185.900003474846,0|0,1:0|0:0,0:0:0:0:
88,359,167586,2,0,P|70:318|81:260,1,92.950001737423,8|0,0:0|1:0,0:0:0:0:
235,95,167902,1,0,0:0:0:0:
150,305,168060,1,8,0:0:0:0:
120,77,168218,1,0,0:0:0:0:
253,231,168376,5,0,1:0:0:0:
39,196,168533,1,0,0:0:0:0:
235,95,168691,2,0,P|282:101|328:122,1,92.950001737423,0|8,0:0|0:0,0:0:0:0:
39,196,169007,2,0,P|31:154|40:104,1,92.950001737423,8|0,1:0|0:0,0:0:0:0:
253,231,169323,1,8,0:0:0:0:
64,274,169481,1,0,0:0:0:0:
300,345,169639,6,0,P|341:332|398:329,1,92.950001737423,0|0,1:0|0:0,0:0:0:0:
390,328,169876,1,0,0:0:0:0:
390,328,169954,1,0,0:0:0:0:
172,275,170112,2,8,P|162:233|174:180,1,92.950001737423,8|0,0:0|1:0,0:0:0:0:
308,40,170428,1,0,0:0:0:0:
274,229,170586,1,8,0:0:0:0:
447,190,170744,1,0,0:0:0:0:
172,185,170902,5,0,1:0:0:0:
398,333,171060,1,8,0:0:0:0:
304,68,171218,1,0,0:0:0:0:
240,339,171376,1,8,0:0:0:0:
447,190,171533,1,8,1:0:0:0:
450,161,171612,1,0,0:0:0:0:
446,132,171691,1,0,0:0:0:0:
436,105,171770,1,0,0:0:0:0:
419,81,171849,1,8,0:0:0:0:
341,257,172007,1,0,0:0:0:0:
214,15,172165,6,0,P|217:46|218:109,1,92.950001737423,0|0,1:0|0:0,0:0:0:0:
143,287,172481,1,0,0:0:0:0:
218,108,172639,1,8,0:0:0:0:
341,257,172797,1,0,1:0:0:0:
341,257,173112,5,8,0:0:0:0:
168,194,173270,1,0,0:0:0:0:
383,168,173428,6,0,L|481:174,1,92.950001737423,0|0,1:0|0:0,0:0:0:0:
355,65,173744,1,0,0:0:0:0:
359,271,173902,1,8,0:0:0:0:
168,194,174060,1,8,1:0:0:0:
168,194,174376,5,8,0:0:0:0:
229,381,174533,1,0,0:0:0:0:
224,135,174691,6,0,P|182:114|131:120,1,92.950001737423,0|0,1:0|0:0,0:0:0:0:
301,333,175007,1,0,0:0:0:0:
410,186,175165,1,8,0:0:0:0:
168,194,175323,1,0,1:0:0:0:
168,194,175639,5,8,0:0:0:0:
378,278,175797,1,0,0:0:0:0:
152,187,175954,1,0,1:0:0:0:
393,284,176112,2,0,P|394:240|404:178,1,92.950001737423,2|0,0:0|0:0,0:0:0:0:
496,371,176428,1,8,0:0:0:0:
288,231,176586,1,8,1:0:0:0:
489,258,176744,1,0,0:0:0:0:
489,258,176823,1,0,0:0:0:0:
489,258,176902,1,8,0:0:0:0:
392,96,177060,1,0,0:0:0:0:
336,348,177218,6,0,B|290:347|260:367|260:367|240:348|240:348|205:371|148:367,1,185.900003474846,0|0,1:0|0:0,0:0:0:0:
16,275,177691,1,8,0:0:0:0:
184,163,177849,2,0,L|179:256,1,92.950001737423,0|0,1:0|0:0,0:0:0:0:
33,108,178165,2,0,L|38:15,1,92.950001737423,8|0,0:0|0:0,0:0:0:0:
260,86,178481,5,0,1:0:0:0:
80,202,178639,1,0,0:0:0:0:
161,18,178797,1,0,0:0:0:0:
256,217,178954,1,8,0:0:0:0:
7,157,179112,2,0,P|-1:203|10:248,1,92.950001737423,8|0,1:0|0:0,0:0:0:0:
253,307,179428,2,0,P|264:262|256:217,1,92.950001737423,8|0,0:0|0:0,0:0:0:0:
161,18,179744,6,0,B|150:64|150:64|157:113,1,92.950001737423,0|0,1:0|0:0,0:0:0:0:
202,171,179981,1,0,0:0:0:0:
202,171,180060,1,0,0:0:0:0:
38,15,180218,2,0,L|33:108,1,92.950001737423,8|0,0:0|1:0,0:0:0:0:
144,284,180533,1,0,0:0:0:0:
236,70,180691,1,8,0:0:0:0:
32,140,180849,1,0,0:0:0:0:
257,217,181007,5,0,1:0:0:0:
18,247,181165,2,0,P|24:267|29:296,1,46.4750008687115,8|0,0:0|0:0,0:0:0:0:
147,140,181323,1,0,0:0:0:0:
143,375,181481,1,8,0:0:0:0:
257,217,181639,5,8,1:0:0:0:
274,217,181718,1,0,0:0:0:0:
291,218,181797,1,0,0:0:0:0:
309,218,181876,1,0,0:0:0:0:
329,218,181954,2,0,P|356:225|376:236,1,46.4750008687115,2|0,0:1|0:0,0:0:0:0:
439,140,182112,2,0,P|453:164|459:185,1,46.4750008687115,2|0,0:3|0:0,0:0:0:0:
176,348,182270,6,0,B|180:270|180:270|169:251|169:251|176:146,1,185.900003474846,4|0,1:0|0:0,0:0:0:0:
91,303,182744,1,8,0:0:0:0:
257,217,182902,2,0,L|263:116,1,92.950001737423,0|0,1:0|0:0,0:0:0:0:
85,210,183218,2,0,L|90:302,1,92.950001737423,8|0,0:0|0:0,0:0:0:0:
136,53,183533,6,0,B|90:44|90:44|41:57,1,92.950001737423,0|0,1:0|0:0,0:0:0:0:
257,217,183849,1,0,0:0:0:0:
226,19,184007,1,8,0:0:0:0:
187,263,184165,2,0,P|219:290|281:297,1,92.950001737423,8|0,1:0|0:0,0:0:0:0:
459,204,184481,2,0,B|476:249|476:249|467:300,1,92.950001737423,8|0,0:0|0:0,0:0:0:0:
281,86,184797,6,0,B|311:48|311:48|360:31,1,92.950001737423,0|0,1:0|0:0,0:0:0:0:
268,299,185112,2,0,B|220:291|220:291|180:257,1,92.950001737423,0|8,0:0|0:0,0:0:0:0:
412,117,185428,1,0,1:0:0:0:
366,301,185586,1,0,0:0:0:0:
229,170,185744,1,8,0:0:0:0:
331,194,185902,1,0,0:0:0:0:
109,317,186060,6,0,P|104:277|105:218,1,92.950001737423,0|2,1:0|0:0,0:0:0:0:
169,21,186376,1,0,0:0:0:0:
15,191,186533,1,8,0:0:0:0:
229,170,186691,1,8,1:0:0:0:
41,43,186849,1,0,0:0:0:0:
41,43,186928,1,0,0:0:0:0:
41,43,187007,1,8,0:0:0:0:
136,260,187165,1,0,0:0:0:0:
256,19,187323,6,0,B|396:23|396:23|357:62,1,185.900003474846,0|0,1:0|0:0,0:0:0:0:
128,135,187797,1,8,0:0:0:0:
339,245,187954,2,0,B|346:200|346:200|335:143,1,92.950001737423,0|0,1:0|0:0,0:0:0:0:
129,43,188270,2,0,B|121:90|121:90|128:135,1,92.950001737423,8|0,0:0|0:0,0:0:0:0:
250,330,188586,6,0,P|203:329|161:347,1,92.950001737423,0|0,1:0|0:0,0:0:0:0:
36,192,188902,1,0,0:0:0:0:
142,360,189060,1,8,0:0:0:0:
128,136,189218,2,0,P|172:128|226:138,1,92.950001737423,8|0,1:0|0:0,0:0:0:0:
436,260,189533,2,0,P|392:268|338:258,1,92.950001737423,8|0,0:0|0:0,0:0:0:0:
278,21,189849,5,0,1:0:0:0:
388,171,190007,1,0,0:0:0:0:
388,171,190086,1,0,0:0:0:0:
388,171,190165,1,0,0:0:0:0:
461,14,190323,1,8,0:0:0:0:
296,128,190481,2,0,B|287:173|287:173|299:223,1,92.950001737423,0|0,1:0|0:0,0:0:0:0:
432,366,190797,1,8,0:0:0:0:
388,171,190954,1,0,0:0:0:0:
270,312,191112,5,0,1:0:0:0:
508,289,191270,1,8,0:0:0:0:
171,271,191428,1,0,0:0:0:0:
432,245,191586,1,8,0:0:0:0:
84,323,191744,1,8,1:0:0:0:
69,291,191823,1,0,0:0:0:0:
69,256,191902,1,0,0:0:0:0:
81,224,191981,1,0,0:0:0:0:
105,199,192060,1,8,0:0:0:0:
174,371,192218,1,0,0:0:0:0:
218,93,192376,6,0,B|262:83|262:83|308:94,1,92.950001737423,0|0,1:0|0:0,0:0:0:0:
453,194,192691,1,0,0:0:0:0:
257,275,192849,1,8,0:0:0:0:
385,142,193007,1,0,1:0:0:0:
385,142,193323,5,8,0:0:0:0:
334,347,193481,1,0,0:0:0:0:
308,94,193639,6,0,P|305:47|297:-7,1,92.950001737423,0|0,1:0|0:0,0:0:0:0:
178,179,193954,1,0,0:0:0:0:
385,142,194112,1,8,0:0:0:0:
146,99,194270,1,8,1:0:0:0:
146,99,194586,5,8,0:0:0:0:
187,304,194744,1,0,0:0:0:0:
308,94,194902,6,0,P|309:52|316:0,1,92.950001737423,0|0,1:0|0:0,0:0:0:0:
302,246,195218,1,0,0:0:0:0:
223,48,195376,1,8,0:0:0:0:
187,304,195533,1,0,1:0:0:0:
187,304,195849,5,8,0:0:0:0:
308,94,196007,1,0,0:0:0:0:
78,232,196165,1,0,1:0:0:0:
302,246,196323,1,2,0:0:0:0:
201,80,196481,1,0,0:0:0:0:
187,304,196639,1,8,0:0:0:0:
375,160,196797,1,8,1:0:0:0:
400,355,196954,1,0,0:0:0:0:
400,355,197033,1,0,0:0:0:0:
400,355,197112,1,8,0:0:0:0:
232,195,197270,1,0,0:0:0:0:
493,256,197428,6,0,B|483:204|483:204|495:132|495:132|481:57,1,185.900003474846,0|0,1:0|0:0,0:0:0:0:
310,36,197902,1,8,0:0:0:0:
400,256,198060,2,0,P|446:252|493:256,1,92.950001737423,0|0,1:0|0:0,0:0:0:0:
217,366,198376,2,0,P|214:321|220:267,1,92.950001737423,8|0,0:0|0:0,0:0:0:0:
364,130,198691,5,0,1:0:0:0:
219,273,198849,1,0,0:0:0:0:
403,346,199007,2,0,B|411:301|411:301|400:256,1,92.950001737423,0|8,0:0|0:0,0:0:0:0:
235,49,199323,2,0,B|223:94|223:94|231:139,1,92.950001737423,8|0,1:0|0:0,0:0:0:0:
320,305,199639,1,8,0:0:0:0:
158,203,199797,1,0,0:0:0:0:
364,130,199954,6,0,P|413:129|480:137,1,92.950001737423,0|0,1:0|0:0,0:0:0:0:
456,132,200191,1,0,0:0:0:0:
456,132,200270,1,0,0:0:0:0:
313,26,200428,1,8,0:0:0:0:
320,305,200586,2,0,P|249:303|223:191,1,185.900003474846,0|8,1:0|0:0,0:0:0:0:
431,295,201060,1,0,0:0:0:0:
313,26,201218,5,0,1:0:0:0:
289,234,201376,1,8,0:0:0:0:
231,9,201533,1,0,0:0:0:0:
359,266,201691,1,8,0:0:0:0:
143,90,201849,1,8,1:0:0:0:
109,122,201928,1,0,0:0:0:0:
95,165,202007,1,0,0:0:0:0:
103,211,202086,1,0,0:0:0:0:
132,247,202165,1,8,0:0:0:0:
259,85,202323,1,0,0:0:0:0:
279,362,202481,6,0,P|233:368|176:358,1,92.950001737423,6|2,1:2|0:0,0:0:0:0:
115,340,202718,1,0,0:0:0:0:
97,332,202797,1,2,0:0:0:0:
3,164,202954,2,0,P|49:158|95:165,1,92.950001737423,2|0,0:0|0:0,0:0:0:0:
234,281,203270,1,2,0:0:0:0:
216,278,203349,1,0,0:0:0:0:
199,275,203428,1,2,0:0:0:0:
54,237,203586,1,2,0:0:0:0:
333,188,203744,6,0,B|348:230|348:230|342:324,1,139.425002606134,10|0,0:1|0:0,0:0:0:0:
339,362,204060,1,2,1:2:0:0:
252,205,204218,2,0,P|256:160|297:113,1,92.950001737423,2|0,0:0|0:0,0:0:0:0:
465,245,204533,1,2,0:0:0:0:
333,188,204691,1,2,0:0:0:0:
500,178,204849,1,2,0:0:0:0:
283,122,205007,6,0,P|235:126|187:134,1,92.950001737423,0|0,1:0|0:0,0:0:0:0:
65,224,205323,1,2,0:0:0:0:
180,41,205481,2,0,P|187:86|191:133,1,92.950001737423,2|0,0:0|0:0,0:0:0:0:
70,304,205797,1,2,0:0:0:0:
37,303,205876,1,2,0:0:0:0:
11,282,205954,2,0,P|14:315|14:349,1,46.4750008687115,2|0,0:0|0:0,0:0:0:0:
69,141,206112,2,0,P|69:117|72:94,1,46.4750008687115,2|0,0:0|0:0,0:0:0:0:
239,328,206270,6,0,B|191:339|191:339|141:326,1,92.950001737423,10|0,0:1|0:0,0:0:0:0:
191,133,206586,1,2,0:0:0:0:
239,328,206744,1,2,0:0:0:0:
281,132,206902,2,0,B|238:121|238:121|190:132,1,92.950001737423,0|2,0:0|0:0,0:0:0:0:
191,133,207139,1,0,0:0:0:0:
191,133,207218,1,2,0:0:0:0:
11,282,207376,1,0,0:0:0:0:
238,206,207533,5,4,1:2:0:0:
26,197,207691,2,0,L|89:200,1,46.4750008687115,2|0,0:0|0:0,0:0:0:0:
267,211,207849,1,2,0:0:0:0:
126,82,208007,1,2,0:0:0:0:
154,319,208165,5,0,1:0:0:0:
281,132,208323,1,0,0:0:0:0:
281,132,208402,2,0,L|234:137,1,46.4750008687115,0|0,3:0|0:0,0:0:0:0:
324,290,208560,1,0,0:0:0:0:
324,290,208639,2,0,L|384:283,1,46.4750008687115,0|0,3:0|0:0,0:0:0:0:
331,55,208797,6,0,B|288:43|288:43|188:56,1,139.425002606134,10|0,0:1|0:0,0:0:0:0:
158,63,209112,1,2,1:2:0:0:
274,224,209270,2,0,P|279:178|281:132,1,92.950001737423,2|0,0:0|0:0,0:0:0:0:
160,199,209586,1,2,0:0:0:0:
324,290,209744,1,2,0:0:0:0:
117,318,209902,1,2,0:0:0:0:
378,370,210060,6,0,P|416:313|351:197,1,185.900003474846,2|2,1:2|0:0,0:0:0:0:
193,59,210533,1,2,1:2:0:0:
193,83,210612,1,0,1:0:0:0:
194,108,210691,1,0,1:0:0:0:
324,290,210849,1,2,0:0:0:0:
302,262,210928,1,0,0:0:0:0:
273,244,211007,1,2,3:2:0:0:
239,237,211086,1,0,0:0:0:0:
204,243,211165,1,2,0:0:0:0:
18,79,211323,6,0,P|57:91|114:91,1,92.950001737423,10|0,0:1|0:0,0:0:0:0:
279,75,211639,1,2,0:0:0:0:
96,182,211797,2,0,P|96:136|109:92,1,92.950001737423,2|0,0:0|0:0,0:0:0:0:
182,285,212112,1,2,0:0:0:0:
182,285,212191,1,0,0:0:0:0:
186,288,212270,1,2,0:0:0:0:
75,303,212428,1,0,0:0:0:0:
188,155,212586,6,0,L|289:161,1,98.9999969787599,2|0,0:0|0:0,0:0:0:0:
272,247,213060,2,0,L|370:241,1,98.9999969787599,2|0,0:0|0:0,0:0:0:0:
405,157,213533,1,2,0:0:0:0:
188,155,213849,6,0,P|174:111|194:59,1,98.9999969787599,2|0,0:0|0:0,0:0:0:0:
286,160,214323,2,0,L|188:155,1,98.9999969787599,2|0,0:0|0:0,0:0:0:0:
88,108,214797,1,2,0:0:0:0:
287,161,215112,6,0,B|296:211|296:211|285:270,1,98.9999969787599,2|0,0:0|0:0,0:0:0:0:
190,259,215586,2,0,B|240:250|240:250|299:261,1,98.9999969787599,2|0,0:0|0:0,0:0:0:0:
239,348,216060,1,2,0:0:0:0:
190,259,216218,1,2,0:0:0:0:
138,346,216376,1,2,0:0:0:0:
239,348,216533,6,0,P|266:346|297:348,1,49.4999984893799,2|0,0:0|0:0,0:0:0:0:
388,370,216849,2,0,P|411:332|424:269,1,98.9999969787599,2|0,0:0|0:0,0:0:0:0:
381,177,217323,1,2,0:0:0:0:
