osu file format v12

[General]
AudioFilename: REGINA - HARMONY.mp3
AudioLeadIn: 2700
PreviewTime: 48446
Countdown: 0
SampleSet: None
StackLeniency: 0.7
Mode: 0
LetterboxInBreaks: 0
WidescreenStoryboard: 1

[Editor]
Bookmarks: 365,13865,25865,37865,49865,61865,85865,97865,108177
DistanceSpacing: 1
BeatDivisor: 2
GridSize: 8

[Metadata]
Title:HARMONY
TitleUnicode:HARMONY
Artist:REGINA
ArtistUnicode:REGINA
Creator:Nyar
Version:nyArMONY AR8
Source:beatmaniaIIDX11 IIDXRED
Tags:
BeatmapID:285061
BeatmapSetID:109170

[Difficulty]
HPDrainRate:7
CircleSize:4
OverallDifficulty:7
ApproachRate:8
SliderMultiplier:2
SliderTickRate:4

[Events]
//Background and Video events
0,0,"bg.jpg",0,0
//Break Periods
//Storyboard Layer 0 (Background)
//Storyboard Layer 1 (Fail)
//Storyboard Layer 2 (Pass)
//Storyboard Layer 3 (Foreground)
//Storyboard Sound Samples
//Background Colour Transformations
3,100,163,162,255

[TimingPoints]
360,375,4,1,1,50,1,0
547,-100,4,1,1,50,0,0
1672,-200,4,1,1,50,0,0
1860,-100,4,1,1,50,0,0
2797,-200,4,1,1,50,0,0
3172,-100,4,1,1,50,0,0
4672,-200,4,1,1,50,0,0
4860,-100,4,1,1,50,0,0
5985,-100,4,1,1,60,0,0
6172,3000,4,1,1,50,1,0
11984,-100,4,1,1,40,0,0
13485,-100,4,2,0,5,0,0
13672,-100,4,1,1,60,0,0
13860,375,4,1,1,60,1,0
14797,-100,4,2,1,60,0,0
14891,-100,4,1,1,60,0,0
17797,-100,4,2,1,60,0,0
17891,-100,4,1,1,60,0,0
23516,-100,4,2,1,60,0,0
23610,-100,4,1,1,60,0,0
23797,-100,4,2,1,60,0,0
23891,-100,4,1,1,60,0,0
25297,-66.6666666666667,4,1,1,60,0,0
25672,-66.6666666666667,4,2,2,100,0,0
25860,-100,4,1,1,60,0,0
31391,-100,4,3,1,60,0,0
31485,-100,4,1,1,60,0,0
48547,-100,4,2,2,100,0,0
49485,-100,4,1,1,60,0,0
51735,-100,4,3,1,60,0,0
51828,-100,4,1,1,60,0,0
72547,-100,4,2,2,100,0,0
73860,-100,4,1,1,60,0,0
74797,-100,4,2,1,60,0,0
74891,-100,4,1,1,60,0,0
77797,-100,4,2,1,60,0,0
77891,-100,4,1,1,60,0,0
83516,-100,4,2,1,60,0,0
83610,-100,4,1,1,60,0,0
83797,-100,4,2,1,60,0,0
83891,-100,4,1,1,60,0,0
84547,-100,4,2,2,100,0,0
85485,-100,4,1,1,60,0,0
87735,-100,4,3,1,60,0,0
87828,-100,4,1,1,60,0,0
108922,-100,4,1,1,50,0,0
109860,-100,4,1,1,40,0,0
109953,-100,4,1,1,30,0,0
112485,-100,4,1,1,22,0,0
112672,-100,4,1,1,21,0,0
112860,-100,4,1,1,20,0,0
113047,-100,4,1,1,19,0,0
113235,-100,4,1,1,18,0,0
113422,-100,4,1,1,17,0,0
113610,-100,4,1,1,16,0,0
113797,-100,4,1,1,15,0,0
113985,-100,4,1,1,14,0,0
114172,-100,4,1,1,13,0,0
114360,-100,4,1,1,12,0,0
114547,-100,4,1,1,11,0,0
114735,-100,4,1,1,10,0,0
114922,-100,4,1,1,9,0,0
115110,-100,4,1,1,8,0,0
115297,-100,4,1,1,7,0,0
115485,-100,4,1,1,6,0,0
115672,-100,4,2,1,5,0,0

[HitObjects]
41,256,360,5,4,0:2:0:0:
139,268,547,1,0,0:0:0:0:
204,117,735,5,2,0:0:0:0:
224,215,922,1,0,0:0:0:0:
359,78,1110,5,0,0:0:0:0:
268,40,1297,1,0,0:0:0:0:
441,21,1485,1,2,0:0:0:0:
361,154,1672,6,0,L|361:104,1,50,0|0,0:0|0:0,0:0:0:0:
456,243,2047,1,0,0:0:0:0:
367,325,2235,1,2,0:0:0:0:
269,254,2422,1,0,0:0:0:0:
269,254,2797,6,0,L|261:303,2,50,4|2|0,0:2|0:0|0:0,0:0:0:0:
168,343,3360,1,4,0:2:0:0:
124,168,3547,1,0,0:0:0:0:
14,156,3735,1,2,0:0:0:0:
51,311,3922,5,0,0:0:0:0:
151,308,4110,1,0,0:0:0:0:
242,230,4297,1,0,0:0:0:0:
361,240,4485,1,2,0:0:0:0:
431,356,4672,2,0,L|433:306,1,50,0|0,0:0|0:0,0:0:0:0:
450,100,5047,5,0,0:0:0:0:
454,200,5235,1,2,0:0:0:0:
457,298,5422,1,0,0:0:0:0:
457,298,5797,5,0,0:0:0:0:
495,51,5985,1,6,0:0:0:0:
497,150,6172,2,0,P|379:287|246:181,1,387.5,4|4,0:0|0:0,0:0:0:0:
256,192,12172,12,0,13672,0:0:0:0:
5,237,13860,6,0,L|11:135,1,100,4|2,0:0|0:0,0:0:0:0:
120,87,14141,2,0,L|114:189,1,100,8|0,0:0|0:0,0:0:0:0:
209,289,14422,2,0,L|214:189,1,100,10|0,0:0|0:0,0:0:0:0:
319,67,14703,2,0,L|313:169,1,100,0|8,0:0|0:0,0:0:0:0:
382,333,15078,5,0,0:0:0:0:
385,303,15172,1,10,0:0:0:0:
387,272,15266,1,2,0:0:0:0:
390,241,15360,2,0,L|489:227,1,100,0|2,0:0|0:0,0:0:0:0:
489,227,15641,1,8,0:0:0:0:
477,32,15828,1,0,0:0:0:0:
477,31,15922,2,0,L|464:131,1,100,10|0,0:0|0:0,0:0:0:0:
399,169,16203,5,0,0:0:0:0:
378,170,16297,1,10,0:0:0:0:
357,172,16391,1,10,0:0:0:0:
336,174,16485,1,4,0:0:0:0:
354,219,16578,1,8,0:0:0:0:
365,267,16672,1,2,0:0:0:0:
362,317,16766,1,8,0:0:0:0:
347,364,16860,2,0,L|248:357,1,100,4|2,0:0|0:0,0:0:0:0:
178,211,17141,2,0,L|277:218,1,100,8|0,0:0|0:0,0:0:0:0:
185,295,17422,2,0,L|86:288,1,100,10|0,0:0|0:0,0:0:0:0:
16,142,17703,2,0,L|115:149,1,100,0|10,0:0|0:0,0:0:0:0:
284,60,18078,5,0,0:0:0:0:
253,58,18172,1,10,0:0:0:0:
222,56,18266,1,0,0:0:0:0:
191,55,18360,2,0,L|200:154,1,100,0|2,0:0|0:0,0:0:0:0:
309,251,18641,2,0,L|300:152,1,100,8|0,0:0|0:0,0:0:0:0:
359,105,18922,5,10,0:0:0:0:
378,127,19016,1,8,0:0:0:0:
397,150,19110,1,0,0:0:0:0:
435,118,19203,1,8,0:0:0:0:
440,68,19297,1,6,0:0:0:0:
415,24,19391,1,2,0:0:0:0:
366,9,19485,1,8,0:0:0:0:
318,23,19578,1,0,0:0:0:0:
273,45,19672,1,10,0:0:0:0:
222,48,19766,1,10,0:0:0:0:
172,42,19860,2,0,L|177:141,1,100,4|2,0:0|0:0,0:0:0:0:
44,232,20141,2,0,L|49:133,1,100,8|0,0:0|0:0,0:0:0:0:
49,133,20422,1,10,0:0:0:0:
131,353,20610,5,0,0:0:0:0:
130,323,20703,1,0,0:0:0:0:
129,295,20797,1,2,0:0:0:0:
128,265,20891,2,0,L|227:275,1,100,10|2,0:0|0:0,0:0:0:0:
255,345,21172,1,8,0:0:0:0:
294,342,21266,1,2,0:0:0:0:
334,340,21360,2,0,L|346:240,1,100,0|2,0:0|0:0,0:0:0:0:
413,205,21641,2,0,L|425:105,1,100,10|0,0:0|0:0,0:0:0:0:
372,53,21922,1,10,0:0:0:0:
335,211,22110,5,0,0:0:0:0:
293,237,22203,1,8,0:0:0:0:
243,242,22297,1,2,0:0:0:0:
194,229,22391,1,2,0:0:0:0:
162,189,22485,1,12,0:0:0:0:
159,139,22578,1,2,0:0:0:0:
181,94,22672,1,0,0:0:0:0:
229,102,22766,1,10,0:0:0:0:
278,110,22860,2,0,L|266:10,1,100,4|10,0:0|0:0,0:0:0:0:
423,100,23141,2,0,L|406:198,1,100,2|8,0:0|0:0,0:0:0:0:
339,353,23422,2,0,L|335:254,1,100,2|8,0:0|0:0,0:0:0:0:
245,298,23703,2,0,L|237:198,1,100,0|10,0:0|0:0,0:0:0:0:
176,152,23985,5,4,0:0:0:0:
176,142,24078,1,0,0:0:0:0:
177,131,24172,1,10,0:0:0:0:
178,120,24266,1,10,0:0:0:0:
178,109,24360,1,4,0:0:0:0:
131,125,24453,1,10,0:0:0:0:
103,167,24547,1,0,0:0:0:0:
97,216,24641,1,0,0:0:0:0:
111,264,24735,2,0,L|160:261,1,50,10|0,0:0|0:0,0:0:0:0:
268,206,24922,5,14,0:0:0:0:
265,235,25016,1,10,0:0:0:0:
262,265,25110,1,0,0:0:0:0:
260,294,25203,1,8,0:0:0:0:
257,323,25297,2,0,P|387:242|346:125,1,300.000011444092,4|2,0:0|0:0,0:0:0:0:
119,199,25860,6,0,P|114:149|111:99,1,100,4|0,0:0|0:0,0:0:0:0:
357,47,26235,2,0,P|353:97|348:147,1,100,8|2,0:0|0:0,0:0:0:0:
243,268,26610,5,0,0:0:0:0:
161,180,26797,1,0,0:0:0:0:
314,87,26985,2,0,P|263:90|216:96,1,100,8|2,0:0|0:0,0:0:0:0:
341,254,27360,2,0,P|390:242|436:228,1,100,0|0,0:0|0:0,0:0:0:0:
242,40,27735,6,0,P|229:89|219:136,1,100,8|2,0:0|0:0,0:0:0:0:
196,235,28110,1,0,0:0:0:0:
311,175,28297,1,0,0:0:0:0:
118,128,28485,2,0,P|66:131|18:140,1,100,8|2,0:0|0:0,0:0:0:0:
123,248,28860,1,0,0:0:0:0:
118,128,29047,1,14,0:0:0:0:
38,318,29235,5,2,0:0:0:0:
185,338,29422,1,0,0:0:0:0:
333,159,29610,1,10,0:0:0:0:
205,180,29797,1,4,0:0:0:0:
226,309,29985,1,2,0:0:0:0:
106,80,30172,5,10,0:0:0:0:
205,180,30360,1,0,0:0:0:0:
264,31,30547,2,0,P|314:37|363:48,1,100,14|2,0:0|0:0,0:0:0:0:
448,206,30922,2,0,P|400:220|351:228,1,100,0|10,0:0|0:0,0:0:0:0:
128,191,31297,2,0,P|191:123|285:151,1,200,6|10,0:0|0:0,0:0:0:0:
239,325,31860,5,4,0:0:0:0:
319,383,32047,1,0,0:0:0:0:
379,192,32235,2,0,P|390:243|397:291,1,100,8|2,0:0|0:0,0:0:0:0:
144,354,32610,2,0,P|149:302|157:254,1,100
399,341,32985,2,0,L|299:331,1,100,8|2,0:0|0:0,0:0:0:0:
71,300,33360,5,0,0:0:0:0:
201,227,33547,1,0,0:0:0:0:
2,166,33735,2,0,P|51:159|101:155,1,100,8|2,0:0|0:0,0:0:0:0:
274,323,34110,2,0,P|224:321|174:314,1,100,0|0,0:0|0:0,0:0:0:0:
426,189,34485,2,0,L|435:288,1,100,8|2,0:0|0:0,0:0:0:0:
313,358,34860,5,0,0:0:0:0:
261,272,35047,1,14,0:0:0:0:
287,175,35235,1,2,0:0:0:0:
368,117,35422,1,0,0:0:0:0:
467,126,35610,1,8,0:0:0:0:
396,236,35797,5,6,0:0:0:0:
256,62,35985,1,0,0:0:0:0:
454,4,36172,1,10,0:0:0:0:
261,216,36360,5,0,0:0:0:0:
512,138,36547,2,0,P|513:188|508:237,1,100,14|2,0:0|0:0,0:0:0:0:
380,384,36922,2,0,P|374:334|371:285,1,100,0|8,0:0|0:0,0:0:0:0:
403,66,37297,5,6,0:0:0:0:
292,54,37485,1,8,0:0:0:0:
183,42,37672,1,10,0:0:0:0:
183,42,37766,1,10,0:0:0:0:
183,42,37860,2,0,P|186:91|188:141,1,100,4|0,0:0|0:0,0:0:0:0:
50,258,38235,2,0,P|39:210|29:161,1,100,8|2,0:0|0:0,0:0:0:0:
213,239,38610,5,0,0:0:0:0:
142,335,38797,1,0,0:0:0:0:
152,135,38985,2,0,P|158:86|172:37,1,100,8|2,0:0|0:0,0:0:0:0:
400,76,39360,2,0,P|350:81|301:90,1,100
246,308,39735,2,0,P|298:313|345:312,1,100,8|2,0:0|0:0,0:0:0:0:
401,217,40110,5,0,0:0:0:0:
246,308,40297,1,0,0:0:0:0:
162,135,40485,2,0,P|154:186|150:235,1,100,8|2,0:0|0:0,0:0:0:0:
261,189,40860,5,0,0:0:0:0:
366,295,41047,1,14,0:0:0:0:
456,105,41235,2,0,P|472:149|485:199,1,100,0|0,0:0|0:0,0:0:0:0:
359,166,41610,5,10,0:0:0:0:
200,270,41797,1,4,0:0:0:0:
159,33,41985,2,0,P|143:81|134:129,1,100,2|10,0:0|0:0,0:0:0:0:
105,326,42360,5,0,0:0:0:0:
76,211,42547,1,14,0:0:0:0:
257,152,42735,1,0,0:0:0:0:
243,340,42922,1,0,0:0:0:0:
177,212,43110,5,10,0:0:0:0:
352,179,43297,1,4,0:0:0:0:
416,292,43485,1,10,0:0:0:0:
512,205,43672,1,2,0:0:0:0:
512,205,43766,1,10,0:0:0:0:
512,205,43860,2,0,P|441:143|352:178,1,200,4|8,0:0|0:0,0:0:0:0:
287,348,44422,5,2,0:0:0:0:
280,249,44610,1,0,0:0:0:0:
92,274,44797,2,0,P|136:288|189:291,1,100,4|8,0:0|0:0,0:0:0:0:
22,360,45172,1,2,0:0:0:0:
22,360,45266,1,0,0:0:0:0:
22,360,45360,2,0,P|64:273|32:178,1,200,4|8,0:0|0:0,0:0:0:0:
256,153,45922,5,2,0:0:0:0:
149,209,46110,1,0,0:0:0:0:
126,23,46297,2,0,P|177:26|224:36,1,100,4|8,0:0|0:0,0:0:0:0:
52,149,46672,1,2,0:0:0:0:
113,316,46860,5,12,0:0:0:0:
159,333,46953,1,0,0:0:0:0:
208,338,47047,1,2,0:0:0:0:
257,327,47141,1,10,0:0:0:0:
292,291,47235,1,0,0:0:0:0:
306,243,47328,1,0,0:0:0:0:
307,192,47422,1,14,0:0:0:0:
282,148,47516,1,0,0:0:0:0:
243,116,47610,1,0,0:0:0:0:
193,108,47703,1,8,0:0:0:0:
145,124,47797,1,6,0:0:0:0:
153,173,47891,1,2,0:0:0:0:
166,220,47985,1,8,0:0:0:0:
166,220,48078,1,0,0:0:0:0:
166,220,48172,1,14,0:0:0:0:
333,62,48547,5,2,0:0:0:0:
412,55,48922,1,2,0:0:0:0:
492,48,49297,1,2,0:0:0:0:
278,282,49485,5,10,0:0:0:0:
274,242,49578,1,2,0:0:0:0:
271,201,49672,1,14,0:0:0:0:
267,160,49766,1,10,0:0:0:0:
264,120,49860,2,0,L|363:132,1,100,4|0,0:0|0:0,0:0:0:0:
150,174,50235,2,0,P|139:121|135:75,1,100,8|2,0:0|0:0,0:0:0:0:
402,112,50610,5,0,0:0:0:0:
340,220,50797,1,0,0:0:0:0:
264,120,50985,2,0,P|269:68|272:20,1,100,8|2,0:0|0:0,0:0:0:0:
176,210,51360,1,0,0:0:0:0:
62,157,51547,2,0,P|81:69|177:69,1,200,0|2,0:0|0:0,0:0:0:0:
260,333,52110,5,0,0:0:0:0:
265,238,52297,1,0,0:0:0:0:
270,142,52485,1,8,0:0:0:0:
275,48,52672,1,2,0:0:0:0:
453,73,52860,5,4,0:0:0:0:
376,152,53047,1,10,0:0:0:0:
180,120,53235,2,0,P|227:108|278:100,1,100,0|4,0:0|0:0,0:0:0:0:
154,227,53610,5,10,0:0:0:0:
307,271,53797,1,0,0:0:0:0:
173,359,53985,2,0,P|223:368|274:371,1,100,6|10,0:0|0:0,0:0:0:0:
402,319,54360,5,4,0:0:0:0:
324,227,54547,1,10,0:0:0:0:
480,147,54735,2,0,P|433:138|382:133,1,100,0|4,0:0|0:0,0:0:0:0:
202,160,55110,5,10,0:0:0:0:
250,149,55203,1,0,0:0:0:0:
296,168,55297,1,2,0:0:0:0:
312,215,55391,1,10,0:0:0:0:
302,264,55485,1,4,0:0:0:0:
262,293,55578,1,0,0:0:0:0:
212,287,55672,1,10,0:0:0:0:
162,279,55766,1,0,0:0:0:0:
113,267,55860,2,0,P|106:216|101:167,1,100,4|0,0:0|0:0,0:0:0:0:
184,18,56235,6,0,P|235:24|282:32,1,100,8|2,0:0|0:0,0:0:0:0:
325,144,56610,1,0,0:0:0:0:
252,226,56797,1,0,0:0:0:0:
132,100,56985,2,0,P|135:151|144:200,1,100,8|2,0:0|0:0,0:0:0:0:
320,362,57360,2,0,P|330:312|335:263,1,100,4|0,0:0|0:0,0:0:0:0:
105,322,57735,2,0,L|205:314,1,100,8|2,0:0|0:0,0:0:0:0:
439,263,58110,5,0,0:0:0:0:
343,175,58297,1,0,0:0:0:0:
503,90,58485,2,0,P|453:84|404:83,1,100,8|2,0:0|0:0,0:0:0:0:
277,22,58860,5,12,0:0:0:0:
277,30,58953,1,0,0:0:0:0:
277,40,59047,1,2,0:0:0:0:
278,50,59141,1,10,0:0:0:0:
279,60,59235,1,0,0:0:0:0:
279,69,59328,1,0,0:0:0:0:
280,79,59422,1,14,0:0:0:0:
280,89,59516,1,0,0:0:0:0:
281,99,59610,1,0,0:0:0:0:
281,108,59703,1,8,0:0:0:0:
282,118,59797,1,2,0:0:0:0:
282,128,59891,1,0,0:0:0:0:
283,138,59985,1,12,0:0:0:0:
283,147,60078,1,0,0:0:0:0:
284,157,60172,2,0,L|230:149,1,50,10|8,0:0|0:0,0:0:0:0:
50,114,60360,5,4,0:0:0:0:
54,64,60453,1,10,0:0:0:0:
81,22,60547,1,2,0:0:0:0:
129,9,60641,1,0,0:0:0:0:
176,24,60735,1,10,0:0:0:0:
201,66,60828,1,0,0:0:0:0:
197,116,60922,1,6,0:0:0:0:
175,162,61016,1,10,0:0:0:0:
139,197,61110,1,0,0:0:0:0:
188,190,61203,1,2,0:0:0:0:
237,196,61297,1,10,0:0:0:0:
286,200,61391,1,0,0:0:0:0:
335,194,61485,2,0,L|326:243,1,50,14|0,0:0|0:0,0:0:0:0:
386,350,61672,2,0,L|395:300,1,50,10|10,0:0|0:0,0:0:0:0:
477,278,61860,2,0,P|473:229|466:178,1,100,4|0,0:0|0:0,0:0:0:0:
263,247,62235,6,0,L|363:241,1,100,8|2,0:0|0:0,0:0:0:0:
201,327,62610,1,0,0:0:0:0:
111,194,62797,1,0,0:0:0:0:
17,349,62985,2,0,P|9:298|5:250,1,100,8|2,0:0|0:0,0:0:0:0:
43,68,63360,6,0,P|145:79|241:94,1,200,0|8,0:0|0:0,0:0:0:0:
433,36,63922,1,2,0:0:0:0:
303,185,64110,1,0,0:0:0:0:
320,17,64297,1,0,0:0:0:0:
422,180,64485,2,0,P|428:232|428:279,1,100,8|2,0:0|0:0,0:0:0:0:
310,356,64860,5,4,0:0:0:0:
218,224,65047,1,10,0:0:0:0:
108,341,65235,2,0,P|96:289|91:243,1,100,2|4,0:0|0:0,0:0:0:0:
201,379,65610,5,10,0:0:0:0:
313,168,65797,1,2,0:0:0:0:
424,310,65985,2,8,P|429:259|432:210,1,100,4|10,0:0|0:0,0:0:0:0:
333,258,66360,5,4,0:0:0:0:
253,63,66547,1,10,0:0:0:0:
100,154,66735,2,0,P|151:159|200:160,1,100,2|4,0:0|0:0,0:0:0:0:
420,136,67110,5,10,0:0:0:0:
418,154,67203,1,0,0:0:0:0:
416,174,67297,1,2,0:0:0:0:
414,194,67391,1,10,0:0:0:0:
413,214,67485,1,4,0:0:0:0:
369,191,67578,1,0,0:0:0:0:
342,148,67672,1,10,0:0:0:0:
340,97,67766,1,0,0:0:0:0:
356,49,67860,2,0,P|262:67|157:69,1,200,4|8,0:0|0:0,0:0:0:0:
19,48,68422,5,2,0:0:0:0:
67,221,68610,1,0,0:0:0:0:
240,169,68797,2,0,P|193:164|141:162,1,100,0|8,0:0|0:0,0:0:0:0:
283,281,69172,1,2,0:0:0:0:
388,85,69360,2,0,P|446:156|393:233,1,200,4|8,0:0|0:0,0:0:0:0:
284,46,69922,5,2,0:0:0:0:
295,185,70110,1,0,0:0:0:0:
190,126,70297,1,0,0:0:0:0:
201,265,70485,2,0,P|203:318|209:372,1,100,8|2,0:0|0:0,0:0:0:0:
423,305,70860,5,12,0:0:0:0:
408,306,70953,1,2,0:0:0:0:
392,306,71047,1,0,0:0:0:0:
376,307,71141,1,8,0:0:0:0:
360,308,71235,1,2,0:0:0:0:
345,309,71328,1,0,0:0:0:0:
329,310,71422,1,14,0:0:0:0:
314,311,71516,1,2,0:0:0:0:
298,311,71610,1,0,0:0:0:0:
279,265,71703,1,10,0:0:0:0:
285,215,71797,1,0,0:0:0:0:
318,177,71891,1,0,0:0:0:0:
365,161,71985,1,14,0:0:0:0:
412,176,72078,1,2,0:0:0:0:
442,217,72172,1,10,0:0:0:0:
208,355,72547,5,2,0:0:0:0:
128,352,72922,1,2,0:0:0:0:
49,350,73297,1,2,0:0:0:0:
23,180,73860,6,0,L|10:279,1,100,4|2,0:0|0:0,0:0:0:0:
199,234,74141,2,0,L|99:242,1,100,8|0,0:0|0:0,0:0:0:0:
183,50,74422,2,8,L|170:149,1,100,10|0,0:0|0:0,0:0:0:0:
0,92,74703,2,0,L|99:83,1,100,0|8,0:0|0:0,0:0:0:0:
328,112,75078,5,0,0:0:0:0:
324,82,75172,1,10,0:0:0:0:
321,52,75266,1,2,0:0:0:0:
317,23,75360,2,0,P|368:28|416:34,1,100,0|2,0:0|0:0,0:0:0:0:
416,34,75641,1,8,0:0:0:0:
452,222,75828,1,0,0:0:0:0:
452,222,75922,2,0,P|459:174|460:123,1,100,10|0,0:0|0:0,0:0:0:0:
386,155,76203,5,0,0:0:0:0:
365,153,76297,1,10,0:0:0:0:
344,151,76391,1,10,0:0:0:0:
323,149,76485,1,4,0:0:0:0:
285,181,76578,1,8,0:0:0:0:
272,229,76672,1,2,0:0:0:0:
284,277,76766,1,8,0:0:0:0:
321,310,76860,2,0,P|270:308|221:307,1,100,4|2,0:0|0:0,0:0:0:0:
82,227,77141,2,0,P|132:223|181:220,1,100,8|0,0:0|0:0,0:0:0:0:
352,157,77422,2,0,P|301:152|253:149,1,100,10|0,0:0|0:0,0:0:0:0:
52,73,77703,2,0,P|103:67|152:62,1,100,0|10,0:0|0:0,0:0:0:0:
330,18,78078,5,0,0:0:0:0:
299,15,78172,1,10,0:0:0:0:
268,14,78266,1,0,0:0:0:0:
238,12,78360,2,0,P|238:63|240:111,1,100,0|2,0:0|0:0,0:0:0:0:
327,235,78641,2,0,P|338:185|346:137,1,100,8|0,0:0|0:0,0:0:0:0:
416,110,78922,5,10,0:0:0:0:
437,125,79016,1,8,0:0:0:0:
463,143,79110,1,0,0:0:0:0:
455,192,79203,1,8,0:0:0:0:
426,233,79297,1,6,0:0:0:0:
377,246,79391,1,2,0:0:0:0:
328,235,79485,1,8,0:0:0:0:
289,203,79578,1,0,0:0:0:0:
245,178,79672,1,10,0:0:0:0:
195,172,79766,1,10,0:0:0:0:
146,184,79860,2,0,P|152:133|158:84,1,100,4|2,0:0|0:0,0:0:0:0:
63,117,80141,2,0,L|56:17,1,100,8|0,0:0|0:0,0:0:0:0:
56,17,80422,1,10,0:0:0:0:
17,249,80610,5,0,0:0:0:0:
45,245,80703,1,0,0:0:0:0:
75,241,80797,1,2,0:0:0:0:
105,238,80891,2,0,P|101:287|97:337,1,100,10|2,0:0|0:0,0:0:0:0:
186,384,81172,1,8,0:0:0:0:
189,345,81266,1,2,0:0:0:0:
191,305,81360,2,0,P|242:297|291:293,1,100,0|2,0:0|0:0,0:0:0:0:
499,372,81641,2,0,L|400:365,1,100,10|0,0:0|0:0,0:0:0:0:
325,359,81922,1,10,0:0:0:0:
429,211,82110,5,0,0:0:0:0:
389,241,82203,1,8,0:0:0:0:
339,248,82297,1,2,0:0:0:0:
289,237,82391,1,2,0:0:0:0:
254,200,82485,1,12,0:0:0:0:
248,150,82578,1,2,0:0:0:0:
263,102,82672,1,0,0:0:0:0:
312,109,82766,1,10,0:0:0:0:
358,126,82860,2,0,P|354:73|349:27,1,100,0|10,0:0|0:0,0:0:0:0:
453,192,83141,2,0,P|455:138|456:92,1,100,2|8,0:0|0:0,0:0:0:0:
363,315,83422,2,0,L|363:262|363:216,1,100,2|8,0:0|0:0,0:0:0:0:
434,379,83703,2,0,P|441:326|445:280,1,100,0|8,0:0|0:0,0:0:0:0:
285,362,83985,5,0,0:0:0:0:
254,362,84078,1,2,0:0:0:0:
223,364,84172,1,8,0:0:0:0:
192,366,84266,1,10,0:0:0:0:
161,367,84360,2,0,L|158:317,1,50,0|0,0:0|0:0,0:0:0:0:
74,183,84547,5,2,0:0:0:0:
78,263,84922,1,2,0:0:0:0:
82,342,85297,1,2,0:0:0:0:
290,224,85485,5,10,0:0:0:0:
260,222,85578,1,2,0:0:0:0:
229,219,85672,1,14,0:0:0:0:
198,216,85766,1,10,0:0:0:0:
169,213,85860,2,0,P|161:165|158:113,1,100,4|0,0:0|0:0,0:0:0:0:
361,19,86235,2,0,P|358:67|350:119,1,100,8|2,0:0|0:0,0:0:0:0:
301,271,86610,5,0,0:0:0:0:
218,184,86797,1,0,0:0:0:0:
150,364,86985,2,0,P|139:317|130:266,1,100,8|2,0:0|0:0,0:0:0:0:
256,335,87360,1,0,0:0:0:0:
382,193,87547,2,0,P|418:281|362:359,1,200,0|2,0:0|0:0,0:0:0:0:
267,116,88110,5,0,0:0:0:0:
262,210,88297,1,0,0:0:0:0:
257,306,88485,1,8,0:0:0:0:
257,306,88672,1,2,0:0:0:0:
155,263,88860,5,4,0:0:0:0:
370,189,89047,1,10,0:0:0:0:
207,68,89235,2,0,P|256:69|306:73,1,100,0|4,0:0|0:0,0:0:0:0:
162,179,89610,5,10,0:0:0:0:
333,251,89797,1,0,0:0:0:0:
200,384,89985,2,0,P|196:332|194:284,1,100,6|10,0:0|0:0,0:0:0:0:
388,363,90360,5,4,0:0:0:0:
292,275,90547,1,10,0:0:0:0:
511,267,90735,2,0,P|460:256|412:250,1,100,0|4,0:0|0:0,0:0:0:0:
185,356,91110,5,10,0:0:0:0:
182,341,91203,1,0,0:0:0:0:
180,325,91297,1,2,0:0:0:0:
177,309,91391,1,10,0:0:0:0:
175,293,91485,1,4,0:0:0:0:
197,249,91578,1,0,0:0:0:0:
241,225,91672,1,10,0:0:0:0:
290,229,91766,1,0,0:0:0:0:
331,256,91860,2,0,P|327:208|328:156,1,100,4|0,0:0|0:0,0:0:0:0:
486,347,92235,6,0,P|434:353|387:357,1,100,8|2,0:0|0:0,0:0:0:0:
331,256,92610,1,0,0:0:0:0:
505,188,92797,1,0,0:0:0:0:
358,65,92985,2,0,P|356:112|356:165,1,100,8|2,0:0|0:0,0:0:0:0:
164,134,93360,2,0,P|211:128|264:124,1,100,4|0,0:0|0:0,0:0:0:0:
59,10,93735,2,0,P|64:59|67:110,1,100,8|2,0:0|0:0,0:0:0:0:
66,345,94110,5,0,0:0:0:0:
0,246,94297,1,0,0:0:0:0:
154,173,94485,2,0,P|152:222|147:272,1,100,8|2,0:0|0:0,0:0:0:0:
347,240,94860,5,12,0:0:0:0:
337,241,94953,1,2,0:0:0:0:
326,241,95047,1,0,0:0:0:0:
315,242,95141,1,8,0:0:0:0:
304,242,95235,1,2,0:0:0:0:
294,242,95328,1,0,0:0:0:0:
283,243,95422,1,14,0:0:0:0:
272,243,95516,1,2,0:0:0:0:
261,243,95610,1,0,0:0:0:0:
251,244,95703,1,10,0:0:0:0:
240,244,95797,1,0,0:0:0:0:
229,245,95891,1,0,0:0:0:0:
218,245,95985,1,14,0:0:0:0:
208,245,96078,1,0,0:0:0:0:
197,246,96172,1,10,0:0:0:0:
186,246,96266,1,10,0:0:0:0:
176,247,96360,2,0,L|178:197,1,50,4|8,0:0|0:0,0:0:0:0:
328,208,96547,2,0,L|323:158,1,50,2|2,0:0|0:0,0:0:0:0:
182,116,96735,2,0,L|184:66,1,50,8|0,0:0|0:0,0:0:0:0:
317,77,96922,2,0,L|312:27,1,50,6|10,0:0|0:0,0:0:0:0:
256,176,97110,5,0,0:0:0:0:
256,215,97203,1,0,0:0:0:0:
256,255,97297,1,10,0:0:0:0:
256,295,97391,1,2,0:0:0:0:
256,335,97485,2,0,L|305:330,1,50,4|2,0:0|0:0,0:0:0:0:
471,218,97672,2,0,L|422:215,1,50,10|10,0:0|0:0,0:0:0:0:
377,376,97860,2,0,P|380:328|378:277,1,100,4|0,0:0|0:0,0:0:0:0:
149,312,98235,2,0,P|146:264|146:213,1,100,8|2,0:0|0:0,0:0:0:0:
248,262,98610,5,0,0:0:0:0:
163,124,98797,1,0,0:0:0:0:
123,368,98985,2,0,P|118:317|116:268,1,100,8|2,0:0|0:0,0:0:0:0:
387,319,99360,6,0,P|285:319|188:313,1,200,0|8,0:0|0:0,0:0:0:0:
11,277,99922,1,2,0:0:0:0:
176,204,100110,1,0,0:0:0:0:
91,362,100297,1,0,0:0:0:0:
68,182,100485,2,0,P|71:132|74:83,1,100,8|2,0:0|0:0,0:0:0:0:
266,233,100860,5,4,0:0:0:0:
161,140,101047,1,10,0:0:0:0:
324,44,101235,2,0,P|275:40|225:38,1,100,0|4,0:0|0:0,0:0:0:0:
380,154,101610,5,10,0:0:0:0:
272,258,101797,1,2,0:0:0:0:
133,198,101985,2,0,P|137:247|142:297,1,100,4|10,0:0|0:0,0:0:0:0:
254,93,102360,5,4,0:0:0:0:
362,223,102547,1,10,0:0:0:0:
255,356,102735,2,0,P|304:353|354:349,1,100,0|4,0:0|0:0,0:0:0:0:
414,188,103110,5,10,0:0:0:0:
432,190,103203,1,0,0:0:0:0:
452,192,103297,1,2,0:0:0:0:
472,194,103391,1,10,0:0:0:0:
492,195,103485,1,4,0:0:0:0:
469,239,103578,1,0,0:0:0:0:
426,266,103672,1,10,0:0:0:0:
375,268,103766,1,0,0:0:0:0:
327,252,103860,2,0,P|332:159|329:53,1,200,4|8,0:0|0:0,0:0:0:0:
227,147,104422,5,2,0:0:0:0:
140,36,104610,1,0,0:0:0:0:
69,248,104797,2,0,P|66:199|66:149,1,100,2|8,0:0|0:0,0:0:0:0:
227,311,105172,1,2,0:0:0:0:
227,311,105360,2,0,P|167:379|82:338,1,200,4|8,0:0|0:0,0:0:0:0:
220,211,105922,5,2,0:0:0:0:
57,140,106110,1,0,0:0:0:0:
210,111,106297,1,2,0:0:0:0:
70,238,106485,2,0,P|76:290|85:336,1,100,8|2,0:0|0:0,0:0:0:0:
208,206,106860,5,12,0:0:0:0:
206,220,106953,1,2,0:0:0:0:
205,236,107047,1,2,0:0:0:0:
204,252,107141,1,10,0:0:0:0:
202,268,107235,1,0,0:0:0:0:
201,283,107328,1,2,0:0:0:0:
199,299,107422,1,14,0:0:0:0:
198,314,107516,1,10,0:0:0:0:
197,330,107610,1,0,0:0:0:0:
242,351,107703,1,10,0:0:0:0:
293,347,107797,1,10,0:0:0:0:
332,315,107891,1,2,0:0:0:0:
349,268,107985,1,12,0:0:0:0:
336,221,108078,1,2,0:0:0:0:
296,190,108172,1,2,0:0:0:0:
256,192,108922,5,4,0:0:0:0:
216,196,109860,5,4,0:0:0:0:
256,192,109953,12,0,115672,0:0:0:0:
