osu file format v14

[General]
AudioFilename: miku 4U.mp3
AudioLeadIn: 0
PreviewTime: 59106
Countdown: 0
SampleSet: Soft
StackLeniency: 0.8
Mode: 3
LetterboxInBreaks: 0
SpecialStyle: 0
WidescreenStoryboard: 0

[Editor]
Bookmarks: 106645
DistanceSpacing: 1.2
BeatDivisor: 4
GridSize: 32
TimelineZoom: 0.5999999

[Metadata]
Title:4U (Short Ver.)
TitleUnicode:4U (Short Ver.)
Artist:REDSHiFT feat. Hatsune Miku
ArtistUnicode:REDSHiFT feat. Hatsune Miku
Creator:erlinadewi-
Version:EZ
Source:
Tags:re:tuned craftuner vocaloid [_A_v_a_l_o_n_] Project Indonesia Anisong DJ crash rikuu
BeatmapID:870354
BeatmapSetID:296752

[Difficulty]
HPDrainRate:6
CircleSize:4
OverallDifficulty:7
ApproachRate:5
SliderMultiplier:1.5
SliderTickRate:1

[Events]
//Background and Video events
0,0,"BG4U.jpg",0,0
//Break Periods
//Storyboard Layer 0 (Background)
//Storyboard Layer 1 (Fail)
//Storyboard Layer 2 (Pass)
//Storyboard Layer 3 (Foreground)
//Storyboard Sound Samples

[TimingPoints]
30,461.538461538462,4,2,1,65,1,0
73876,-100,4,2,1,65,0,1
103414,-100,4,2,1,65,0,0
120030,-100,4,2,1,65,0,1
149568,-100,4,2,1,65,0,0

[Colours]
Combo1 : 231,12,17
Combo2 : 0,255,64
Combo3 : 0,100,200
Combo4 : 255,255,0

[HitObjects]
448,192,260,5,0,0:0:0:0:
448,192,722,1,0,0:0:0:0:
448,192,1183,1,0,0:0:0:0:
448,192,1645,1,0,0:0:0:0:
192,192,2106,1,0,0:0:0:0:
192,192,2568,1,0,0:0:0:0:
192,192,3030,1,0,0:0:0:0:
192,192,3491,1,0,0:0:0:0:
320,192,3953,1,0,0:0:0:0:
320,192,4414,1,0,0:0:0:0:
320,192,4876,1,0,0:0:0:0:
320,192,5337,1,0,0:0:0:0:
64,192,5799,1,0,0:0:0:0:
64,192,6260,1,0,0:0:0:0:
64,192,6722,1,0,0:0:0:0:
64,192,7183,1,0,0:0:0:0:
320,192,7645,1,0,0:0:0:0:
320,192,8106,1,0,0:0:0:0:
320,192,8568,1,0,0:0:0:0:
320,192,9030,1,0,0:0:0:0:
192,192,9491,1,0,0:0:0:0:
192,192,9953,1,0,0:0:0:0:
192,192,10414,1,0,0:0:0:0:
192,192,10876,1,0,0:0:0:0:
448,192,11337,1,0,0:0:0:0:
448,192,11799,1,0,0:0:0:0:
448,192,12260,1,0,0:0:0:0:
448,192,12722,1,0,0:0:0:0:
64,192,13183,1,0,0:0:0:0:
64,192,13645,1,0,0:0:0:0:
64,192,14106,1,0,0:0:0:0:
64,192,14568,1,0,0:0:0:0:
320,192,14799,1,2,0:0:0:0:
192,192,15260,1,2,0:0:0:0:
448,192,15722,1,2,0:0:0:0:
320,192,16183,1,2,0:0:0:0:
64,192,16645,1,2,0:0:0:0:
192,192,17106,1,2,0:0:0:0:
320,192,17568,1,2,0:0:0:0:
192,192,18030,1,2,0:0:0:0:
320,192,18491,1,2,0:0:0:0:
448,192,18953,1,2,0:0:0:0:
192,192,19414,1,2,0:0:0:0:
64,192,19876,1,2,0:0:0:0:
320,192,20337,1,2,0:0:0:0:
192,192,20799,1,2,0:0:0:0:
448,192,21260,1,2,0:0:0:0:
320,192,21722,1,2,0:0:0:0:
64,192,22183,1,2,0:0:0:0:
192,192,22645,1,2,0:0:0:0:
448,192,23106,1,2,0:0:0:0:
64,192,23568,1,2,0:0:0:0:
320,192,24030,1,2,0:0:0:0:
192,192,24491,1,2,0:0:0:0:
448,192,24953,1,2,0:0:0:0:
320,192,25414,1,2,0:0:0:0:
192,192,25876,1,2,0:0:0:0:
64,192,26337,1,2,0:0:0:0:
320,192,26799,1,2,0:0:0:0:
192,192,27260,1,2,0:0:0:0:
448,192,27722,1,2,0:0:0:0:
320,192,28183,1,2,0:0:0:0:
64,192,28645,1,2,0:0:0:0:
192,192,29106,1,2,0:0:0:0:
448,192,29568,128,4,31414:0:0:0:0:
320,192,29568,1,2,0:0:0:0:
192,192,31414,128,2,33260:0:0:0:0:
320,192,33260,128,2,35106:0:0:0:0:
64,192,35106,128,2,36953:0:0:0:0:
192,192,36953,1,2,0:0:0:0:
448,192,37414,1,2,0:0:0:0:
64,192,37876,1,2,0:0:0:0:
320,192,38337,1,2,0:0:0:0:
192,192,38799,1,2,0:0:0:0:
448,192,39260,1,2,0:0:0:0:
320,192,39722,1,2,0:0:0:0:
192,192,40183,1,2,0:0:0:0:
64,192,40645,1,2,0:0:0:0:
320,192,41106,1,2,0:0:0:0:
192,192,41568,1,2,0:0:0:0:
448,192,42030,1,2,0:0:0:0:
320,192,42491,128,0,44337:0:0:0:0:
64,192,44337,128,4,46183:0:0:0:0:
192,192,44337,1,0,0:0:0:0:
448,192,45030,1,0,0:0:0:0:
448,192,45722,1,0,0:0:0:0:
320,192,46183,128,0,48030:0:0:0:0:
64,192,46876,1,0,0:0:0:0:
64,192,47568,1,0,0:0:0:0:
448,192,48030,128,0,51722:0:0:0:0:
192,192,48722,1,0,0:0:0:0:
192,192,49414,1,0,0:0:0:0:
320,192,49876,1,0,0:0:0:0:
64,192,50568,1,0,0:0:0:0:
64,192,51260,1,0,0:0:0:0:
192,192,51722,128,0,53568:0:0:0:0:
448,192,52414,1,0,0:0:0:0:
448,192,53106,1,0,0:0:0:0:
320,192,53568,128,0,55414:0:0:0:0:
64,192,54260,1,0,0:0:0:0:
64,192,54953,1,0,0:0:0:0:
448,192,55414,128,0,57260:0:0:0:0:
192,192,56106,1,0,0:0:0:0:
192,192,56799,1,0,0:0:0:0:
64,192,57260,128,0,59106:0:0:0:0:
448,192,57953,1,0,0:0:0:0:
448,192,58645,1,0,0:0:0:0:
320,192,59106,1,8,0:0:0:0:
64,192,59568,1,8,0:0:0:0:
320,192,60030,1,8,0:0:0:0:
64,192,60491,1,8,0:0:0:0:
448,192,60953,1,8,0:0:0:0:
192,192,61414,1,8,0:0:0:0:
448,192,61876,1,8,0:0:0:0:
192,192,62337,1,8,0:0:0:0:
320,192,62799,1,8,0:0:0:0:
64,192,63260,1,8,0:0:0:0:
320,192,63722,1,8,0:0:0:0:
64,192,64183,1,8,0:0:0:0:
448,192,64645,1,8,0:0:0:0:
192,192,65106,1,8,0:0:0:0:
448,192,65568,1,8,0:0:0:0:
64,192,66030,1,8,0:0:0:0:
192,192,66260,1,8,0:0:0:0:
320,192,66491,1,8,0:0:0:0:
64,192,66953,1,8,0:0:0:0:
192,192,67414,1,8,0:0:0:0:
448,192,67876,1,8,0:0:0:0:
320,192,68106,1,8,0:0:0:0:
64,192,68337,1,8,0:0:0:0:
448,192,68799,1,8,0:0:0:0:
192,192,69260,1,8,0:0:0:0:
448,192,69722,1,8,0:0:0:0:
320,192,69953,1,8,0:0:0:0:
64,192,70183,1,8,0:0:0:0:
192,192,70414,1,8,0:0:0:0:
320,192,70645,1,8,0:0:0:0:
448,192,70876,1,8,0:0:0:0:
64,192,71106,1,8,0:0:0:0:
192,192,71337,1,8,0:0:0:0:
320,192,71568,1,8,0:0:0:0:
448,192,71799,1,8,0:0:0:0:
64,192,72030,128,8,73876:0:0:0:0:
448,192,72953,128,2,73876:0:0:0:0:
320,192,73876,1,4,0:0:0:0:
192,192,74337,1,8,0:0:0:0:
64,192,74337,1,0,0:0:0:0:
448,192,74799,1,2,0:0:0:0:
320,192,75260,1,0,0:0:0:0:
64,192,75260,1,8,0:0:0:0:
192,192,75722,1,2,0:0:0:0:
448,192,76183,1,0,0:0:0:0:
64,192,76183,1,8,0:0:0:0:
320,192,76645,1,2,0:0:0:0:
192,192,77106,1,8,0:0:0:0:
448,192,77106,1,0,0:0:0:0:
64,192,77568,1,2,0:0:0:0:
320,192,78030,1,0,0:0:0:0:
448,192,78030,1,8,0:0:0:0:
192,192,78491,1,2,0:0:0:0:
64,192,78953,1,8,0:0:0:0:
320,192,78953,1,0,0:0:0:0:
448,192,79414,1,2,0:0:0:0:
192,192,79876,1,0,0:0:0:0:
64,192,79876,1,8,0:0:0:0:
320,192,80337,1,2,0:0:0:0:
64,192,80799,1,8,0:0:0:0:
448,192,80799,1,0,0:0:0:0:
192,192,81260,1,2,0:0:0:0:
320,192,81722,1,8,0:0:0:0:
448,192,81722,1,0,0:0:0:0:
192,192,82183,1,2,0:0:0:0:
64,192,82645,1,8,0:0:0:0:
448,192,82645,1,0,0:0:0:0:
320,192,83106,1,2,0:0:0:0:
192,192,83568,1,0,0:0:0:0:
64,192,83568,1,8,0:0:0:0:
448,192,84030,1,2,0:0:0:0:
320,192,84491,1,8,0:0:0:0:
192,192,84491,1,0,0:0:0:0:
64,192,84953,1,2,0:0:0:0:
320,192,85414,1,8,0:0:0:0:
448,192,85414,1,0,0:0:0:0:
192,192,85876,1,2,0:0:0:0:
64,192,86337,1,8,0:0:0:0:
448,192,86337,1,0,0:0:0:0:
320,192,86799,1,2,0:0:0:0:
448,192,87260,1,0,0:0:0:0:
192,192,87260,1,8,0:0:0:0:
64,192,87722,1,2,0:0:0:0:
192,192,88183,1,8,0:0:0:0:
320,192,88183,1,0,0:0:0:0:
448,192,88645,1,2,0:0:0:0:
64,192,89106,1,8,0:0:0:0:
320,192,89106,1,0,0:0:0:0:
192,192,89568,1,2,0:0:0:0:
64,192,90030,1,8,0:0:0:0:
448,192,90030,1,0,0:0:0:0:
320,192,90491,1,2,0:0:0:0:
192,192,90953,1,0,0:0:0:0:
64,192,90953,1,8,0:0:0:0:
448,192,91414,1,2,0:0:0:0:
192,192,91876,1,8,0:0:0:0:
320,192,91876,1,0,0:0:0:0:
64,192,92337,1,2,0:0:0:0:
448,192,92799,1,0,0:0:0:0:
192,192,92799,1,8,0:0:0:0:
320,192,93260,1,2,0:0:0:0:
64,192,93722,1,8,0:0:0:0:
448,192,93722,1,0,0:0:0:0:
192,192,94183,1,2,0:0:0:0:
448,192,94645,1,0,0:0:0:0:
320,192,94645,1,8,0:0:0:0:
192,192,95106,1,2,0:0:0:0:
64,192,95568,1,8,0:0:0:0:
320,192,95568,1,0,0:0:0:0:
448,192,96030,1,2,0:0:0:0:
320,192,96491,1,0,0:0:0:0:
192,192,96491,1,8,0:0:0:0:
64,192,96953,1,2,0:0:0:0:
192,192,97414,1,8,0:0:0:0:
448,192,97414,1,0,0:0:0:0:
320,192,97876,1,2,0:0:0:0:
448,192,98337,1,0,0:0:0:0:
64,192,98337,1,8,0:0:0:0:
192,192,98799,1,2,0:0:0:0:
64,192,99260,1,8,0:0:0:0:
320,192,99260,1,0,0:0:0:0:
448,192,99722,1,2,0:0:0:0:
192,192,100183,1,8,0:0:0:0:
320,192,100183,1,0,0:0:0:0:
64,192,100645,1,2,0:0:0:0:
320,192,101106,1,8,0:0:0:0:
448,192,101106,1,0,0:0:0:0:
64,192,101568,1,8,0:0:0:0:
448,192,101799,1,8,0:0:0:0:
192,192,102030,1,8,0:0:0:0:
320,192,102260,1,8,0:0:0:0:
64,192,102491,128,8,103414:0:0:0:0:
192,192,102953,128,2,103414:0:0:0:0:
448,192,103414,128,4,107106:0:0:0:0:
320,192,103414,1,0,0:0:0:0:
320,192,105260,1,0,0:0:0:0:
192,192,105953,1,0,0:0:0:0:
192,192,106645,1,0,0:0:0:0:
64,192,107106,1,0,0:0:0:0:
192,192,107568,1,0,0:0:0:0:
320,192,108030,1,0,0:0:0:0:
448,192,108491,1,0,0:0:0:0:
192,192,108953,1,0,0:0:0:0:
448,192,109414,1,0,0:0:0:0:
320,192,109876,1,0,0:0:0:0:
192,192,110337,1,0,0:0:0:0:
64,192,110799,1,8,0:0:0:0:
64,192,111260,1,8,0:0:0:0:
64,192,111722,1,8,0:0:0:0:
64,192,112183,1,8,0:0:0:0:
448,192,112414,1,8,0:0:0:0:
192,192,112645,1,8,0:0:0:0:
192,192,113106,1,8,0:0:0:0:
192,192,113568,1,8,0:0:0:0:
192,192,114030,1,8,0:0:0:0:
448,192,114260,1,8,0:0:0:0:
64,192,114491,1,8,0:0:0:0:
320,192,114722,1,8,0:0:0:0:
192,192,114953,1,8,0:0:0:0:
448,192,115183,1,8,0:0:0:0:
64,192,115414,1,8,0:0:0:0:
320,192,115645,1,8,0:0:0:0:
192,192,115876,1,8,0:0:0:0:
448,192,116106,1,8,0:0:0:0:
64,192,116337,128,8,118183:0:0:0:0:
192,192,117260,128,2,118183:0:0:0:0:
448,192,118183,1,4,0:0:0:0:
448,192,120030,1,2,0:0:0:0:
192,192,120030,1,4,0:0:0:0:
320,192,120491,1,0,0:0:0:0:
64,192,120491,1,8,0:0:0:0:
448,192,120953,1,2,0:0:0:0:
64,192,121414,1,8,0:0:0:0:
192,192,121414,1,0,0:0:0:0:
320,192,121876,1,2,0:0:0:0:
64,192,122337,1,8,0:0:0:0:
448,192,122337,1,0,0:0:0:0:
192,192,122799,1,2,0:0:0:0:
64,192,123260,1,8,0:0:0:0:
320,192,123260,1,0,0:0:0:0:
448,192,123722,1,2,0:0:0:0:
320,192,124183,1,0,0:0:0:0:
192,192,124183,1,8,0:0:0:0:
64,192,124645,1,2,0:0:0:0:
192,192,125106,1,8,0:0:0:0:
448,192,125106,1,0,0:0:0:0:
320,192,125568,1,2,0:0:0:0:
64,192,126030,1,8,0:0:0:0:
448,192,126030,1,0,0:0:0:0:
192,192,126491,1,2,0:0:0:0:
320,192,126953,1,8,0:0:0:0:
448,192,126953,1,0,0:0:0:0:
64,192,127414,1,2,0:0:0:0:
192,192,127876,1,8,0:0:0:0:
448,192,127876,1,0,0:0:0:0:
320,192,128337,1,2,0:0:0:0:
192,192,128799,1,0,0:0:0:0:
64,192,128799,1,8,0:0:0:0:
448,192,129260,1,2,0:0:0:0:
64,192,129722,1,8,0:0:0:0:
320,192,129722,1,0,0:0:0:0:
192,192,130183,1,2,0:0:0:0:
448,192,130645,1,0,0:0:0:0:
64,192,130645,1,8,0:0:0:0:
320,192,131106,1,2,0:0:0:0:
192,192,131568,1,0,0:0:0:0:
64,192,131568,1,8,0:0:0:0:
448,192,132030,1,2,0:0:0:0:
64,192,132491,1,8,0:0:0:0:
320,192,132491,1,0,0:0:0:0:
192,192,132953,1,2,0:0:0:0:
320,192,133414,1,8,0:0:0:0:
448,192,133414,1,0,0:0:0:0:
192,192,133876,1,2,0:0:0:0:
64,192,134337,1,8,0:0:0:0:
448,192,134337,1,0,0:0:0:0:
320,192,134799,1,2,0:0:0:0:
192,192,135260,1,0,0:0:0:0:
64,192,135260,1,8,0:0:0:0:
448,192,135722,1,2,0:0:0:0:
64,192,136183,1,8,0:0:0:0:
320,192,136183,1,0,0:0:0:0:
192,192,136645,1,2,0:0:0:0:
320,192,137106,1,8,0:0:0:0:
448,192,137106,1,0,0:0:0:0:
64,192,137568,1,2,0:0:0:0:
192,192,138030,1,8,0:0:0:0:
448,192,138030,1,0,0:0:0:0:
320,192,138491,1,2,0:0:0:0:
64,192,138953,1,8,0:0:0:0:
448,192,138953,1,0,0:0:0:0:
192,192,139414,1,2,0:0:0:0:
320,192,139876,1,8,0:0:0:0:
448,192,139876,1,0,0:0:0:0:
192,192,140337,1,2,0:0:0:0:
448,192,140799,1,0,0:0:0:0:
64,192,140799,1,8,0:0:0:0:
320,192,141260,1,2,0:0:0:0:
192,192,141722,1,0,0:0:0:0:
64,192,141722,1,8,0:0:0:0:
448,192,142183,1,2,0:0:0:0:
320,192,142645,1,0,0:0:0:0:
64,192,142645,1,8,0:0:0:0:
192,192,143106,1,2,0:0:0:0:
320,192,143568,1,8,0:0:0:0:
448,192,143568,1,0,0:0:0:0:
192,192,144030,1,2,0:0:0:0:
64,192,144491,1,8,0:0:0:0:
320,192,144491,1,0,0:0:0:0:
448,192,144953,1,2,0:0:0:0:
192,192,145414,1,0,0:0:0:0:
64,192,145414,1,8,0:0:0:0:
320,192,145876,1,2,0:0:0:0:
448,192,146337,1,0,0:0:0:0:
192,192,146337,1,8,0:0:0:0:
64,192,146799,1,2,0:0:0:0:
320,192,147260,1,8,0:0:0:0:
448,192,147260,1,0,0:0:0:0:
64,192,147722,1,8,0:0:0:0:
192,192,147953,1,8,0:0:0:0:
448,192,148183,1,8,0:0:0:0:
320,192,148414,1,8,0:0:0:0:
64,192,148645,128,8,149568:0:0:0:0:
192,192,149106,128,2,149568:0:0:0:0:
320,192,149568,1,4,0:0:0:0:
448,192,149568,1,0,0:0:0:0:
