osu file format v14

[General]
AudioFilename: miku 4U.mp3
AudioLeadIn: 0
PreviewTime: 59106
Countdown: 0
SampleSet: Soft
StackLeniency: 0.8
Mode: 3
LetterboxInBreaks: 0
SpecialStyle: 0
WidescreenStoryboard: 0

[Editor]
DistanceSpacing: 1.2
BeatDivisor: 4
GridSize: 32
TimelineZoom: 1.2

[Metadata]
Title:4U (Short Ver.)
TitleUnicode:4U (Short Ver.)
Artist:REDSHiFT feat. Hatsune Miku
ArtistUnicode:REDSHiFT feat. Hatsune Miku
Creator:erlinadewi-
Version:Avalon's NM
Source:
Tags:re:tuned craftuner vocaloid [_A_v_a_l_o_n_] Project Indonesia Anisong DJ crash rikuu
BeatmapID:666200
BeatmapSetID:296752

[Difficulty]
HPDrainRate:7
CircleSize:4
OverallDifficulty:7
ApproachRate:5
SliderMultiplier:1.5
SliderTickRate:1

[Events]
//Background and Video events
0,0,"BG4U.jpg",0,0
//Break Periods
//Storyboard Layer 0 (Background)
//Storyboard Layer 1 (Fail)
//Storyboard Layer 2 (Pass)
//Storyboard Layer 3 (Foreground)
//Storyboard Sound Samples

[TimingPoints]
30,461.538461538462,4,2,1,65,1,0
73876,-100,4,2,1,65,0,1
103414,-100,4,2,1,65,0,0
120030,-100,4,2,1,65,0,1
149568,-100,4,2,1,65,0,0

[Colours]
Combo1 : 231,12,17
Combo2 : 0,255,64
Combo3 : 0,100,200
Combo4 : 255,255,0

[HitObjects]
192,192,30,5,0,0:0:0:0:
448,192,260,1,0,0:0:0:0:
448,192,722,1,0,0:0:0:0:
448,192,1183,1,0,0:0:0:0:
192,192,1414,1,0,0:0:0:0:
448,192,1645,1,0,0:0:0:0:
320,192,1876,1,0,0:0:0:0:
64,192,2106,1,0,0:0:0:0:
64,192,2568,1,0,0:0:0:0:
64,192,3030,1,0,0:0:0:0:
320,192,3260,1,0,0:0:0:0:
64,192,3491,1,0,0:0:0:0:
192,192,3722,1,0,0:0:0:0:
448,192,3953,1,0,0:0:0:0:
448,192,4414,1,0,0:0:0:0:
448,192,4876,1,0,0:0:0:0:
192,192,5106,1,0,0:0:0:0:
448,192,5337,1,0,0:0:0:0:
320,192,5568,1,0,0:0:0:0:
64,192,5799,1,0,0:0:0:0:
64,192,6260,1,0,0:0:0:0:
64,192,6722,1,0,0:0:0:0:
320,192,6953,1,0,0:0:0:0:
64,192,7183,1,0,0:0:0:0:
192,192,7414,1,0,0:0:0:0:
448,192,7645,1,0,0:0:0:0:
448,192,8106,1,0,0:0:0:0:
448,192,8568,1,0,0:0:0:0:
320,192,8799,1,0,0:0:0:0:
64,192,9030,1,0,0:0:0:0:
192,192,9260,1,0,0:0:0:0:
448,192,9491,1,0,0:0:0:0:
448,192,9953,1,0,0:0:0:0:
448,192,10414,1,0,0:0:0:0:
320,192,10645,1,0,0:0:0:0:
64,192,10876,1,0,0:0:0:0:
192,192,11106,1,0,0:0:0:0:
448,192,11337,1,0,0:0:0:0:
448,192,11799,1,0,0:0:0:0:
64,192,12260,1,0,0:0:0:0:
192,192,12491,1,0,0:0:0:0:
320,192,12722,1,0,0:0:0:0:
64,192,12953,1,0,0:0:0:0:
448,192,13183,1,0,0:0:0:0:
448,192,13645,1,0,0:0:0:0:
192,192,14106,1,0,0:0:0:0:
192,192,14568,1,0,0:0:0:0:
320,192,14799,1,2,0:0:0:0:
64,192,15030,1,0,0:0:0:0:
320,192,15260,1,2,0:0:0:0:
64,192,15491,1,0,0:0:0:0:
320,192,15722,1,2,0:0:0:0:
64,192,15953,1,0,0:0:0:0:
320,192,16183,1,2,0:0:0:0:
192,192,16414,1,0,0:0:0:0:
448,192,16645,1,2,0:0:0:0:
192,192,16876,1,0,0:0:0:0:
448,192,17106,1,2,0:0:0:0:
192,192,17337,1,0,0:0:0:0:
448,192,17568,1,2,0:0:0:0:
192,192,17799,1,0,0:0:0:0:
448,192,18030,1,2,0:0:0:0:
64,192,18260,1,0,0:0:0:0:
320,192,18491,1,2,0:0:0:0:
64,192,18722,1,0,0:0:0:0:
320,192,18953,1,2,0:0:0:0:
192,192,19183,1,0,0:0:0:0:
448,192,19414,1,2,0:0:0:0:
192,192,19645,1,0,0:0:0:0:
448,192,19876,1,2,0:0:0:0:
64,192,20106,1,0,0:0:0:0:
320,192,20337,1,2,0:0:0:0:
192,192,20568,1,0,0:0:0:0:
448,192,20799,1,2,0:0:0:0:
64,192,21030,1,0,0:0:0:0:
320,192,21260,1,2,0:0:0:0:
192,192,21491,1,0,0:0:0:0:
448,192,21722,1,2,0:0:0:0:
64,192,21953,1,0,0:0:0:0:
320,192,22183,1,2,0:0:0:0:
64,192,22414,1,0,0:0:0:0:
320,192,22645,1,2,0:0:0:0:
192,192,22876,1,0,0:0:0:0:
448,192,23106,1,2,0:0:0:0:
192,192,23337,1,0,0:0:0:0:
448,192,23568,1,2,0:0:0:0:
64,192,23799,1,0,0:0:0:0:
320,192,24030,1,2,0:0:0:0:
192,192,24260,1,0,0:0:0:0:
448,192,24491,1,2,0:0:0:0:
64,192,24722,1,0,0:0:0:0:
320,192,24953,1,2,0:0:0:0:
192,192,25183,1,0,0:0:0:0:
448,192,25414,1,2,0:0:0:0:
64,192,25645,1,0,0:0:0:0:
320,192,25876,1,2,0:0:0:0:
192,192,26106,1,0,0:0:0:0:
320,192,26337,1,2,0:0:0:0:
64,192,26568,1,0,0:0:0:0:
448,192,26799,1,2,0:0:0:0:
192,192,27030,1,0,0:0:0:0:
448,192,27260,1,2,0:0:0:0:
64,192,27491,1,0,0:0:0:0:
320,192,27722,1,2,0:0:0:0:
192,192,27953,1,0,0:0:0:0:
448,192,28183,1,2,0:0:0:0:
320,192,28414,1,0,0:0:0:0:
64,192,28645,1,2,0:0:0:0:
192,192,28876,1,0,0:0:0:0:
448,192,29106,1,2,0:0:0:0:
320,192,29337,1,0,0:0:0:0:
192,192,29568,1,4,0:0:0:0:
64,192,29568,1,2,0:0:0:0:
448,192,29799,1,0,0:0:0:0:
320,192,30030,1,2,0:0:0:0:
64,192,30260,1,0,0:0:0:0:
192,192,30491,1,2,0:0:0:0:
320,192,30722,1,0,0:0:0:0:
448,192,30953,1,2,0:0:0:0:
192,192,31183,1,0,0:0:0:0:
320,192,31414,1,2,0:0:0:0:
64,192,31645,1,0,0:0:0:0:
192,192,31876,1,2,0:0:0:0:
448,192,32106,1,0,0:0:0:0:
320,192,32337,1,2,0:0:0:0:
64,192,32568,1,0,0:0:0:0:
448,192,32799,1,2,0:0:0:0:
192,192,33030,1,0,0:0:0:0:
320,192,33260,1,2,0:0:0:0:
64,192,33491,1,0,0:0:0:0:
192,192,33722,1,2,0:0:0:0:
448,192,33953,1,0,0:0:0:0:
320,192,34183,1,2,0:0:0:0:
192,192,34414,1,0,0:0:0:0:
64,192,34645,1,2,0:0:0:0:
320,192,34876,1,0,0:0:0:0:
192,192,35106,1,2,0:0:0:0:
448,192,35337,1,0,0:0:0:0:
320,192,35568,1,2,0:0:0:0:
64,192,35799,1,0,0:0:0:0:
192,192,36030,1,2,0:0:0:0:
448,192,36260,1,0,0:0:0:0:
64,192,36491,1,2,0:0:0:0:
320,192,36722,1,0,0:0:0:0:
192,192,36953,1,2,0:0:0:0:
448,192,37183,1,0,0:0:0:0:
320,192,37414,1,2,0:0:0:0:
64,192,37645,1,0,0:0:0:0:
192,192,37876,1,2,0:0:0:0:
320,192,38106,1,0,0:0:0:0:
448,192,38337,1,2,0:0:0:0:
192,192,38568,1,0,0:0:0:0:
320,192,38799,1,2,0:0:0:0:
64,192,39030,1,0,0:0:0:0:
192,192,39260,1,2,0:0:0:0:
448,192,39491,1,0,0:0:0:0:
320,192,39722,1,2,0:0:0:0:
192,192,39953,1,0,0:0:0:0:
64,192,40183,1,2,0:0:0:0:
320,192,40414,1,0,0:0:0:0:
192,192,40645,1,2,0:0:0:0:
448,192,40876,1,0,0:0:0:0:
320,192,41106,1,2,0:0:0:0:
64,192,41337,1,0,0:0:0:0:
192,192,41568,1,2,0:0:0:0:
448,192,41799,1,0,0:0:0:0:
320,192,42030,1,2,0:0:0:0:
192,192,42260,1,0,0:0:0:0:
448,192,42491,128,0,44337:0:0:0:0:
64,192,44337,1,4,0:0:0:0:
192,192,44568,1,0,0:0:0:0:
320,192,44799,1,0,0:0:0:0:
64,192,45030,128,0,45722:0:0:0:0:
448,192,45722,128,0,46183:0:0:0:0:
64,192,46183,1,0,0:0:0:0:
320,192,46414,1,0,0:0:0:0:
192,192,46645,1,0,0:0:0:0:
448,192,46876,128,0,47568:0:0:0:0:
64,192,47568,128,0,48260:0:0:0:0:
320,192,48030,1,0,0:0:0:0:
192,192,48260,1,0,0:0:0:0:
448,192,48491,1,0,0:0:0:0:
320,192,48722,128,0,49183:0:0:0:0:
192,192,49183,1,0,0:0:0:0:
64,192,49414,1,0,0:0:0:0:
448,192,49645,128,0,50106:0:0:0:0:
320,192,50106,128,0,50568:0:0:0:0:
192,192,50568,128,0,51030:0:0:0:0:
64,192,51030,128,0,51260:0:0:0:0:
448,192,51260,128,0,51722:0:0:0:0:
192,192,51491,128,0,51722:0:0:0:0:
320,192,51722,1,0,0:0:0:0:
64,192,51953,1,0,0:0:0:0:
320,192,52183,1,0,0:0:0:0:
64,192,52414,1,0,0:0:0:0:
448,192,52645,1,0,0:0:0:0:
192,192,52876,1,0,0:0:0:0:
448,192,53106,1,0,0:0:0:0:
64,192,53337,128,0,53799:0:0:0:0:
448,192,53799,1,0,0:0:0:0:
320,192,54030,1,0,0:0:0:0:
192,192,54260,1,0,0:0:0:0:
320,192,54491,1,0,0:0:0:0:
64,192,54722,1,0,0:0:0:0:
192,192,54953,1,0,0:0:0:0:
448,192,55183,128,0,55414:0:0:0:0:
64,192,55645,1,0,0:0:0:0:
320,192,55876,1,0,0:0:0:0:
448,192,56106,1,0,0:0:0:0:
64,192,56337,1,0,0:0:0:0:
320,192,56568,1,0,0:0:0:0:
192,192,56799,1,0,0:0:0:0:
64,192,57030,128,0,57260:0:0:0:0:
448,192,57491,1,0,0:0:0:0:
320,192,57722,1,0,0:0:0:0:
64,192,57953,1,0,0:0:0:0:
448,192,58183,1,0,0:0:0:0:
192,192,58414,1,0,0:0:0:0:
320,192,58645,1,0,0:0:0:0:
448,192,58876,1,0,0:0:0:0:
64,192,59106,1,8,0:0:0:0:
192,192,59106,1,2,0:0:0:0:
192,192,59568,1,8,0:0:0:0:
320,192,59568,1,2,0:0:0:0:
320,192,60030,1,8,0:0:0:0:
448,192,60030,1,2,0:0:0:0:
320,192,60491,1,2,0:0:0:0:
192,192,60491,1,8,0:0:0:0:
192,192,60953,1,8,0:0:0:0:
64,192,60953,1,2,0:0:0:0:
192,192,61414,1,8,0:0:0:0:
320,192,61414,1,2,0:0:0:0:
320,192,61876,1,8,0:0:0:0:
448,192,61876,1,2,0:0:0:0:
320,192,62337,1,2,0:0:0:0:
192,192,62337,1,8,0:0:0:0:
192,192,62799,1,8,0:0:0:0:
64,192,62799,1,2,0:0:0:0:
64,192,63260,1,8,0:0:0:0:
320,192,63260,1,2,0:0:0:0:
192,192,63722,1,8,0:0:0:0:
448,192,63722,1,2,0:0:0:0:
448,192,64183,1,8,0:0:0:0:
64,192,64183,1,2,0:0:0:0:
320,192,64645,1,8,0:0:0:0:
64,192,64645,1,2,0:0:0:0:
192,192,65106,1,8,0:0:0:0:
320,192,65106,1,2,0:0:0:0:
192,192,65568,1,8,0:0:0:0:
448,192,65568,1,2,0:0:0:0:
448,192,66030,1,8,0:0:0:0:
64,192,66030,1,2,0:0:0:0:
192,192,66260,1,8,0:0:0:0:
64,192,66491,1,8,0:0:0:0:
320,192,66491,1,2,0:0:0:0:
320,192,66953,1,8,0:0:0:0:
448,192,66953,1,2,0:0:0:0:
448,192,67414,1,8,0:0:0:0:
192,192,67414,1,2,0:0:0:0:
320,192,67876,1,2,0:0:0:0:
64,192,67876,1,8,0:0:0:0:
192,192,68106,1,8,0:0:0:0:
64,192,68337,1,8,0:0:0:0:
448,192,68337,1,2,0:0:0:0:
320,192,68799,1,2,0:0:0:0:
448,192,68799,1,8,0:0:0:0:
320,192,69260,1,2,0:0:0:0:
192,192,69260,1,8,0:0:0:0:
64,192,69722,1,8,0:0:0:0:
192,192,69722,1,2,0:0:0:0:
448,192,69953,1,8,0:0:0:0:
320,192,70068,1,8,0:0:0:0:
192,192,70183,1,8,0:0:0:0:
448,192,70414,1,8,0:0:0:0:
64,192,70645,1,8,0:0:0:0:
320,192,70876,1,8,0:0:0:0:
192,192,71106,1,8,0:0:0:0:
448,192,71337,1,8,0:0:0:0:
64,192,71568,1,8,0:0:0:0:
320,192,71799,1,8,0:0:0:0:
192,192,72030,128,8,72953:0:0:0:0:
448,192,72030,1,0,0:0:0:0:
448,192,72953,128,2,73876:0:0:0:0:
64,192,72953,128,0,73876:0:0:0:0:
320,192,73876,128,6,74337:0:0:0:0:
192,192,74337,1,8,0:0:0:0:
64,192,74337,1,0,0:0:0:0:
448,192,74683,1,0,0:0:0:0:
64,192,74799,1,2,0:0:0:0:
320,192,75030,1,2,0:0:0:0:
448,192,75260,1,0,0:0:0:0:
192,192,75260,1,8,0:0:0:0:
64,192,75491,1,0,0:0:0:0:
320,192,75722,1,2,0:0:0:0:
320,192,76183,1,8,0:0:0:0:
448,192,76183,1,0,0:0:0:0:
64,192,76414,1,0,0:0:0:0:
192,192,76645,128,2,77106:0:0:0:0:
448,192,77106,128,8,77568:0:0:0:0:
64,192,77568,128,2,78491:0:0:0:0:
320,192,78030,1,8,0:0:0:0:
192,192,78145,1,0,0:0:0:0:
448,192,78376,1,0,0:0:0:0:
320,192,78491,1,2,0:0:0:0:
192,192,78606,1,0,0:0:0:0:
448,192,78722,1,2,0:0:0:0:
64,192,78953,1,8,0:0:0:0:
320,192,78953,1,0,0:0:0:0:
192,192,79183,1,0,0:0:0:0:
64,192,79414,1,2,0:0:0:0:
320,192,79645,1,0,0:0:0:0:
192,192,79876,1,8,0:0:0:0:
448,192,79876,1,0,0:0:0:0:
320,192,80106,1,0,0:0:0:0:
64,192,80337,128,2,80799:0:0:0:0:
448,192,80799,128,8,81260:0:0:0:0:
192,192,80799,1,0,0:0:0:0:
320,192,81260,128,2,81722:0:0:0:0:
64,192,81722,1,8,0:0:0:0:
448,192,81722,1,0,0:0:0:0:
192,192,81953,1,2,0:0:0:0:
320,192,82183,1,2,0:0:0:0:
64,192,82414,1,0,0:0:0:0:
448,192,82645,1,0,0:0:0:0:
192,192,82645,1,8,0:0:0:0:
64,192,82876,1,0,0:0:0:0:
320,192,83106,1,2,0:0:0:0:
192,192,83337,1,2,0:0:0:0:
320,192,83568,1,8,0:0:0:0:
448,192,83568,1,0,0:0:0:0:
64,192,83799,1,2,0:0:0:0:
320,192,84030,1,2,0:0:0:0:
192,192,84260,1,0,0:0:0:0:
448,192,84491,1,8,0:0:0:0:
64,192,84491,1,0,0:0:0:0:
320,192,84722,1,0,0:0:0:0:
64,192,84953,1,2,0:0:0:0:
192,192,85183,1,0,0:0:0:0:
320,192,85414,1,8,0:0:0:0:
448,192,85414,1,0,0:0:0:0:
64,192,85645,1,0,0:0:0:0:
320,192,85876,1,2,0:0:0:0:
192,192,86106,1,0,0:0:0:0:
64,192,86337,1,8,0:0:0:0:
448,192,86337,1,0,0:0:0:0:
320,192,86568,1,0,0:0:0:0:
192,192,86799,1,2,0:0:0:0:
448,192,87030,1,0,0:0:0:0:
320,192,87260,1,8,0:0:0:0:
64,192,87260,1,0,0:0:0:0:
192,192,87722,1,2,0:0:0:0:
448,192,88183,1,0,0:0:0:0:
64,192,88183,1,8,0:0:0:0:
320,192,88645,1,2,0:0:0:0:
192,192,88876,1,2,0:0:0:0:
448,192,89106,1,8,0:0:0:0:
64,192,89106,1,0,0:0:0:0:
320,192,89337,1,0,0:0:0:0:
192,192,89568,1,2,0:0:0:0:
320,192,89799,1,0,0:0:0:0:
64,192,90030,1,8,0:0:0:0:
448,192,90030,128,0,90491:0:0:0:0:
192,192,90491,1,2,0:0:0:0:
320,192,90722,1,2,0:0:0:0:
64,192,90953,1,8,0:0:0:0:
448,192,90953,1,0,0:0:0:0:
192,192,91183,1,0,0:0:0:0:
320,192,91414,128,2,91876:0:0:0:0:
448,192,91876,128,2,92337:0:0:0:0:
64,192,91876,128,0,92337:0:0:0:0:
192,192,92337,128,2,92799:0:0:0:0:
448,192,92799,1,8,0:0:0:0:
64,192,92914,1,0,0:0:0:0:
448,192,93145,1,0,0:0:0:0:
192,192,93260,1,2,0:0:0:0:
64,192,93376,1,0,0:0:0:0:
320,192,93491,1,2,0:0:0:0:
192,192,93722,1,8,0:0:0:0:
448,192,93722,1,0,0:0:0:0:
320,192,93953,1,0,0:0:0:0:
64,192,94183,1,2,0:0:0:0:
192,192,94414,1,2,0:0:0:0:
448,192,94645,1,8,0:0:0:0:
64,192,94645,1,0,0:0:0:0:
320,192,94876,1,0,0:0:0:0:
192,192,95106,128,2,95568:0:0:0:0:
64,192,95568,128,8,96030:0:0:0:0:
448,192,95568,128,0,96030:0:0:0:0:
320,192,96030,128,2,96491:0:0:0:0:
64,192,96491,1,8,0:0:0:0:
448,192,96491,1,0,0:0:0:0:
192,192,96722,1,0,0:0:0:0:
320,192,96953,1,2,0:0:0:0:
64,192,97183,1,2,0:0:0:0:
192,192,97414,1,8,0:0:0:0:
448,192,97414,128,0,97876:0:0:0:0:
320,192,97876,1,2,0:0:0:0:
192,192,98106,1,0,0:0:0:0:
64,192,98337,1,8,0:0:0:0:
448,192,98337,1,0,0:0:0:0:
320,192,98568,1,2,0:0:0:0:
448,192,98799,1,2,0:0:0:0:
64,192,99030,1,0,0:0:0:0:
320,192,99260,1,8,0:0:0:0:
192,192,99260,128,0,99722:0:0:0:0:
448,192,99722,1,2,0:0:0:0:
64,192,99953,1,2,0:0:0:0:
192,192,100183,1,8,0:0:0:0:
320,192,100183,1,0,0:0:0:0:
448,192,100414,1,2,0:0:0:0:
64,192,100645,1,2,0:0:0:0:
320,192,100876,1,0,0:0:0:0:
448,192,101106,1,8,0:0:0:0:
192,192,101106,1,0,0:0:0:0:
64,192,101337,1,0,0:0:0:0:
320,192,101568,1,2,0:0:0:0:
448,192,101568,1,8,0:0:0:0:
192,192,101799,1,8,0:0:0:0:
64,192,101799,1,2,0:0:0:0:
320,192,102030,1,2,0:0:0:0:
448,192,102030,1,8,0:0:0:0:
192,192,102260,1,8,0:0:0:0:
64,192,102260,1,2,0:0:0:0:
320,192,102491,1,8,0:0:0:0:
448,192,102491,128,0,102953:0:0:0:0:
192,192,102953,128,8,103414:0:0:0:0:
64,192,102953,128,2,103414:0:0:0:0:
320,192,103414,1,4,0:0:0:0:
448,192,103414,1,0,0:0:0:0:
64,192,103645,1,0,0:0:0:0:
192,192,103876,1,0,0:0:0:0:
320,192,104106,1,0,0:0:0:0:
192,192,104337,1,0,0:0:0:0:
320,192,104568,1,0,0:0:0:0:
448,192,104799,1,0,0:0:0:0:
320,192,105030,1,0,0:0:0:0:
192,192,105260,1,0,0:0:0:0:
64,192,105260,1,0,0:0:0:0:
448,192,105491,1,0,0:0:0:0:
320,192,105722,1,0,0:0:0:0:
448,192,105953,1,0,0:0:0:0:
192,192,105953,1,0,0:0:0:0:
64,192,106183,1,0,0:0:0:0:
192,192,106414,1,0,0:0:0:0:
320,192,106645,1,0,0:0:0:0:
448,192,106645,1,0,0:0:0:0:
64,192,106876,1,0,0:0:0:0:
320,192,107106,1,0,0:0:0:0:
192,192,107106,1,0,0:0:0:0:
448,192,107337,1,0,0:0:0:0:
320,192,107568,1,0,0:0:0:0:
192,192,107799,1,0,0:0:0:0:
320,192,108030,1,0,0:0:0:0:
64,192,108260,1,0,0:0:0:0:
192,192,108491,1,0,0:0:0:0:
320,192,108722,1,0,0:0:0:0:
448,192,108953,1,0,0:0:0:0:
64,192,108953,1,0,0:0:0:0:
192,192,109414,1,0,0:0:0:0:
448,192,109414,1,0,0:0:0:0:
320,192,109876,1,0,0:0:0:0:
64,192,109876,1,0,0:0:0:0:
64,192,110337,1,0,0:0:0:0:
448,192,110337,1,0,0:0:0:0:
320,192,110799,1,8,0:0:0:0:
448,192,110799,1,2,0:0:0:0:
192,192,111260,1,8,0:0:0:0:
320,192,111260,1,2,0:0:0:0:
64,192,111722,1,2,0:0:0:0:
192,192,111722,1,8,0:0:0:0:
64,192,112183,1,8,0:0:0:0:
448,192,112183,1,2,0:0:0:0:
320,192,112414,1,8,0:0:0:0:
448,192,112645,1,2,0:0:0:0:
192,192,112645,1,8,0:0:0:0:
320,192,113106,1,8,0:0:0:0:
64,192,113106,1,2,0:0:0:0:
64,192,113568,1,2,0:0:0:0:
448,192,113568,1,8,0:0:0:0:
320,192,114030,1,2,0:0:0:0:
448,192,114030,1,8,0:0:0:0:
64,192,114260,1,8,0:0:0:0:
192,192,114376,1,8,0:0:0:0:
320,192,114491,1,8,0:0:0:0:
64,192,114722,1,8,0:0:0:0:
448,192,114953,1,8,0:0:0:0:
192,192,115183,1,8,0:0:0:0:
320,192,115414,1,8,0:0:0:0:
64,192,115645,1,8,0:0:0:0:
448,192,115876,1,8,0:0:0:0:
192,192,116106,1,8,0:0:0:0:
448,192,116337,128,8,117260:0:0:0:0:
320,192,116337,1,0,0:0:0:0:
192,192,117260,128,2,118183:0:0:0:0:
64,192,117260,128,0,118183:0:0:0:0:
448,192,118183,1,4,0:0:0:0:
448,192,120030,1,2,0:0:0:0:
320,192,120030,128,4,120491:0:0:0:0:
192,192,120491,1,8,0:0:0:0:
64,192,120491,1,0,0:0:0:0:
64,192,120837,1,0,0:0:0:0:
448,192,120953,1,2,0:0:0:0:
320,192,121183,1,2,0:0:0:0:
448,192,121414,1,8,0:0:0:0:
192,192,121414,1,0,0:0:0:0:
64,192,121645,1,0,0:0:0:0:
320,192,121876,1,2,0:0:0:0:
192,192,122106,1,2,0:0:0:0:
448,192,122337,1,8,0:0:0:0:
64,192,122337,1,0,0:0:0:0:
320,192,122568,1,0,0:0:0:0:
192,192,122799,128,2,123260:0:0:0:0:
448,192,123260,128,8,123722:0:0:0:0:
64,192,123260,128,0,123722:0:0:0:0:
320,192,123722,128,2,124183:0:0:0:0:
192,192,124183,1,8,0:0:0:0:
448,192,124299,1,0,0:0:0:0:
64,192,124530,1,0,0:0:0:0:
320,192,124645,1,2,0:0:0:0:
192,192,124760,1,0,0:0:0:0:
448,192,124876,1,2,0:0:0:0:
64,192,125106,1,8,0:0:0:0:
448,192,125106,1,0,0:0:0:0:
192,192,125337,1,0,0:0:0:0:
320,192,125568,1,2,0:0:0:0:
192,192,125799,1,0,0:0:0:0:
320,192,126030,1,8,0:0:0:0:
448,192,126030,1,0,0:0:0:0:
64,192,126260,1,2,0:0:0:0:
192,192,126491,1,2,0:0:0:0:
64,192,126953,1,8,0:0:0:0:
448,192,126953,1,0,0:0:0:0:
320,192,127183,1,2,0:0:0:0:
192,192,127414,1,2,0:0:0:0:
320,192,127876,1,8,0:0:0:0:
448,192,127876,1,0,0:0:0:0:
64,192,128106,1,2,0:0:0:0:
192,192,128337,1,2,0:0:0:0:
64,192,128799,1,8,0:0:0:0:
448,192,128799,1,0,0:0:0:0:
320,192,129030,1,0,0:0:0:0:
448,192,129260,1,2,0:0:0:0:
192,192,129491,1,2,0:0:0:0:
320,192,129722,1,8,0:0:0:0:
64,192,129722,1,0,0:0:0:0:
192,192,129953,1,2,0:0:0:0:
448,192,130183,1,2,0:0:0:0:
320,192,130414,1,2,0:0:0:0:
64,192,130645,128,8,131106:0:0:0:0:
192,192,130645,1,0,0:0:0:0:
320,192,131106,1,2,0:0:0:0:
192,192,131337,1,2,0:0:0:0:
448,192,131568,1,8,0:0:0:0:
320,192,131568,1,0,0:0:0:0:
64,192,131799,1,0,0:0:0:0:
192,192,132030,1,2,0:0:0:0:
448,192,132260,1,0,0:0:0:0:
320,192,132491,1,8,0:0:0:0:
64,192,132491,1,0,0:0:0:0:
192,192,132722,1,0,0:0:0:0:
448,192,132953,1,2,0:0:0:0:
64,192,133183,1,2,0:0:0:0:
448,192,133414,1,8,0:0:0:0:
320,192,133414,128,0,133876:0:0:0:0:
192,192,133876,1,2,0:0:0:0:
64,192,134106,1,0,0:0:0:0:
320,192,134337,1,8,0:0:0:0:
448,192,134337,128,0,134799:0:0:0:0:
192,192,134568,1,2,0:0:0:0:
320,192,134799,1,2,0:0:0:0:
64,192,135030,1,2,0:0:0:0:
320,192,135260,1,8,0:0:0:0:
192,192,135260,1,0,0:0:0:0:
448,192,135491,1,0,0:0:0:0:
64,192,135722,1,2,0:0:0:0:
448,192,136183,1,8,0:0:0:0:
320,192,136183,128,0,136645:0:0:0:0:
64,192,136645,1,2,0:0:0:0:
192,192,136876,1,2,0:0:0:0:
64,192,137106,1,8,0:0:0:0:
448,192,137106,1,0,0:0:0:0:
320,192,137337,1,0,0:0:0:0:
192,192,137568,128,2,138030:0:0:0:0:
64,192,138030,128,8,138491:0:0:0:0:
448,192,138030,128,0,138491:0:0:0:0:
320,192,138491,128,2,138953:0:0:0:0:
64,192,138953,1,8,0:0:0:0:
192,192,139068,1,0,0:0:0:0:
448,192,139183,1,0,0:0:0:0:
320,192,139299,1,0,0:0:0:0:
64,192,139414,1,2,0:0:0:0:
192,192,139530,1,0,0:0:0:0:
320,192,139645,1,2,0:0:0:0:
64,192,139876,1,8,0:0:0:0:
192,192,139876,1,0,0:0:0:0:
448,192,140106,1,2,0:0:0:0:
320,192,140337,1,2,0:0:0:0:
64,192,140568,1,0,0:0:0:0:
192,192,140799,1,8,0:0:0:0:
448,192,140799,1,0,0:0:0:0:
320,192,141030,1,0,0:0:0:0:
64,192,141260,1,2,0:0:0:0:
320,192,141491,1,2,0:0:0:0:
192,192,141722,1,8,0:0:0:0:
64,192,141722,1,0,0:0:0:0:
448,192,141953,128,2,142645:0:0:0:0:
192,192,142183,1,2,0:0:0:0:
320,192,142645,1,8,0:0:0:0:
64,192,142645,1,0,0:0:0:0:
192,192,142876,1,2,0:0:0:0:
448,192,143106,1,2,0:0:0:0:
320,192,143337,1,2,0:0:0:0:
192,192,143568,1,8,0:0:0:0:
64,192,143568,128,0,144030:0:0:0:0:
448,192,144030,1,2,0:0:0:0:
192,192,144260,1,0,0:0:0:0:
64,192,144491,1,8,0:0:0:0:
320,192,144491,1,0,0:0:0:0:
448,192,144722,1,2,0:0:0:0:
320,192,144953,1,2,0:0:0:0:
192,192,145183,1,2,0:0:0:0:
64,192,145414,128,8,145876:0:0:0:0:
448,192,145414,1,0,0:0:0:0:
320,192,145876,1,2,0:0:0:0:
192,192,146106,1,2,0:0:0:0:
64,192,146337,1,8,0:0:0:0:
448,192,146337,1,0,0:0:0:0:
320,192,146568,1,0,0:0:0:0:
192,192,146799,1,2,0:0:0:0:
448,192,147030,1,0,0:0:0:0:
320,192,147260,1,8,0:0:0:0:
64,192,147260,1,0,0:0:0:0:
192,192,147491,1,0,0:0:0:0:
64,192,147722,1,8,0:0:0:0:
448,192,147722,1,2,0:0:0:0:
448,192,147953,1,2,0:0:0:0:
64,192,147953,1,8,0:0:0:0:
320,192,148183,1,8,0:0:0:0:
192,192,148183,1,2,0:0:0:0:
192,192,148414,1,2,0:0:0:0:
320,192,148414,1,8,0:0:0:0:
448,192,148645,128,8,149106:0:0:0:0:
64,192,148645,128,0,149106:0:0:0:0:
192,192,149106,128,2,149568:0:0:0:0:
320,192,149106,128,0,149568:0:0:0:0:
64,192,149568,1,4,0:0:0:0:
448,192,149568,1,2,0:0:0:0:
