osu file format v14

[General]
AudioFilename: Beautiful Dream .mp3
AudioLeadIn: 0
PreviewTime: 45638
Countdown: 0
SampleSet: Soft
StackLeniency: 0.7
Mode: 0
LetterboxInBreaks: 0
WidescreenStoryboard: 0

[Editor]
Bookmarks: 34264
DistanceSpacing: 1
BeatDivisor: 4
GridSize: 4
TimelineZoom: 1

[Metadata]
Title:Beautiful Dream
TitleUnicode:Beautiful Dream
Artist:REDALiCE feat. anporin
ArtistUnicode:REDALiCE feat. anporin
Creator:Dailycare
Version:Hyper
Source:DanceDanceRevolution
Tags:Nasya N_a_s_y_a DDR 2013 GITADORA REFLEC BEAT colette -Autumn- Ayumi Nomiya sassy ミライダガッキ FutureTomTom Ver.2
BeatmapID:994188
BeatmapSetID:463361

[Difficulty]
HPDrainRate:6
CircleSize:3.8
OverallDifficulty:6.5
ApproachRate:8
SliderMultiplier:1.65
SliderTickRate:1

[Events]
//Background and Video events
0,0,"BG.jpg",0,0
//Break Periods
//Storyboard Layer 0 (Background)
//Storyboard Layer 1 (Fail)
//Storyboard Layer 2 (Pass)
//Storyboard Layer 3 (Foreground)
//Storyboard Sound Samples

[TimingPoints]
1380,329.67032967033,4,2,2,70,1,0
13248,-125,4,2,2,70,0,0
23797,-100,4,2,2,70,0,0
29072,-125,4,2,2,70,0,0
41929,-100,4,2,2,70,0,0
45390,-100,4,2,2,80,0,0
46215,-100,4,2,2,70,0,1
56682,-100,4,2,2,70,0,0
56764,-100,4,2,2,70,0,1
67314,-125,4,2,2,70,0,0
76544,-100,4,2,2,70,0,0
81160,-76.9230769230769,4,2,1,70,0,1
81489,-100,4,2,2,70,0,0
81819,-100,4,2,2,70,0,1
89649,-100,4,2,2,70,0,0
89731,-100,4,2,2,70,0,1
100281,-100,4,2,2,70,0,0
111901,-100,4,2,2,20,0,0

[Colours]
Combo1 : 255,160,122
Combo2 : 255,106,106
Combo3 : 245,216,175
Combo4 : 248,137,209

[HitObjects]
248,12,1544,5,0,3:0:0:0:
248,12,1627,1,0,3:0:0:0:
248,12,1709,1,0,3:0:0:0:
252,100,1874,1,0,3:0:0:0:
256,188,2039,1,4,3:2:0:0:
256,188,2369,2,0,L|184:182,3,41.25,2|0|2|0,3:2|3:0|3:2|3:0,0:0:0:0:
184,164,2698,6,0,P|142:208|160:324,1,165,4|8,1:2|0:0,0:0:0:0:
232,336,3193,2,0,P|273:324|322:314,1,82.5,0|0,0:0|0:0,0:0:0:0:
146,306,3522,2,0,P|105:318|56:328,1,82.5,0|8,0:0|0:0,0:0:0:0:
0,216,3852,6,0,P|12:160|110:185,1,165,0|0,0:0|0:0,0:0:0:0:
146,306,4347,2,0,P|105:318|56:328,1,82.5,8|0,0:0|0:0,0:0:0:0:
188,216,4676,2,0,B|278:207|248:262|348:249,1,165,0|8,0:0|0:0,0:0:0:0:
420,200,5171,1,0,0:0:0:0:
500,240,5336,6,0,P|494:284|488:344,1,82.5,0|0,0:0|0:0,0:0:0:0:
420,200,5665,1,8,0:0:0:0:
492,147,5830,2,0,P|431:109|334:168,1,165,0|0,0:0|0:0,0:0:0:0:
328,228,6325,1,8,0:0:0:0:
440,349,6489,6,2,B|455:235|455:235|420:200,1,165,8|0,3:2|0:0,0:1:0:0:
328,228,6984,1,8,0:0:0:0:
235,255,7149,2,2,B|200:220|200:220|214:105,1,165,8|0,3:2|0:0,0:1:0:0:
284,40,7643,1,2,3:2:0:0:
304,45,7726,1,0,0:0:0:0:
323,50,7808,1,2,0:0:0:0:
342,55,7890,1,0,0:0:0:0:
362,60,7973,6,0,P|344:104|220:108,1,165,4|8,1:2|0:0,0:0:0:0:
156,84,8467,2,0,P|162:39|166:-3,1,82.5,0|0,0:0|0:0,0:0:0:0:
238,122,8797,2,0,P|232:167|228:209,1,82.5,0|8,0:0|0:0,0:0:0:0:
92,216,9127,6,0,P|32:162|73:98,1,165,0|0,0:0|0:0,0:0:0:0:
238,122,9621,2,0,P|232:167|228:209,1,82.5,8|0,0:0|0:0,0:0:0:0:
164,268,9951,2,0,P|204:232|316:264,1,165,0|8,0:0|0:0,0:0:0:0:
305,251,10610,6,0,P|362:243|403:235,1,82.5,12|8,1:2|0:0,0:0:0:0:
240,304,10940,2,0,P|218:357|204:396,1,82.5,8|8,0:0|0:0,0:0:0:0:
226,221,11270,2,0,P|190:175|163:144,1,82.5,12|8,0:0|0:0,0:0:0:0:
88,124,11599,1,8,0:0:0:0:
90,103,11682,1,8,0:0:0:0:
92,82,11764,1,8,0:0:0:0:
95,61,11847,1,0,0:0:0:0:
98,40,11929,6,0,P|152:16|244:100,1,165,12|8,1:2|0:0,0:0:0:0:
248,156,12423,2,0,P|300:130|312:19,1,165,4|4,0:0|0:0,0:0:0:0:
318,31,13248,6,0,P|317:75|328:113,1,66,4|0,0:0|0:0,0:0:0:0:
364,172,13577,2,0,P|365:216|354:254,1,66,2|0,0:0|0:0,0:0:0:0:
304,300,13907,2,0,P|238:292|185:345,1,132,0|2,0:0|0:0,0:0:0:0:
267,375,14401,1,0,0:0:0:0:
356,367,14566,6,0,P|418:380|472:323,1,132,0|2,0:0|0:0,0:0:0:0:
492,256,15061,1,0,0:0:0:0:
412,224,15226,2,0,P|401:186|396:152,1,66,2|2,3:2|0:0,0:0:0:0:
464,104,15555,2,0,P|475:142|480:176,1,66,2|2,3:2|0:0,0:0:0:0:
412,224,15885,6,0,L|340:220,1,66,0|0,0:0|0:0,0:0:0:0:
276,272,16215,2,0,L|210:275,1,66,2|0,0:0|0:0,0:0:0:0:
136,320,16544,2,0,P|164:279|136:184,1,132,0|2,0:0|0:0,0:0:0:0:
148,115,17039,1,0,0:0:0:0:
88,48,17204,6,0,P|60:89|88:184,1,132,0|2,0:0|0:0,0:0:0:0:
151,201,17698,2,0,P|186:192|234:183,1,66,0|2,0:0|3:2,0:0:0:0:
296,216,18028,2,0,P|324:257|296:352,1,132,2|2,0:0|3:2,0:0:0:0:
240,284,18522,5,4,0:3:0:0:
240,284,18687,2,0,P|268:256|374:277,1,132,2|0,0:0|0:0,0:0:0:0:
408,332,19182,2,0,L|400:176,1,132,10|2,0:0|0:0,0:0:0:0:
452,128,19676,1,4,0:3:0:0:
452,128,19841,6,0,L|446:22,2,99,4|4|4,0:3|0:3|0:3,0:0:0:0:
401,200,20500,1,10,0:0:0:0:
484,216,20665,1,0,0:0:0:0:
364,116,20830,2,0,P|324:112|289:110,1,66,8|0,0:3|0:0,0:0:0:0:
224,160,21160,6,0,P|208:112|264:32,1,132,4|0,0:3|0:0,0:0:0:0:
288,224,21819,2,0,P|304:272|248:352,1,132,8|0,0:0|0:0,0:0:0:0:
220,272,22314,1,4,0:3:0:0:
148,316,22478,6,0,L|28:308,2,99,4|2|0,0:0|0:0|0:0,0:0:0:0:
220,272,23138,2,0,L|300:267,1,66,2|2,3:2|0:0,0:0:0:0:
144,232,23467,2,0,L|64:227,1,66,2|2,3:2|0:0,0:0:0:0:
212,184,23797,6,0,P|228:144|213:95,1,82.5,4|0,3:2|0:0,0:0:0:0:
144,56,24127,2,0,P|104:62|33:70,1,82.5,8|0,0:0|0:0,0:0:0:0:
220,106,24456,2,0,P|276:82|368:154,1,165,0|8,0:0|0:0,0:0:0:0:
492,248,24951,1,0,0:0:0:0:
492,248,25116,6,0,P|436:272|344:200,1,165,0|8,0:0|0:0,0:0:0:0:
432,180,25610,1,0,0:0:0:0:
351,223,25775,2,0,P|347:265|344:328,1,82.5,2|2,3:2|0:0,0:0:0:0:
284,372,26105,2,0,P|254:367|190:359,1,82.5,2|2,3:2|0:0,0:0:0:0:
116,380,26434,6,0,P|115:339|162:285,1,82.5,0|0,0:0|0:0,0:0:0:0:
216,260,26764,2,0,P|229:221|201:155,1,82.5,8|0,0:0|0:0,0:0:0:0:
134,303,27094,2,0,P|72:284|50:175,1,165,0|8,0:0|0:0,0:0:0:0:
176,104,27588,1,0,0:0:0:0:
176,104,27753,6,0,P|248:107|356:116,1,165,0|8,0:0|0:0,0:0:0:0:
424,148,28248,1,0,0:0:0:0:
424,148,28412,1,2,3:2:0:0:
460,228,28577,2,0,P|446:175|508:84,1,165,2|2,0:0|3:2,0:0:0:0:
460,8,29072,1,4,0:3:0:0:
460,8,29237,6,0,P|413:45|326:21,1,132,2|0,0:0|0:0,0:0:0:0:
256,48,29731,2,0,P|272:88|304:184,1,132,8|2,0:0|0:0,0:0:0:0:
280,256,30226,1,0,0:0:0:0:
280,256,30390,6,0,L|296:304|318:370,2,99,4|4|4,0:3|0:3|0:3,0:0:0:0:
300,172,31050,1,8,0:0:0:0:
360,232,31215,1,0,0:0:0:0:
216,192,31380,2,0,P|215:169|212:97,1,66,8|0,0:3|0:0,0:0:0:0:
290,87,31709,6,0,P|256:52|160:60,1,132,4|0,0:3|0:0,0:0:0:0:
140,232,32369,2,0,P|174:267|270:259,1,132,8|0,0:0|0:0,0:0:0:0:
300,200,32863,1,0,0:0:0:0:
380,232,33028,6,0,P|370:271|356:351,2,99,4|4|4,3:2|3:2|3:2,0:0:0:0:
300,200,33687,2,0,P|324:164|425:160,1,132,4|2,0:0|3:2,0:0:0:0:
421,157,34099,1,0,3:0:0:0:
435,164,34182,1,2,3:2:0:0:
449,171,34264,1,0,3:0:0:0:
463,179,34347,6,0,P|460:211|456:260,1,66,4|0,3:2|0:0,0:0:0:0:
372,268,34676,2,0,P|375:300|379:349,1,66,0|0,3:0|0:0,0:0:0:0:
292,172,35006,2,0,P|289:204|285:253,1,66,0|0,3:0|0:0,0:0:0:0:
201,261,35335,2,0,P|204:293|208:342,1,66,2|0,3:2|0:0,0:0:0:0:
132,200,35665,6,0,P|92:184|0:240,1,132,0|0,3:0|3:0,0:0:0:0:
0,304,36160,1,0,0:0:0:0:
44,382,36325,2,0,P|88:336|84:272,1,132,0|2,3:0|3:2,0:0:0:0:
44,1,36984,6,0,P|88:47|84:112,1,132,0|2,3:0|0:0,0:0:0:0:
224,224,37643,2,0,P|180:177|184:113,1,132,0|2,3:0|0:0,0:0:0:0:
184,113,38303,6,0,P|229:106|272:101,1,66,0|0,3:0|0:0,0:0:0:0:
324,144,38632,1,2,0:0:0:0:
372,216,38797,2,0,P|404:178|390:86,1,132,0|0,3:0|0:0,0:0:0:0:
336,40,39292,2,0,L|303:35|270:30,1,66,2|2,3:2|3:2,0:0:0:0:
204,88,39621,6,0,P|152:100|76:40,1,132,4|2,3:2|0:0,0:0:0:0:
4,92,40116,1,0,3:0:0:0:
68,152,40281,2,0,P|74:188|70:228,1,66,0|0,0:0|0:0,0:0:0:0:
95,305,40610,2,0,P|62:307|32:296,1,66,2|0,3:2|0:0,0:0:0:0:
156,240,40940,6,0,P|189:218|290:255,1,132,4|2,3:2|0:0,0:0:0:0:
304,320,41434,1,0,3:0:0:0:
228,364,41599,2,0,P|216:333|218:300,1,66,4|4,0:3|0:3,0:0:0:0:
360,256,41929,1,8,3:2:0:0:
380,259,42011,1,0,0:0:0:0:
400,262,42094,1,8,3:2:0:0:
420,265,42176,1,8,0:0:0:0:
440,268,42259,6,0,P|476:248|484:120,1,165,12|2,1:2|0:0,0:0:0:0:
400,68,42753,2,0,P|357:72|314:78,1,82.5,8|0,1:2|0:0,0:0:0:0:
220,140,43083,2,0,P|199:89|203:45,1,82.5,10|0,1:2|0:0,0:0:0:0:
324,196,43412,1,10,1:2:0:0:
324,196,43495,1,0,0:0:0:0:
324,196,43577,6,0,P|345:247|341:291,1,82.5,0|0,0:0|0:0,0:0:0:0:
280,368,43907,2,0,P|243:319|153:325,1,123.75,8|0,1:2|0:0,0:0:0:0:
148,332,44237,1,10,1:2:0:0:
64,300,44401,1,0,0:0:0:0:
28,216,44566,1,10,1:2:0:0:
52,128,44731,1,0,1:0:0:0:
52,128,44814,1,0,0:0:0:0:
52,128,44896,6,0,B|98:131|98:131|123:144|123:144|193:148,2,123.75,10|8|4,1:2|0:0|0:0,0:0:0:0:
460,127,46215,6,0,B|428:130|428:130|411:139|411:139|360:144,1,82.5,4|0,1:2|0:0,0:0:0:0:
346,147,46462,1,0,0:0:0:0:
346,147,46544,1,10,0:0:0:0:
276,208,46709,2,0,P|251:166|264:100,1,82.5,0|8,0:0|0:1,0:0:0:0:
296,52,47039,2,0,L|393:58,1,82.5,0|10,0:0|0:0,0:0:0:0:
250,133,47369,6,0,L|85:122,1,165,0|0,0:0|0:0,0:0:0:0:
133,203,47863,2,0,P|168:167|171:85,1,123.75,10|0,0:0|0:0,0:0:0:0:
156,60,48193,2,0,P|191:34|230:13,1,82.5,8|2,0:1|0:0,0:0:0:0:
85,122,48522,2,0,P|49:147|11:169,1,82.5,10|10,0:0|0:0,0:0:0:0:
14,259,48852,6,0,P|50:279|84:304,1,82.5,8|0,0:1|0:0,0:0:0:0:
116,332,49099,1,0,0:0:0:0:
116,332,49182,1,10,0:0:0:0:
204,360,49347,2,0,P|208:310|178:264,1,82.5,0|8,0:0|0:1,0:0:0:0:
260,216,49676,2,0,P|308:227|356:241,1,82.5,0|10,0:0|0:0,0:0:0:0:
194,281,50006,6,0,P|166:233|218:134,1,165,2|10,0:1|0:0,0:0:0:0:
256,48,50500,1,10,0:0:0:0:
296,128,50665,1,10,0:0:0:0:
336,208,50830,2,0,P|380:221|426:203,1,82.5,8|0,0:1|0:0,0:0:0:0:
464,136,51160,1,10,0:0:0:0:
404,68,51325,1,10,0:0:0:0:
404,68,51407,1,0,0:0:0:0:
404,68,51489,6,0,L|225:77,1,165,4|10,0:0|0:0,0:0:0:0:
166,130,51984,1,0,0:0:0:0:
166,130,52149,2,0,P|148:80|163:26,1,82.5,8|0,0:1|0:0,0:0:0:0:
244,168,52478,2,0,P|262:218|247:272,1,82.5,12|8,0:0|0:0,0:0:0:0:
212,324,52808,6,0,P|188:288|64:292,1,165,4|10,0:0|0:0,0:0:0:0:
50,364,53303,1,0,0:0:0:0:
50,364,53467,2,0,P|91:369|128:352,1,82.5,8|0,0:1|0:0,0:0:0:0:
204,200,53797,1,12,0:0:0:0:
202,179,53880,1,0,0:0:0:0:
200,158,53962,1,8,0:0:0:0:
198,137,54044,1,0,0:0:0:0:
196,116,54127,6,0,P|232:72|340:96,1,165,4|8,0:0|0:0,0:0:0:0:
464,175,54621,2,0,P|423:171|384:160,1,82.5,10|0,0:0|0:0,0:0:0:0:
288,236,54951,2,0,P|329:239|368:251,1,82.5,10|0,0:0|0:0,0:0:0:0:
432,356,55281,2,0,P|391:352|352:341,1,82.5,10|8,0:0|0:1,0:0:0:0:
288,236,55610,6,2,B|281:178|281:178|314:133|314:133|321:58,1,165,2|8,0:1|0:1,0:1:0:0:
324,48,56022,1,0,0:0:0:0:
324,48,56105,2,2,P|275:72|211:47,1,123.75,2|2,0:1|0:0,0:1:0:0:
200,12,56434,1,10,0:0:0:0:
152,100,56599,1,10,0:0:0:0:
56,64,56764,6,0,P|48:104|80:168,1,82.5,4|0,1:2|0:0,0:0:0:0:
84,176,57011,1,0,0:0:0:0:
84,176,57094,1,10,0:0:0:0:
176,196,57259,2,0,L|263:188,1,82.5,0|8,0:0|0:1,0:0:0:0:
340,148,57588,2,0,P|348:188|316:252,1,82.5,0|10,0:0|0:0,0:0:0:0:
340,372,57918,6,0,P|263:351|261:273,1,165,0|0,0:0|0:0,0:0:0:0:
336,227,58412,2,0,L|468:243,1,123.75,10|0,0:0|0:0,0:0:0:0:
496,248,58742,2,0,P|504:293|510:331,1,82.5,8|2,0:1|0:0,0:0:0:0:
468,164,59072,2,0,P|460:119|454:81,1,82.5,10|10,0:0|0:0,0:0:0:0:
368,48,59401,6,0,P|333:77|303:101,1,82.5,8|0,0:1|0:0,0:0:0:0:
272,116,59649,1,0,0:0:0:0:
272,116,59731,1,10,0:0:0:0:
206,182,59896,2,0,P|177:139|187:80,1,82.5,0|8,0:0|0:1,0:0:0:0:
224,32,60226,2,0,P|294:36|332:39,1,82.5,0|10,0:0|0:0,0:0:0:0:
175,109,60555,6,0,P|123:63|27:78,1,165,2|10,0:1|0:0,0:0:0:0:
4,192,61050,1,10,0:0:0:0:
88,152,61215,1,10,0:0:0:0:
175,109,61380,2,0,L|181:191,1,82.5,8|0,0:1|0:0,0:0:0:0:
240,260,61709,1,10,0:0:0:0:
324,308,61874,1,10,0:0:0:0:
324,308,61956,1,0,0:0:0:0:
324,308,62039,6,0,P|332:229|267:172,1,165,8|10,0:1|0:0,0:0:0:0:
181,191,62533,2,0,P|87:211|8:236,1,165,10|8,0:0|3:1,0:0:0:0:
240,260,63028,1,2,0:0:0:0:
240,260,63110,1,0,0:0:0:0:
240,260,63193,1,0,3:0:0:0:
240,260,63275,1,0,0:0:0:0:
240,260,63358,6,0,P|333:239|413:215,1,165,8|10,0:1|0:0,0:0:0:0:
480,268,63852,2,0,P|422:213|430:133,1,165,10|8,0:0|3:1,0:0:0:0:
500,64,64347,1,2,0:0:0:0:
500,64,64429,1,0,0:0:0:0:
500,64,64511,1,0,3:0:0:0:
500,64,64594,1,0,0:0:0:0:
500,64,64676,6,0,L|442:58,3,41.25,8|0|0|0,3:1|3:0|3:0|3:0,0:0:0:0:
392,12,65006,2,0,L|350:16,3,41.25,0|0|0|0,3:0|3:0|3:0|3:0,0:0:0:0:
284,68,65336,2,0,L|242:63,3,41.25,0|0|0|0,3:0|3:0|3:0|3:0,0:0:0:0:
180,8,65665,5,12,3:2:0:0:
180,8,65830,1,4,0:0:0:0:
216,208,66160,1,8,0:0:0:0:
216,208,66325,1,4,0:3:0:0:
216,208,67314,6,0,P|230:169|217:123,1,66,4|0,3:2|0:0,0:0:0:0:
160,88,67643,2,0,P|119:95|85:129,1,66,2|0,3:2|0:0,0:0:0:0:
84,196,67973,2,0,P|110:227|159:238,1,66,2|0,3:2|0:0,0:0:0:0:
216,208,68303,1,2,3:2:0:0:
256,288,68467,6,0,P|276:268|396:288,3,132,2|2|2|2,3:2|3:2|3:2|3:2,0:0:0:0:
216,372,69786,1,2,3:2:0:0:
216,372,69869,1,2,3:2:0:0:
216,372,69951,6,0,P|185:359|149:359,1,66,2|0,3:2|0:0,0:0:0:0:
68,340,70281,2,0,P|63:306|45:275,1,66,2|0,3:2|0:0,0:0:0:0:
20,196,70611,2,0,P|46:175|64:144,1,66,2|0,3:2|0:0,0:0:0:0:
128,88,70940,1,2,3:2:0:0:
200,140,71105,6,0,P|217:101|172:12,2,132,2|2|2,3:2|3:2|3:2,0:0:0:0:
328,256,72094,2,0,P|321:288|348:341,2,66,0|2|2,3:0|0:0|0:0,0:0:0:0:
388,192,72588,6,0,L|464:199,1,66,2|0,3:2|0:0,0:0:0:0:
510,131,72918,2,0,P|518:99|511:67,1,66,2|0,3:2|0:0,0:0:0:0:
440,16,73248,2,0,L|364:23,1,66,2|0,3:2|0:0,0:0:0:0:
308,80,73577,1,2,3:2:0:0:
249,14,73742,6,0,P|223:55|249:146,3,132,2|2|2|2,3:2|3:2|3:2|3:2,0:0:0:0:
424,232,75061,1,2,3:2:0:0:
424,232,75143,1,2,3:2:0:0:
424,232,75226,6,0,P|428:188|432:139,1,66,8|2,3:1|3:2,0:0:0:0:
326,138,75555,2,0,P|328:171|332:204,1,66,8|2,3:2|3:2,0:0:0:0:
232,244,75885,2,0,P|236:200|240:151,1,66,8|2,3:1|3:2,0:0:0:0:
134,150,76215,2,0,P|136:183|140:216,1,66,8|2,0:0|3:2,0:0:0:0:
84,340,76544,6,0,P|86:317|88:289,3,41.25,8|0|10|0,3:1|0:0|3:2|0:0,0:0:0:0:
8,276,76874,2,0,P|6:229|4:201,3,41.25,8|0|10|0,3:1|0:0|3:2|0:0,0:0:0:0:
80,192,77204,2,0,P|82:169|84:141,3,41.25,8|8|8|8,3:2|0:0|3:2|0:0,0:0:0:0:
8,116,77533,2,0,P|6:93|4:65,3,41.25,8|8|8|8,3:2|3:2|3:2|3:0,0:0:0:0:
56,8,77863,5,12,1:2:0:0:
56,8,79182,5,4,1:2:0:0:
136,76,79511,1,8,0:0:0:0:
136,76,79676,1,4,1:2:0:0:
224,28,80006,1,4,1:2:0:0:
300,96,80336,1,4,1:2:0:0:
388,48,80665,1,4,1:2:0:0:
396,200,80995,6,0,L|388:240,1,41.25,0|0,0:0|0:0,0:0:0:0:
353,307,81160,6,0,P|317:267|365:171,1,160.874992635727,12|0,1:0|0:0,0:0:0:0:
373,127,81489,1,8,3:2:0:0:
394,129,81572,1,0,3:0:0:0:
415,131,81654,1,8,3:2:0:0:
436,133,81737,1,0,3:0:0:0:
456,136,81819,6,0,P|477:185|501:303,1,165,4|10,1:2|0:0,0:0:0:0:
432,356,82314,2,0,P|388:344|344:340,1,82.5,0|8,0:0|0:1,0:0:0:0:
264,376,82643,2,0,L|166:364,1,82.5,0|10,0:0|0:0,0:0:0:0:
351,340,82973,6,0,P|318:294|198:308,1,165,2|10,0:1|0:0,0:0:0:0:
60,296,83467,1,10,0:0:0:0:
136,248,83632,1,10,0:0:0:0:
212,200,83797,2,0,P|221:166|225:113,1,82.5,8|0,0:1|0:0,0:0:0:0:
168,48,84127,1,10,0:0:0:0:
112,120,84292,1,10,0:0:0:0:
112,120,84374,1,0,0:0:0:0:
112,120,84456,6,0,L|120:312,1,165,4|10,0:0|0:0,0:0:0:0:
172,360,84951,1,0,0:0:0:0:
172,360,85116,2,0,P|132:380|76:364,1,82.5,8|0,0:1|0:0,0:0:0:0:
208,276,85445,2,0,L|301:284,1,82.5,12|8,0:0|0:0,0:0:0:0:
352,348,85775,6,0,P|376:312|320:200,1,165,4|8,0:0|0:0,0:0:0:0:
304,128,86270,1,0,0:0:0:0:
304,128,86434,2,0,P|346:120|397:152,1,82.5,8|0,0:1|0:0,0:0:0:0:
252,208,86764,1,14,0:0:0:0:
231,205,86847,1,0,0:0:0:0:
210,202,86929,1,10,0:0:0:0:
189,199,87011,1,0,0:0:0:0:
168,196,87094,6,0,P|125:136|168:32,1,165,4|8,0:0|0:0,0:0:0:0:
300,16,87588,2,0,P|341:12|382:7,1,82.5,10|0,0:0|0:0,0:0:0:0:
460,96,87918,2,0,P|418:99|377:104,1,82.5,10|0,0:0|0:0,0:0:0:0:
324,208,88248,2,0,P|365:204|406:199,1,82.5,8|8,0:0|0:1,0:0:0:0:
460,96,88577,6,0,B|405:85|405:85|361:115|361:115|296:123,1,165,2|8,0:1|0:1,0:0:0:0:
272,116,88989,1,0,0:0:0:0:
272,116,89072,2,2,P|272:172|212:228,1,123.75,2|2,0:1|0:0,0:1:0:0:
188,228,89401,1,10,0:0:0:0:
276,280,89566,1,10,0:0:0:0:
356,216,89731,6,0,P|400:212|448:240,1,82.5,4|0,1:2|0:0,0:0:0:0:
460,260,89978,1,0,0:0:0:0:
460,260,90061,1,10,0:0:0:0:
508,184,90226,2,0,P|500:144|492:84,1,82.5,0|8,0:0|0:1,0:0:0:0:
459,19,90555,2,0,P|417:51|406:101,1,82.5,0|10,0:0|0:0,0:0:0:0:
356,216,90885,6,0,P|268:240|216:172,1,165,0|0,0:0|0:0,0:0:0:0:
232,104,91380,2,0,L|80:116,1,123.75,10|0,0:0|0:0,0:0:0:0:
72,108,91709,2,0,P|77:53|87:-1,1,82.5,8|2,0:1|0:0,0:0:0:0:
104,196,92039,2,0,P|99:251|89:305,1,82.5,10|10,0:0|0:0,0:0:0:0:
160,344,92369,6,0,P|210:320|261:302,1,82.5,8|0,0:1|0:0,0:0:0:0:
272,304,92616,1,0,0:0:0:0:
272,304,92698,1,10,0:0:0:0:
360,324,92863,2,0,P|360:280|316:228,1,82.5,0|8,0:0|0:1,0:0:0:0:
364,160,93193,2,0,L|447:167,1,82.5,0|10,0:0|0:0,0:0:0:0:
341,247,93522,6,0,L|176:233,1,165,2|10,0:1|0:0,0:0:0:0:
184,144,94017,1,10,0:0:0:0:
100,176,94182,1,10,0:0:0:0:
16,208,94347,2,0,P|11:163|31:119,1,82.5,8|0,0:1|0:0,0:0:0:0:
104,84,94676,1,10,0:0:0:0:
184,144,94841,1,10,0:0:0:0:
184,144,94923,1,0,0:0:0:0:
184,144,95006,6,0,P|232:164|328:92,1,165,8|10,0:1|0:0,0:0:0:0:
332,24,95500,2,0,P|332:84|360:208,1,165,10|8,0:0|3:1,0:0:0:0:
452,312,95995,1,2,0:0:0:0:
452,312,96077,1,0,0:0:0:0:
452,312,96160,1,0,3:0:0:0:
452,312,96242,1,0,0:0:0:0:
452,312,96325,6,0,P|452:252|424:128,1,165,8|10,0:1|0:0,0:0:0:0:
484,80,96819,2,0,P|436:60|340:132,1,165,10|8,0:0|3:1,0:0:0:0:
260,128,97314,1,2,0:0:0:0:
260,128,97396,1,0,0:0:0:0:
260,128,97478,1,0,3:0:0:0:
260,128,97561,1,0,0:0:0:0:
260,128,97643,6,0,L|264:179,3,41.25,8|0|0|0,3:1|3:0|3:0|3:0,0:0:0:0:
328,220,97973,2,0,L|324:261,3,41.25,0|0|0|0,3:0|3:0|3:0|3:0,0:0:0:0:
248,292,98303,2,0,L|251:333,3,41.25,0|0|0|0,3:0|3:0|3:0|3:0,0:0:0:0:
324,380,98632,5,12,3:2:0:0:
324,380,98797,1,4,0:0:0:0:
180,200,99127,1,8,0:0:0:0:
180,200,99292,1,4,0:0:0:0:
180,200,100281,6,0,P|214:156|334:173,1,165,4|8,1:2|0:0,0:0:0:0:
376,224,100775,2,0,P|368:270|352:334,1,82.5,0|0,0:0|0:0,0:0:0:0:
316,156,101105,2,0,P|324:110|340:46,1,82.5,0|8,0:0|0:0,0:0:0:0:
474,47,101434,6,0,P|503:121|460:188,1,165,0|0,0:0|0:0,0:0:0:0:
316,156,101929,2,0,P|324:110|340:46,1,82.5,8|0,0:0|0:0,0:0:0:0:
376,223,102259,2,0,P|300:247|236:200,1,165,0|8,0:0|0:0,0:0:0:0:
158,160,102753,1,0,0:0:0:0:
86,221,102918,6,0,P|88:267|94:324,1,82.5
158,160,103248,1,8,0:0:0:0:
86,221,103412,2,0,P|22:201|-6:91,1,165
7,27,103907,1,8,0:0:0:0:
138,48,104072,6,2,B|172:85|172:85|164:200,1,165,8|0,3:2|0:0,0:1:0:0:
256,224,104566,1,8,0:0:0:0:
348,200,104731,2,2,B|340:85|340:85|373:48,1,165,8|0,3:2|0:0,0:1:0:0:
464,80,105226,1,8,3:2:0:0:
462,100,105308,1,0,0:0:0:0:
460,120,105390,1,8,0:0:0:0:
458,140,105473,1,0,0:0:0:0:
456,160,105555,6,0,P|397:140|383:44,1,165,4|8,1:2|0:0,0:0:0:0:
460,0,106050,2,0,P|504:8|536:48,1,82.5,0|0,0:0|0:0,0:0:0:0:
381,47,106380,2,0,L|273:43,1,82.5,0|8,0:0|0:0,0:0:0:0:
156,92,106709,6,0,P|222:158|283:101,1,165,0|0,0:0|0:0,0:0:0:0:
214,5,107204,2,0,L|131:8,1,82.5,8|0,0:0|0:0,0:0:0:0:
40,33,107533,2,0,P|-8:96|9:174,1,165,0|8,0:0|0:0,0:0:0:0:
80,232,108028,1,0,0:0:0:0:
80,232,108193,6,0,P|121:221|183:208,1,82.5,12|8,1:2|0:0,0:0:0:0:
248,72,108522,2,0,P|237:113|217:173,1,82.5,8|8,0:0|0:0,0:0:0:0:
302,297,108852,2,0,P|271:266|229:219,1,82.5,12|8,0:0|0:0,0:0:0:0:
318,176,109182,1,8,0:0:0:0:
338,175,109264,1,8,0:0:0:0:
358,174,109347,1,8,0:0:0:0:
378,173,109429,1,0,0:0:0:0:
398,173,109511,6,0,L|392:353,1,165,12|0,1:2|0:0,0:0:0:0:
468,288,110006,1,4,0:0:0:0:
256,252,110336,1,4,0:0:0:0:
44,288,110665,1,4,0:0:0:0:
256,192,110830,12,0,111901,0:0:0:0:
