osu file format v14

[General]
AudioFilename: Little Star.mp3
AudioLeadIn: 0
PreviewTime: 36743
Countdown: 0
SampleSet: Normal
StackLeniency: 0.7
Mode: 0
LetterboxInBreaks: 0
WidescreenStoryboard: 0

[Editor]
DistanceSpacing: 1
BeatDivisor: 4
GridSize: 4
TimelineZoom: 1

[Metadata]
Title:Little Star
TitleUnicode:Little Star
Artist:REDALiCE Feat. Ayumi Nomiya
ArtistUnicode:REDALiCE Feat. 野宫あゆみ
Creator:liaoxingyao
Version:Normal
Source:beatmania IIDX
Tags:20th tricoro J-CORE Bruce Simple_Star victorica_db Spring Minakami Yuki mtbbsben
BeatmapID:800400
BeatmapSetID:206326

[Difficulty]
HPDrainRate:3
CircleSize:3
OverallDifficulty:4
ApproachRate:5
SliderMultiplier:1
SliderTickRate:1

[Events]
//Background and Video events
0,0,"1.jpg",0,0
//Break Periods
2,60349,68330
//Storyboard Layer 0 (Background)
//Storyboard Layer 1 (Fail)
//Storyboard Layer 2 (Pass)
//Storyboard Layer 3 (Foreground)
//Storyboard Sound Samples

[TimingPoints]
22,327.868852459016,4,1,0,50,1,0
38054,-100,4,1,0,50,0,1
45923,-100,4,1,0,50,0,0
48546,-100,4,1,0,50,0,1
53792,-100,4,1,0,50,0,0
59038,-100,4,2,0,50,0,0
82644,-100,4,1,0,50,0,1
90513,-100,4,1,0,50,0,0
93464,-100,4,1,0,50,0,1
98382,-100,4,1,0,50,0,0

[HitObjects]
60,123,185,6,0,P|106:135|198:33,1,200,0|0,0:0|0:0,0:0:0:0:
297,51,1169,1,0,0:0:0:0:
330,88,1333,6,0,P|324:128|457:183,1,200,4|0,0:0|0:0,0:0:0:0:
512,121,2317,1,8,0:0:0:0:
481,216,2644,2,0,P|423:239|344:357,1,200,0|0,0:0|0:0,0:0:0:0:
247,340,3628,1,8,0:0:0:0:
159,292,3956,6,0,P|112:289|66:308,2,75,2|2|2,1:2|1:2|1:2,0:0:0:0:
184,248,4612,2,0,P|179:187|135:155,1,100,0|8,0:0|0:0,0:0:0:0:
58,128,5267,6,0,P|63:88|81:47,2,75,4|4|4,0:0|0:0|0:0,0:0:0:0:
104,147,5923,2,0,P|166:138|254:189,1,150,0|0,0:0|0:0,0:0:0:0:
256,223,6579,6,0,P|292:165|428:173,1,200,4|0,0:0|0:0,0:0:0:0:
494,101,7562,1,8,0:0:0:0:
498,1,7890,6,0,B|408:44|408:44|299:15,1,200,0|0,1:0|1:0,0:0:0:0:
213,40,8874,1,8,1:0:0:0:
114,25,9202,6,0,L|10:21,1,100,0|8,0:0|0:0,0:0:0:0:
27,121,9858,2,0,L|131:125,1,100,0|8,0:0|0:0,0:0:0:0:
191,201,10513,6,0,P|193:226|163:284,2,75,4|4|4,0:0|0:0|0:0,0:0:0:0:
232,172,11169,2,0,P|295:160|374:223,1,150,0|0,0:0|0:0,0:0:0:0:
378,252,11825,5,4,0:0:0:0:
477,258,12153,2,0,L|477:320,2,50,0|0|8,0:0|0:0|0:0,0:0:0:0:
505,162,12808,1,0,0:0:0:0:
445,81,13136,6,0,P|449:38|471:13,2,75,0|0|0,0:0|0:0|0:0,0:0:0:0:
397,97,13792,2,0,P|337:95|297:67,1,100,8|0,0:0|0:0,0:0:0:0:
231,5,14448,6,0,P|166:3|113:23,1,100,0|0,0:0|0:0,0:0:0:0:
107,109,15103,1,8,0:0:0:0:
102,208,15431,2,0,L|103:273,1,50,0|0,0:0|0:0,0:0:0:0:
145,284,15759,6,0,P|208:274|255:283,1,100,4|4,0:0|0:0,0:0:0:0:
333,322,16415,2,0,P|396:332|443:323,1,100,0|0,0:0|0:0,0:0:0:0:
490,247,17071,6,0,P|496:181|463:106,1,150,4|0,0:0|0:0,0:0:0:0:
424,73,17726,2,0,P|372:67|305:79,1,100,8|0,0:0|2:0,0:0:0:0:
228,99,18382,6,0,L|132:95,2,75,0|0|0,0:0|0:0|0:0,0:0:0:0:
242,147,19038,2,0,P|229:200|175:232,1,100,8|0,0:0|0:0,0:0:0:0:
94,220,19694,6,0,P|44:233|25:362,1,200,0|8,0:0|0:0,0:0:0:0:
121,337,20677,1,0,0:0:0:0:
220,350,21005,6,0,B|259:358|259:358|302:347,2,75,4|4|4,0:0|0:0|0:0,0:0:0:0:
226,199,21989,2,0,L|228:136,1,50,0|0,0:0|0:0,0:0:0:0:
253,106,22317,6,0,P|305:103|350:122,1,100,4|8,0:0|0:0,0:0:0:0:
397,208,22972,2,0,P|345:211|300:192,1,100,0|8,0:0|0:0,0:0:0:0:
255,282,23628,6,0,P|258:230|239:185,1,100,0|8,0:0|0:0,0:0:0:0:
140,198,24284,2,0,P|137:146|156:101,1,100,0|8,0:0|0:0,0:0:0:0:
59,72,24940,6,0,P|72:39|217:38,1,200,0|0,0:0|0:0,0:0:0:0:
234,132,25923,1,8,0:0:0:0:
333,144,26251,2,0,P|377:139|432:93,1,100,4|4,0:0|0:0,0:0:0:0:
444,62,26743,2,0,P|473:131|448:216,1,150,4|0,0:0|0:0,0:0:0:0:
375,259,27562,6,0,P|318:249|231:349,1,200,4|0,0:0|0:0,0:0:0:0:
131,331,28546,1,8,0:0:0:0:
84,242,28874,2,0,P|85:173|206:121,1,200,0|0,0:0|0:0,0:0:0:0:
148,25,29858,1,8,0:0:0:0:
57,67,30185,6,0,L|54:147,2,75,4|4|4,0:0|0:0|0:0,0:0:0:0:
222,254,31497,2,0,L|225:334,2,75,4|4|4,0:0|0:0|0:0,0:0:0:0:
373,55,32808,2,0,L|376:135,2,75,4|4|4,0:0|0:0|0:0,0:0:0:0:
502,269,34120,6,0,P|495:334|415:378,2,150,4|4|0,0:0|0:0|0:0,0:0:0:0:
256,192,35431,12,4,36743,0:0:0:0:
232,75,38054,6,0,P|155:68|90:126,1,150,0|0,0:0|0:0,0:0:0:0:
83,157,38710,2,0,L|77:260,1,100,0|8,0:0|0:0,0:0:0:0:
161,310,39366,6,0,P|238:317|303:259,1,150,0|0,0:0|0:0,0:0:0:0:
310,228,40022,2,0,L|316:125,1,100,0|8,0:0|0:0,0:0:0:0:
392,63,40677,6,0,P|435:58|503:177,1,200
451,260,41661,1,8,0:0:0:0:
360,303,41989,6,0,L|255:298,1,100,0|8,0:0|0:0,0:0:0:0:
173,347,42644,2,0,L|68:342,1,100,0|8,0:0|0:0,0:0:0:0:
33,311,43136,1,0,0:0:0:0:
0,273,43300,6,0,P|-4:192|73:94,1,200,0|0,0:0|0:0,0:0:0:0:
162,113,44284,1,8,0:0:0:0:
257,83,44612,6,0,P|226:45|176:34,1,100,0|8,0:0|0:0,0:0:0:0:
83,63,45267,2,0,P|114:101|164:112,1,100,0|8,0:0|0:0,0:0:0:0:
225,189,45923,6,0,P|152:200|72:180,1,150,4|0,0:0|0:0,0:0:0:0:
40,90,46743,1,0,0:0:0:0:
99,9,47071,2,0,P|56:4|-9:12,2,100,4|4|4,0:0|0:0|0:0,0:0:0:0:
162,86,48054,2,0,L|152:189,1,100,2|2,2:0|2:0,0:0:0:0:
176,229,48546,6,0,P|213:230|271:132,1,150,4|0,0:0|0:0,0:0:0:0:
251,101,49202,2,0,L|360:98,1,100,0|8,0:0|0:0,0:0:0:0:
424,166,49858,6,0,P|425:203|327:261,1,150,0|0,0:0|0:0,0:0:0:0:
296,241,50514,2,0,L|293:350,1,100,0|8,0:0|0:0,0:0:0:0:
208,287,51169,6,0,P|161:283|99:294,1,100,0|8,0:0|0:0,0:0:0:0:
53,374,51825,2,0,P|100:378|162:367,1,100,0|8,0:0|0:0,0:0:0:0:
208,287,52481,2,0,L|202:185,1,100,0|8,0:0|0:0,0:0:0:0:
301,179,53136,2,0,L|307:77,1,100,0|8,0:0|0:0,0:0:0:0:
402,47,53792,6,0,P|441:57|474:166,1,150,4|4,0:0|0:0,0:0:0:0:
353,232,54776,2,0,P|314:242|281:351,1,150,4|4,0:0|0:0,0:0:0:0:
127,361,55759,2,0,L|21:357,1,100,0|0,0:0|0:0,0:0:0:0:
64,264,56415,6,0,P|59:223|65:164,1,100,0|0,0:0|0:0,0:0:0:0:
157,202,57071,2,0,P|162:161|156:102,1,100,0|0,0:0|0:0,0:0:0:0:
256,192,57726,12,2,59038,0:0:0:0:
361,53,69530,6,0,L|355:206,1,150,4|4,0:0|0:0,0:0:0:0:
325,243,70185,2,0,P|289:232|218:241,1,100,4|4,0:0|0:0,0:0:0:0:
167,317,70841,6,0,P|117:303|108:174,1,200,8|8,0:0|0:0,0:0:0:0:
182,109,71825,1,8,0:0:0:0:
251,36,72153,6,0,P|154:19|62:59,1,200,8|8,0:0|0:0,0:0:0:0:
57,157,73136,2,0,L|54:223,1,50,8|0,0:0|1:0,0:0:0:0:
86,245,73464,6,0,L|190:243,1,100,4|8,0:0|0:0,0:0:0:0:
239,328,74120,2,0,L|135:326,1,100,8|8,0:0|0:0,0:0:0:0:
86,245,74776,2,0,P|157:204|279:239,1,200,4|4,1:2|1:2,0:0:0:0:
338,299,75759,1,4,1:2:0:0:
405,225,76087,6,0,P|460:217|504:338,1,200,0|0,1:0|1:0,0:0:0:0:
408,325,77071,1,0,1:0:0:0:
405,225,77399,2,0,P|350:175|396:53,1,200,4|0,1:0|1:0,0:0:0:0:
471,27,78382,1,0,1:0:0:0:
378,63,78710,6,0,L|228:59,1,150,4|0,1:0|1:0,0:0:0:0:
182,37,79366,2,0,L|32:33,1,150,4|0,1:0|1:0,0:0:0:0:
28,82,80021,2,0,L|18:182,1,100,0|0,1:0|1:0,0:0:0:0:
107,226,80677,2,0,L|97:326,1,100,0|0,1:0|1:0,0:0:0:0:
9,373,81333,1,4,1:0:0:0:
9,373,82644,6,0,P|56:362|119:372,1,100,0|8,0:0|0:0,0:0:0:0:
198,327,83300,2,0,P|245:338|308:328,1,100,0|8,0:0|0:0,0:0:0:0:
395,345,83956,2,0,P|384:298|394:235,1,100,0|8,0:0|0:0,0:0:0:0:
349,156,84612,2,0,P|360:109|350:46,1,100,0|8,0:0|0:0,0:0:0:0:
446,20,85267,6,0,P|476:49|473:169,1,150,0|0,0:0|0:0,0:0:0:0:
438,175,85923,2,0,L|323:169,1,100,0|8,0:0|0:0,0:0:0:0:
241,196,86579,6,0,P|234:237|254:301,1,100,0|8,0:0|0:0,0:0:0:0:
346,270,87235,2,0,P|353:311|333:375,1,100,0|8,0:0|0:0,0:0:0:0:
238,364,87890,6,0,P|172:355|140:229,1,200,0|0,0:0|0:0,0:0:0:0:
178,150,88874,1,8,0:0:0:0:
124,65,89202,6,0,P|72:55|21:179,1,200,0|0,0:0|0:0,0:0:0:0:
54,257,90185,1,8,0:0:0:0:
138,311,90513,6,0,L|297:308,1,150,4|0,0:0|0:0,0:0:0:0:
349,229,91333,2,0,L|357:121,1,100,0|4,0:0|0:0,0:0:0:0:
450,93,91989,2,0,L|442:201,1,100,4|4,0:0|0:0,0:0:0:0:
234,54,93136,2,0,L|166:52,1,50,0|0,0:0|0:0,0:0:0:0:
148,88,93464,6,0,P|150:131|126:188,1,100,8|0,0:0|0:0,0:0:0:0:
29,189,94120,1,8,0:0:0:0:
59,284,94448,6,0,P|122:278|248:334,1,200,0|0,0:0|0:0,0:0:0:0:
316,261,95431,1,8,0:0:0:0:
409,225,95759,6,0,P|442:226|499:188,1,100,0|8,0:0|0:0,0:0:0:0:
423,122,96415,2,0,P|390:123|333:85,1,100,0|8,0:0|0:0,0:0:0:0:
239,57,97071,2,0,P|178:56|112:135,1,150,0|0,0:0|0:0,0:0:0:0:
95,159,97726,2,0,L|88:265,1,100,0|8,0:0|0:0,0:0:0:0:
184,287,98382,6,0,P|234:274|345:308,1,150,4|4,0:0|0:0,0:0:0:0:
371,321,99038,1,4,0:0:0:0:
457,270,99366,2,0,P|444:220|478:109,1,150,4|4,0:0|0:0,0:0:0:0:
491,83,100022,1,4,0:0:0:0:
413,19,100349,2,0,L|310:15,1,100,0|0,0:0|0:0,0:0:0:0:
230,71,101005,6,0,P|218:111|248:174,1,100,8|8,0:0|0:0,0:0:0:0:
333,192,101661,2,0,P|345:232|315:295,1,100,8|8,0:0|0:0,0:0:0:0:
225,288,102317,6,0,L|112:284,1,100,0|0,0:0|0:0,0:0:0:0:
75,197,102972,2,0,L|188:193,1,100,0|0,0:0|0:0,0:0:0:0:
225,106,103628,1,4,0:0:0:0:
225,106,104940,6,0,P|282:97|354:216,1,200,0|0,0:0|0:0,0:0:0:0:
310,258,105841,2,0,L|305:335,1,75
262,358,106251,6,0,P|207:360|153:337,1,100,0|0,0:0|0:0,0:0:0:0:
114,258,106907,2,0,P|169:256|223:279,1,100,0|0,0:0|0:0,0:0:0:0:
243,176,107562,6,0,P|244:138|236:95,2,75,4|4|4,0:0|0:0|0:0,0:0:0:0:
282,207,108218,2,0,P|283:245|275:288,2,75,4|4|4,0:0|0:0|0:0,0:0:0:0:
316,170,108874,2,0,L|398:163,2,75,4|4|4,0:0|0:0|0:0,0:0:0:0:
265,171,109530,2,0,P|221:146|161:155,1,100,0|0,0:0|0:0,0:0:0:0:
85,198,110185,6,0,L|90:95,1,100,8|8,0:0|0:0,0:0:0:0:
178,49,110841,2,0,L|173:152,1,100,8|8,0:0|0:0,0:0:0:0:
271,169,111497,2,0,L|374:174,1,100,8|8,0:0|0:0,0:0:0:0:
420,262,112153,2,0,L|317:257,1,100,8|8,0:0|0:0,0:0:0:0:
220,257,112808,6,0,P|180:246|119:263,1,100,8|8,0:0|0:0,0:0:0:0:
103,357,113464,2,0,P|63:368|2:351,1,100,8|8,0:0|0:0,0:0:0:0:
24,255,114120,2,0,P|20:213|25:173,2,75,4|4|4,0:0|0:0|0:0,0:0:0:0:
67,280,114776,2,0,L|176:273,1,100,0|2,0:0|2:0,0:0:0:0:
