osu file format v14

[General]
AudioFilename: Little Star.mp3
AudioLeadIn: 0
PreviewTime: 36743
Countdown: 0
SampleSet: Normal
StackLeniency: 0.7
Mode: 0
LetterboxInBreaks: 0
WidescreenStoryboard: 0

[Editor]
DistanceSpacing: 1
BeatDivisor: 4
GridSize: 4
TimelineZoom: 1

[Metadata]
Title:Little Star
TitleUnicode:Little Star
Artist:REDALiCE Feat. Ayumi Nomiya
ArtistUnicode:REDALiCE Feat. 野宫あゆみ
Creator:liaoxingyao
Version:Insane
Source:beatmania IIDX
Tags:20th tricoro J-CORE Bruce Simple_Star victorica_db Spring Minakami Yuki mtbbsben
BeatmapID:800399
BeatmapSetID:206326

[Difficulty]
HPDrainRate:6
CircleSize:4
OverallDifficulty:7
ApproachRate:8.5
SliderMultiplier:1.5
SliderTickRate:1

[Events]
//Background and Video events
0,0,"1.jpg",0,0
//Break Periods
2,60549,68691
//Storyboard Layer 0 (Background)
//Storyboard Layer 1 (Fail)
//Storyboard Layer 2 (Pass)
//Storyboard Layer 3 (Foreground)
//Storyboard Sound Samples

[TimingPoints]
22,327.868852459016,4,1,0,50,1,0
38054,-100,4,1,0,50,0,1
45923,-100,4,1,0,50,0,0
48546,-100,4,1,0,50,0,1
53792,-100,4,1,0,50,0,0
59038,-100,4,2,0,50,0,0
82644,-100,4,1,0,50,0,1
90513,-100,4,1,0,50,0,0
93464,-100,4,1,0,50,0,1
98382,-100,4,1,0,50,0,0

[HitObjects]
128,95,185,5,0,0:0:0:0:
128,95,513,1,0,0:0:0:0:
183,160,677,2,0,L|247:158,2,37.5,0|0|0,0:0|0:0|0:0,0:0:0:0:
122,224,1005,2,0,P|122:269|139:301,1,75,0|0,0:0|0:0,0:0:0:0:
211,286,1333,6,0,P|264:266|344:289,1,112.5,4|0,0:0|2:0,0:0:0:0:
352,264,1661,2,0,P|355:193|345:167,1,75,8|0,0:0|0:0,0:0:0:0:
408,126,1989,2,0,L|412:85,3,37.5,0|0|0|0,0:0|0:0|0:0|0:0,0:0:0:0:
482,58,2317,2,0,L|486:17,3,37.5,8|0|0|0,0:0|0:0|0:0|0:0,0:0:0:0:
412,12,2644,6,0,P|363:12|325:18,1,75,0|0,0:0|0:0,0:0:0:0:
265,59,2972,2,0,P|216:59|178:53,1,75,8|0,0:0|0:0,0:0:0:0:
33,104,3300,2,0,P|82:104|120:110,1,75,0|0,0:0|0:0,0:0:0:0:
180,151,3628,2,0,P|229:151|267:145,1,75,8|0,0:0|0:0,0:0:0:0:
324,189,3956,6,0,L|325:283,1,75,2|0,1:2|0:0,0:0:0:0:
328,294,4202,1,2,1:2:0:0:
318,322,4284,2,0,L|224:323,1,75,0|2,0:0|1:2,0:0:0:0:
156,298,4612,2,0,P|143:239|159:158,1,112.5,0|0,0:0|0:0,0:0:0:0:
195,136,4940,1,8,0:0:0:0:
199,50,5103,1,0,0:0:0:0:
110,21,5267,6,0,B|58:42|58:42|28:104,2,112.5,4|4|4,0:0|0:0|0:0,0:0:0:0:
199,50,5923,2,0,L|282:48,1,75,0|0,0:0|0:0,0:0:0:0:
364,34,6251,1,0,0:0:0:0:
361,62,6332,1,0,0:0:0:0:
359,90,6414,1,0,0:0:0:0:
357,118,6496,1,0,0:0:0:0:
354,147,6579,6,0,P|285:151|245:123,1,112.5,4|0,0:0|0:0,0:0:0:0:
207,156,6907,2,0,L|195:241,1,75,8|0,0:0|0:0,0:0:0:0:
130,280,7235,2,0,L|51:275,1,75,0|0,0:0|0:0,0:0:0:0:
17,209,7562,1,8,0:0:0:0:
16,180,7643,1,0,0:0:0:0:
15,152,7725,1,0,0:0:0:0:
14,124,7807,1,0,0:0:0:0:
13,96,7890,6,0,L|95:86,1,75,0|0,1:0|0:0,0:0:0:0:
162,132,8218,2,0,L|243:121,1,75,8|0,1:0|0:0,0:0:0:0:
309,82,8546,1,0,1:0:0:0:
318,188,8710,1,0,0:0:0:0:
309,82,8874,2,0,P|380:73|434:93,1,112.5,8|0,1:0|0:0,0:0:0:0:
439,115,9202,6,0,L|441:180,3,37.5,0|0|0|0,0:0|0:0|0:0|0:0,0:0:0:0:
501,199,9530,2,0,L|503:264,3,37.5,8|0|0|0,0:0|0:0|0:0|0:0,0:0:0:0:
454,301,9858,2,0,L|389:303,3,37.5,0|0|0|0,0:0|0:0|0:0|0:0,0:0:0:0:
339,336,10186,2,0,L|337:271,3,37.5,8|0|0|0,0:0|0:0|0:0|0:0,0:0:0:0:
319,226,10513,6,0,P|311:167|336:97,2,112.5,4|4|4,0:0|0:0|0:0,0:0:0:0:
243,248,11169,2,0,P|192:249|134:188,1,112.5,0|0,0:0|0:0,0:0:0:0:
111,193,11497,2,0,L|107:155,3,37.5,0|0|0|0,0:0|0:0|0:0|0:0,0:0:0:0:
65,142,11825,6,0,P|74:66|155:19,1,150,4|0,0:0|0:0,0:0:0:0:
207,42,12317,1,0,0:0:0:0:
284,19,12481,2,0,B|304:93|304:93|280:171,1,150,8|0,0:0|0:0,0:0:0:0:
282,163,13136,6,0,P|268:215|306:277,2,112.5,0|0|0,0:0|0:0|0:0,0:0:0:0:
365,149,13792,2,0,L|443:146,1,75,8|0,0:0|0:0,0:0:0:0:
494,220,14120,2,0,L|416:223,1,75,0|0,0:0|0:0,0:0:0:0:
361,275,14448,6,0,P|365:318|457:344,1,150,0|0,0:0|0:0,0:0:0:0:
509,292,14940,1,0,0:0:0:0:
494,220,15103,2,0,P|460:186|474:71,1,150,8|0,0:0|0:0,0:0:0:0:
496,23,15595,1,0,0:0:0:0:
496,23,15759,6,0,L|395:24,2,75,4|4|4,0:0|0:0|0:0,0:0:0:0:
356,78,16415,6,0,P|303:86|265:71,1,75,0|0,0:0|0:0,0:0:0:0:
151,27,16743,2,0,P|204:19|242:34,1,75,0|0,0:0|0:0,0:0:0:0:
283,80,17071,6,0,P|289:130|240:218,1,150,4|0,0:0|0:0,0:0:0:0:
158,217,17562,1,0,0:0:0:0:
86,262,17726,2,0,P|126:325|204:316,1,150,8|0,0:0|2:0,0:0:0:0:
194,322,18382,6,0,L|203:206,2,112.5,0|0|0,0:0|0:0|0:0,0:0:0:0:
281,298,19038,2,0,L|361:293,1,75,8|0,0:0|0:0,0:0:0:0:
498,335,19366,2,0,L|418:330,1,75,0|0,0:0|0:0,0:0:0:0:
419,256,19694,6,0,P|426:196|506:143,1,150,0|0,0:0|0:0,0:0:0:0:
505,72,20185,1,0,0:0:0:0:
469,7,20349,2,0,B|394:0|394:0|286:15,1,150,8|0,0:0|0:0,0:0:0:0:
272,69,20841,1,0,0:0:0:0:
227,141,21005,6,0,B|172:152|172:152|112:140,2,112.5,4|4|4,0:0|0:0|0:0,0:0:0:0:
272,69,21661,1,0,0:0:0:0:
272,69,21989,1,0,0:0:0:0:
300,68,22070,1,0,0:0:0:0:
328,67,22152,1,0,0:0:0:0:
356,66,22234,1,0,0:0:0:0:
384,67,22317,6,0,L|381:159,1,75,4|0,0:0|0:0,0:0:0:0:
307,243,22644,2,0,L|304:151,1,75,8|0,0:0|0:0,0:0:0:0:
229,66,22972,2,0,L|226:158,1,75,0|0,0:0|0:0,0:0:0:0:
147,244,23300,2,0,L|150:152,1,75,8|0,0:0|0:0,0:0:0:0:
76,135,23628,6,0,P|37:147|-2:135,1,75,0|0,0:0|0:0,0:0:0:0:
52,43,23956,2,0,P|91:31|130:43,1,75,8|0,0:0|0:0,0:0:0:0:
226,139,24284,2,0,P|187:151|148:139,1,75,0|0,0:0|0:0,0:0:0:0:
202,47,24612,2,0,P|241:35|280:47,1,75,8|0,0:0|0:0,0:0:0:0:
337,89,24940,6,0,L|337:208,1,112.5,0|0,0:0|0:0,0:0:0:0:
354,233,25267,2,0,B|390:242|390:242|441:229,1,75,8|0,0:0|0:0,0:0:0:0:
489,278,25595,2,0,P|487:331|477:368,1,75,0|0,0:0|0:0,0:0:0:0:
401,339,25923,2,0,P|354:333|312:348,1,75,8|0,0:0|0:0,0:0:0:0:
252,348,26251,6,0,P|224:279|248:195,1,150,4|4,0:0|0:0,0:0:0:0:
298,144,26743,1,4,0:0:0:0:
405,158,27071,1,0,0:0:0:0:
484,145,27235,1,0,0:0:0:0:
483,116,27316,1,0,0:0:0:0:
482,88,27398,1,0,0:0:0:0:
481,60,27480,1,0,0:0:0:0:
481,32,27562,6,0,P|427:28|385:36,1,75,4|0,0:0|0:0,0:0:0:0:
343,79,27890,2,0,P|289:83|247:75,1,75,8|0,0:0|0:0,0:0:0:0:
199,112,28218,2,0,P|195:166|203:208,1,75,0|0,0:0|0:0,0:0:0:0:
246,250,28546,2,0,P|250:304|242:346,1,75,8|0,0:0|0:0,0:0:0:0:
173,351,28874,6,0,L|121:352,3,37.5,0|0|0|0,0:0|0:0|0:0|0:0,0:0:0:0:
63,365,29202,2,0,L|11:366,3,37.5,8|0|0|0,0:0|0:0|0:0|0:0,0:0:0:0:
7,286,29530,2,0,L|8:234,3,37.5,0|0|0|0,0:0|0:0|0:0|0:0,0:0:0:0:
21,176,29858,2,0,L|22:124,3,37.5,8|0|0|0,0:0|0:0|0:0|0:0,0:0:0:0:
61,69,30185,6,0,P|121:49|185:71,2,112.5,4|4|4,0:0|0:0|0:0,0:0:0:0:
99,144,30841,2,0,L|101:187,3,37.5,0|0|0|0,0:0|0:0|0:0|0:0,0:0:0:0:
179,200,31169,2,0,L|181:243,3,37.5,0|0|0|0,0:0|0:0|0:0|0:0,0:0:0:0:
251,287,31497,6,0,P|311:307|375:285,2,112.5,4|4|4,0:0|0:0|0:0,0:0:0:0:
289,212,32153,2,0,L|291:169,3,37.5,0|0|0|0,0:0|0:0|0:0|0:0,0:0:0:0:
369,156,32481,2,0,L|371:113,3,37.5,0|0|0|0,0:0|0:0|0:0|0:0,0:0:0:0:
445,156,32808,6,0,P|465:96|443:32,2,112.5,4|4|4,0:0|0:0|0:0,0:0:0:0:
370,118,33464,2,0,L|327:116,3,37.5,0|0|0|0,0:0|0:0|0:0|0:0,0:0:0:0:
314,38,33792,2,0,L|271:36,3,37.5,0|0|0|0,0:0|0:0|0:0|0:0,0:0:0:0:
207,85,34120,6,0,B|153:97|153:97|91:80,1,112.5,4|4,0:0|0:0,0:0:0:0:
15,7,34612,2,0,B|69:-5|69:-5|131:12,1,112.5,4|4,0:0|0:0,0:0:0:0:
207,85,35103,2,0,L|207:177,1,75,0|0,0:0|0:0,0:0:0:0:
163,235,35431,6,0,L|161:278,3,37.5,0|0|0|0,0:0|0:0|0:0|0:0,0:0:0:0:
237,255,35759,2,0,L|235:298,3,37.5,0|0|0|0,0:0|0:0|0:0|0:0,0:0:0:0:
310,331,36087,2,0,L|308:288,3,37.5,0|0|0|0,0:0|0:0|0:0|0:0,0:0:0:0:
384,311,36415,2,0,L|382:268,3,37.5,0|0|0|0,0:0|0:0|0:0|0:0,0:0:0:0:
451,228,36743,5,4,0:0:0:0:
451,228,38054,6,0,L|460:138,1,75,0|0,0:0|0:0,0:0:0:0:
365,81,38382,2,0,L|374:171,1,75,8|0,0:0|0:0,0:0:0:0:
292,194,38710,1,0,0:0:0:0:
256,204,38791,1,0,0:0:0:0:
219,198,38873,1,0,0:0:0:0:
188,178,38955,1,0,0:0:0:0:
168,147,39038,2,0,L|166:97,3,37.5,8|0|0|0,0:0|0:0|0:0|0:0,0:0:0:0:
123,42,39366,5,0,0:0:0:0:
42,42,39530,1,0,0:0:0:0:
9,116,39694,2,0,P|11:158|29:204,1,75,8|0,0:0|0:0,0:0:0:0:
102,209,40021,5,0,0:0:0:0:
183,209,40185,1,0,0:0:0:0:
216,283,40349,2,0,P|214:325|196:371,1,75,8|0,0:0|0:0,0:0:0:0:
134,359,40677,6,0,L|47:360,1,75,0|0,0:0|0:0,0:0:0:0:
92,284,41005,2,0,L|5:285,1,75,8|0,0:0|0:0,0:0:0:0:
28,199,41333,1,0,0:0:0:0:
42,109,41497,1,0,0:0:0:0:
133,114,41661,1,8,0:0:0:0:
119,204,41825,1,0,0:0:0:0:
42,109,41989,6,0,L|40:55,3,37.5,0|0|0|0,0:0|0:0|0:0|0:0,0:0:0:0:
120,69,42317,2,0,L|122:15,3,37.5,8|0|0|0,0:0|0:0|0:0|0:0,0:0:0:0:
198,22,42644,1,0,0:0:0:0:
225,14,42725,1,0,0:0:0:0:
253,15,42807,1,0,0:0:0:0:
279,24,42889,1,0,0:0:0:0:
302,40,42971,1,8,0:0:0:0:
319,62,43053,1,0,0:0:0:0:
329,89,43135,1,0,0:0:0:0:
331,117,43217,1,0,0:0:0:0:
323,144,43300,6,0,B|311:183|311:183|321:231,1,75,0|0,0:0|0:0,0:0:0:0:
399,192,43628,2,0,B|411:231|411:231|401:279,1,75,8|0,0:0|0:0,0:0:0:0:
326,300,43956,2,0,P|359:335|365:379,1,75,0|0,0:0|0:0,0:0:0:0:
249,339,44284,2,0,P|216:304|210:260,1,75,8|0,0:0|0:0,0:0:0:0:
145,222,44612,6,0,L|70:220,1,75,0|0,0:0|0:0,0:0:0:0:
11,146,44940,2,0,L|86:148,1,75,8|0,0:0|0:0,0:0:0:0:
153,76,45267,2,0,L|78:74,1,75,0|0,0:0|0:0,0:0:0:0:
19,0,45595,2,0,L|94:2,1,75,8|0,0:0|0:0,0:0:0:0:
153,76,45923,6,0,P|155:143|210:224,1,150,4|0,0:0|0:0,0:0:0:0:
275,197,46415,2,0,P|351:179|431:199,1,150,0|0,0:0|0:0,0:0:0:0:
474,275,47071,1,4,0:0:0:0:
348,306,47399,1,4,0:0:0:0:
474,275,47726,1,4,0:0:0:0:
348,306,48054,2,0,P|341:251|325:214,2,75,2|2|2,2:0|2:0|2:0,0:0:0:0:
258,327,48546,6,0,P|196:327|148:288,1,112.5,4|0,0:0|0:0,0:0:0:0:
144,258,48874,2,0,L|145:178,1,75,8|0,0:0|0:0,0:0:0:0:
239,163,49202,2,0,P|239:101|200:53,1,112.5,0|0,0:0|0:0,0:0:0:0:
170,49,49530,2,0,L|90:50,1,75,8|0,0:0|0:0,0:0:0:0:
54,122,49858,6,0,P|55:179|65:211,1,75,0|0,0:0|0:0,0:0:0:0:
144,183,50185,2,0,P|143:240|133:272,1,75,8|0,0:0|0:0,0:0:0:0:
207,318,50513,2,0,L|252:315,3,37.5,0|0|0|0,0:0|0:0|0:0|0:0,0:0:0:0:
304,271,50841,1,8,0:0:0:0:
306,243,50922,1,0,0:0:0:0:
302,215,51004,1,0,0:0:0:0:
292,189,51086,1,0,0:0:0:0:
276,165,51169,6,0,P|206:155|146:180,1,112.5,0|0,0:0|0:0,0:0:0:0:
136,150,51497,2,0,L|127:69,1,75,8|0,0:0|0:0,0:0:0:0:
182,15,51825,6,0,P|112:25|52:0,1,112.5,0|0,0:0|0:0,0:0:0:0:
42,30,52153,2,0,L|33:111,1,75,8|0,0:0|0:0,0:0:0:0:
48,182,52481,6,0,L|52:221,3,37.5,0|0|0|0,0:0|0:0|0:0|0:0,0:0:0:0:
125,227,52808,2,0,L|129:266,3,37.5,8|0|0|0,0:0|0:0|0:0|0:0,0:0:0:0:
57,291,53136,2,0,L|61:330,3,37.5,0|0|0|0,0:0|0:0|0:0|0:0,0:0:0:0:
136,341,53464,2,0,L|140:380,3,37.5,8|0|0|0,0:0|0:0|0:0|0:0,0:0:0:0:
212,331,53792,5,4,0:0:0:0:
303,317,53956,1,4,0:0:0:0:
471,295,54284,5,4,0:0:0:0:
380,281,54448,1,4,0:0:0:0:
205,245,54776,5,4,0:0:0:0:
296,231,54940,1,4,0:0:0:0:
464,209,55268,5,4,0:0:0:0:
373,195,55432,1,4,0:0:0:0:
296,231,55595,1,0,0:0:0:0:
205,245,55759,2,0,P|140:245|105:236,1,75,0|0,0:0|0:0,0:0:0:0:
91,174,56087,2,0,P|26:174|-9:183,1,75,0|0,0:0|0:0,0:0:0:0:
17,253,56415,6,0,L|23:353,1,75,0|0,0:0|0:0,0:0:0:0:
102,374,56743,2,0,L|108:274,1,75,0|0,0:0|0:0,0:0:0:0:
189,250,57071,2,0,L|195:350,1,75,0|0,0:0|0:0,0:0:0:0:
274,371,57399,2,0,L|280:271,1,75,0|0,0:0|0:0,0:0:0:0:
341,243,57726,6,0,L|387:240,3,37.5,0|0|0|0,0:0|0:0|0:0|0:0,0:0:0:0:
446,272,58054,2,0,L|492:269,3,37.5,0|0|0|0,0:0|0:0|0:0|0:0,0:0:0:0:
508,197,58382,1,0,0:0:0:0:
508,182,58463,1,0,0:0:0:0:
508,168,58545,1,0,0:0:0:0:
508,154,58627,1,0,0:0:0:0:
508,140,58709,1,0,0:0:0:0:
509,126,58791,1,0,0:0:0:0:
509,112,58873,1,0,0:0:0:0:
509,98,58955,1,0,0:0:0:0:
509,84,59037,1,2,0:0:0:0:
509,84,60349,5,2,0:0:0:0:
509,84,69366,6,0,L|465:83,1,37.5,0|0,1:0|1:0,0:0:0:0:
423,101,69530,2,0,P|363:100|333:86,1,75,4|4,0:0|0:0,0:0:0:0:
209,161,70021,2,0,P|269:160|299:146,1,75,4|4,0:0|0:0,0:0:0:0:
363,202,70513,2,0,L|357:291,1,75,4|0,0:0|1:0,0:0:0:0:
277,322,70841,6,0,P|208:323|165:253,1,150,8|8,0:0|0:0,0:0:0:0:
53,195,71497,2,0,P|122:196|165:126,1,150,8|8,0:0|0:0,0:0:0:0:
151,53,72153,6,0,L|1:45,1,150,8|8,0:0|0:0,0:0:0:0:
164,134,72808,2,0,L|314:142,1,150,8|8,0:0|0:0,0:0:0:0:
359,210,73300,1,0,1:0:0:0:
302,268,73464,6,0,B|218:258|189:353,1,150,4|8,0:0|0:0,0:0:0:0:
120,378,74120,2,0,B|36:388|7:293,1,150,8|8,0:0|0:0,0:0:0:0:
12,224,74612,1,0,0:0:0:0:
64,172,74776,6,0,L|69:86,1,75,4|0,1:2|0:0,0:0:0:0:
151,145,75103,2,0,L|156:59,1,75,4|0,1:2|0:0,0:0:0:0:
233,177,75431,2,0,L|238:91,1,75,4|0,1:2|0:0,0:0:0:0:
322,148,75759,2,0,L|327:62,1,75,4|0,1:2|0:0,0:0:0:0:
407,88,76087,5,0,1:0:0:0:
469,146,76251,1,0,1:0:0:0:
402,195,76415,1,0,1:0:0:0:
464,253,76579,1,0,1:0:0:0:
397,302,76743,1,0,1:0:0:0:
335,244,76907,1,0,1:0:0:0:
402,195,77071,1,0,1:0:0:0:
340,137,77235,1,0,1:0:0:0:
261,163,77399,6,0,P|206:168|170:158,1,75,4|0,1:0|1:0,0:0:0:0:
130,109,77726,2,0,P|75:104|39:114,1,75,0|0,1:0|1:0,0:0:0:0:
13,177,78054,2,0,P|8:232|18:268,1,75,0|0,1:0|1:0,0:0:0:0:
81,286,78382,2,0,P|86:341|76:377,1,75,0|0,1:0|1:0,0:0:0:0:
157,359,78710,6,0,L|205:357,7,37.5,4|0|0|0|0|0|0|0,1:0|1:0|1:0|1:0|1:0|1:0|1:0|1:0,0:0:0:0:
271,367,79366,2,0,L|319:365,7,37.5,4|0|0|0|0|0|0|0,1:0|1:0|1:0|1:0|1:0|1:0|1:0|1:0,0:0:0:0:
380,338,80021,6,0,L|380:293,3,37.5,0|0|0|0,1:0|1:0|1:0|1:0,0:0:0:0:
464,311,80349,2,0,L|464:266,3,37.5,0|0|0|0,1:0|1:0|1:0|1:0,0:0:0:0:
398,226,80677,2,0,L|398:181,3,37.5,0|0|0|0,1:0|1:0|1:0|1:0,0:0:0:0:
482,199,81005,2,0,L|482:154,3,37.5,0|0|0|0,1:0|1:0|1:0|1:0,0:0:0:0:
420,118,81333,1,4,1:0:0:0:
420,118,82644,6,0,P|372:122|312:115,1,75,0|0,0:0|0:0,0:0:0:0:
275,84,82972,2,0,P|227:80|167:87,1,75,8|0,0:0|0:0,0:0:0:0:
148,147,83300,2,0,L|141:239,1,75,0|0,0:0|0:0,0:0:0:0:
53,279,83628,2,0,L|60:187,1,75,8|0,0:0|0:0,0:0:0:0:
76,118,83956,6,0,P|38:81|40:24,1,112.5,0|0,0:0|0:0,0:0:0:0:
79,9,84284,2,0,P|123:7|170:17,1,75,8|0,0:0|0:0,0:0:0:0:
222,72,84612,6,0,P|184:109|186:166,1,112.5,0|0,0:0|0:0,0:0:0:0:
225,181,84940,2,0,P|269:183|316:173,1,75,8|0,0:0|0:0,0:0:0:0:
369,133,85267,5,0,0:0:0:0:
446,132,85431,1,0,0:0:0:0:
502,184,85595,2,0,B|496:224|496:224|506:273,1,75,8|0,0:0|0:0,0:0:0:0:
423,248,85923,5,0,0:0:0:0:
346,247,86087,1,0,0:0:0:0:
290,299,86251,2,0,B|296:339|296:339|286:388,1,75,8|0,0:0|0:0,0:0:0:0:
217,360,86579,6,0,L|200:324,3,37.5,0|0|0|0,0:0|0:0|0:0|0:0,0:0:0:0:
126,329,86907,2,0,L|109:293,3,37.5,8|0|0|0,0:0|0:0|0:0|0:0,0:0:0:0:
175,251,87235,2,0,L|158:215,3,37.5,0|0|0|0,0:0|0:0|0:0|0:0,0:0:0:0:
84,220,87563,2,0,L|67:184,3,37.5,8|0|0|0,0:0|0:0|0:0|0:0,0:0:0:0:
22,123,87890,6,0,P|61:106|106:111,1,75,0|0,0:0|0:0,0:0:0:0:
161,138,88218,1,8,0:0:0:0:
206,198,88382,1,0,0:0:0:0:
276,172,88546,6,0,P|315:189|360:184,1,75,0|0,0:0|0:0,0:0:0:0:
415,157,88874,1,8,0:0:0:0:
460,97,89038,1,0,0:0:0:0:
477,23,89202,6,0,P|406:15|355:20,1,112.5,0|0,0:0|0:0,0:0:0:0:
349,53,89530,2,0,L|340:134,1,75,8|0,0:0|0:0,0:0:0:0:
276,172,89858,6,0,P|205:180|154:175,1,112.5,0|0,0:0|0:0,0:0:0:0:
148,142,90186,2,0,L|139:61,1,75,8|0,0:0|0:0,0:0:0:0:
78,22,90513,6,0,P|35:38|10:152,1,150,4|0,0:0|0:0,0:0:0:0:
66,178,91005,2,0,P|128:164|215:182,1,150,0|0,0:0|0:0,0:0:0:0:
296,233,91661,2,0,L|282:386,2,150,4|4|4,0:0|0:0|0:0,0:0:0:0:
361,179,92644,2,0,P|407:170|447:177,2,75,2|2|2,2:0|2:0|2:0,0:0:0:0:
292,133,93136,6,0,L|292:48,1,75,0|0,0:0|0:0,0:0:0:0:
296,29,93382,1,0,0:0:0:0:
307,3,93464,2,0,L|381:1,1,75,8|0,0:0|0:0,0:0:0:0:
443,53,93792,2,0,P|450:100|439:151,1,75,0|0,0:0|0:0,0:0:0:0:
384,177,94120,2,0,P|386:225|405:275,1,75,8|0,0:0|0:0,0:0:0:0:
449,309,94448,6,0,B|397:329|397:329|328:313,1,112.5,0|0,0:0|0:0,0:0:0:0:
308,295,94776,2,0,L|232:293,1,75,8|0,0:0|0:0,0:0:0:0:
232,215,95103,2,0,B|180:195|180:195|111:211,1,112.5,0|0,0:0|0:0,0:0:0:0:
91,229,95431,2,0,L|15:231,1,75,8|0,0:0|0:0,0:0:0:0:
15,153,95759,6,0,P|19:108|37:67,1,75,0|0,0:0|0:0,0:0:0:0:
109,33,96087,2,0,P|113:78|131:119,1,75,8|0,0:0|0:0,0:0:0:0:
200,155,96415,2,0,P|204:110|222:69,1,75,0|0,0:0|0:0,0:0:0:0:
294,35,96743,2,0,P|298:80|316:121,1,75,8|0,0:0|0:0,0:0:0:0:
376,154,97071,6,0,L|417:152,3,37.5,0|0|0|0,0:0|0:0|0:0|0:0,0:0:0:0:
462,207,97399,2,0,L|503:205,3,37.5,8|0|0|0,0:0|0:0|0:0|0:0,0:0:0:0:
473,289,97726,2,0,L|432:287,3,37.5,0|0|0|0,0:0|0:0|0:0|0:0,0:0:0:0:
387,342,98054,2,0,L|346:340,3,37.5,8|0|0|0,0:0|0:0|0:0|0:0,0:0:0:0:
274,311,98382,5,4,0:0:0:0:
187,302,98546,1,4,0:0:0:0:
13,281,98874,5,4,0:0:0:0:
100,272,99038,1,4,0:0:0:0:
273,238,99366,5,4,0:0:0:0:
186,229,99530,1,4,0:0:0:0:
12,208,99858,5,4,0:0:0:0:
99,199,100022,1,4,0:0:0:0:
186,229,100185,1,0,0:0:0:0:
273,238,100349,2,0,L|411:237,1,112.5,0|0,0:0|0:0,0:0:0:0:
412,254,100677,2,0,P|415:313|397:353,1,75,0|0,0:0|0:0,0:0:0:0:
343,358,101005,5,8,0:0:0:0:
259,353,101169,1,0,0:0:0:0:
232,274,101333,1,8,0:0:0:0:
316,279,101497,1,0,0:0:0:0:
390,232,101661,2,0,P|380:186|391:139,1,75,8|0,0:0|0:0,0:0:0:0:
459,127,101989,2,0,P|469:81|458:34,1,75,8|0,0:0|0:0,0:0:0:0:
389,49,102317,6,0,L|385:3,7,37.5,0|0|0|0|0|0|0|0,0:0|0:0|0:0|0:0|0:0|0:0|0:0|0:0,0:0:0:0:
311,40,102972,2,0,L|307:-6,7,37.5,0|0|0|0|0|0|0|0,0:0|0:0|0:0|0:0|0:0|0:0|0:0|0:0,0:0:0:0:
225,30,103628,6,0,P|167:29|131:38,1,75,4|0,0:0|2:0,0:0:0:0:
164,113,103956,2,0,P|106:114|70:105,1,75,2|0,2:0|2:0,0:0:0:0:
66,189,104284,2,0,P|57:241|101:329,1,150,2|2,2:0|2:0,0:0:0:0:
151,250,104940,6,0,P|204:248|282:330,1,150,0|0,0:0|0:0,0:0:0:0:
355,334,105431,2,0,L|404:332,2,37.5,0|0|0,0:0|0:0|0:0,0:0:0:0:
275,307,105841,2,0,P|291:248|346:200,1,112.5,0|0,0:0|0:0,0:0:0:0:
362,144,106251,6,0,L|363:104,2,37.5,0|0|0,0:0|0:0|0:0,0:0:0:0:
284,82,106579,2,0,P|236:89|201:82,1,75,0|0,0:0|0:0,0:0:0:0:
159,150,106907,2,0,P|111:143|76:150,1,75,0|0,0:0|0:0,0:0:0:0:
30,215,107235,2,0,L|34:301,1,75,0|0,0:0|0:0,0:0:0:0:
106,313,107562,6,0,L|236:313,2,112.5,4|4|4,0:0|0:0|0:0,0:0:0:0:
139,233,108218,2,0,L|269:233,2,112.5,4|4|4,0:0|0:0|0:0,0:0:0:0:
171,153,108874,2,0,L|301:153,2,112.5,4|4|4,0:0|0:0|0:0,0:0:0:0:
122,84,109530,2,0,P|154:30|210:17,1,112.5,0|0,0:0|0:0,0:0:0:0:
237,27,109858,2,0,L|284:29,3,37.5,0|0|0|0,0:0|0:0|0:0|0:0,0:0:0:0:
334,73,110185,6,0,L|328:162,1,75,8|0,0:0|0:0,0:0:0:0:
250,215,110513,2,0,L|244:126,1,75,8|0,0:0|0:0,0:0:0:0:
163,67,110841,2,0,L|157:156,1,75,8|0,0:0|0:0,0:0:0:0:
79,209,111169,2,0,L|73:120,1,75,8|0,0:0|0:0,0:0:0:0:
39,62,111497,5,8,0:0:0:0:
39,62,111661,1,0,0:0:0:0:
124,66,111825,1,8,0:0:0:0:
124,66,111989,1,0,0:0:0:0:
192,115,112153,5,8,0:0:0:0:
192,115,112317,1,0,0:0:0:0:
277,119,112481,1,8,0:0:0:0:
277,119,112645,1,0,0:0:0:0:
341,172,112808,6,0,L|345:222,3,37.5,8|0|0|0,0:0|0:0|0:0|0:0,0:0:0:0:
416,230,113136,2,0,L|420:280,3,37.5,8|0|0|0,0:0|0:0|0:0|0:0,0:0:0:0:
453,339,113464,2,0,L|358:348,1,75,8|0,0:0|0:0,0:0:0:0:
298,309,113792,2,0,L|203:318,1,75,8|0,0:0|0:0,0:0:0:0:
136,308,114120,6,0,P|134:249|154:184,2,112.5,4|4|4,0:0|0:0|0:0,0:0:0:0:
70,365,114776,1,0,0:0:0:0:
