osu file format v14

[General]
AudioFilename: Little Star.mp3
AudioLeadIn: 0
PreviewTime: 36743
Countdown: 0
SampleSet: Normal
StackLeniency: 0.3
Mode: 0
LetterboxInBreaks: 0
WidescreenStoryboard: 0

[Editor]
DistanceSpacing: 1
BeatDivisor: 4
GridSize: 4
TimelineZoom: 1

[Metadata]
Title:Little Star
TitleUnicode:Little Star
Artist:REDALiCE Feat. Ayumi Nomiya
ArtistUnicode:REDALiCE Feat. 野宫あゆみ
Creator:liaoxingyao
Version:Extra
Source:beatmania IIDX
Tags:20th tricoro J-CORE Bruce Simple_Star victorica_db Spring Minakami Yuki mtbbsben
BeatmapID:486597
BeatmapSetID:206326

[Difficulty]
HPDrainRate:6.5
CircleSize:4
OverallDifficulty:8
ApproachRate:9.4
SliderMultiplier:1.8
SliderTickRate:1

[Events]
//Background and Video events
0,0,"1.jpg",0,0
//Break Periods
//Storyboard Layer 0 (Background)
//Storyboard Layer 1 (Fail)
//Storyboard Layer 2 (Pass)
//Storyboard Layer 3 (Foreground)
//Storyboard Sound Samples

[TimingPoints]
22,327.868852459016,4,1,0,50,1,0
5267,-80,4,1,0,50,0,0
6251,-100,4,1,0,50,0,0
10513,-66.6666666666667,4,1,0,50,0,0
11825,-100,4,1,0,50,0,0
21005,-80,4,1,0,50,0,0
21989,-100,4,1,0,50,0,0
26251,-80,4,1,0,50,0,0
27562,-100,4,1,0,50,0,0
30185,-80,4,1,0,50,0,0
38054,-90.9090909090909,4,1,0,50,0,1
45923,-90.9090909090909,4,1,0,50,0,0
47399,-83.3333333333333,4,1,0,50,0,0
47726,-76.9230769230769,4,1,0,50,0,0
48054,-100,4,1,0,50,0,0
48546,-100,4,1,0,50,0,1
53792,-100,4,1,0,50,0,0
59038,-100,4,2,0,50,0,0
80021,-95.2380952380952,4,2,0,50,0,0
80185,-90.9090909090909,4,2,0,50,0,0
80349,-86.9565217391304,4,2,0,50,0,0
80513,-83.3333333333333,4,2,0,50,0,0
80677,-80,4,2,0,50,0,0
80841,-76.9230769230769,4,2,0,50,0,0
81005,-74.0740740740741,4,2,0,50,0,0
81169,-71.4285714285714,4,2,0,50,0,0
81333,-100,4,2,0,50,0,0
82644,-100,4,1,0,50,0,1
90513,-100,4,1,0,50,0,0
93464,-100,4,1,0,50,0,1
98382,-100,4,1,0,50,0,0
107562,-80,4,1,0,50,0,0
109858,-100,4,1,0,50,0,0
114120,-80,4,1,0,50,0,0
114776,-100,4,1,0,50,0,0

[HitObjects]
112,52,185,5,0,0:0:0:0:
112,52,513,1,0,0:0:0:0:
112,52,677,2,0,L|184:46,2,45
75,141,1005,2,0,L|83:249,1,90
150,305,1333,6,0,P|217:287|285:355,1,135,4|0,0:0|2:0,0:0:0:0:
310,310,1661,2,0,P|321:264|306:189,1,90,8|0,0:0|0:0,0:0:0:0:
250,162,1989,1,0,0:0:0:0:
232,121,2070,1,0,0:0:0:0:
245,79,2152,1,0,0:0:0:0:
282,56,2235,1,0,0:0:0:0:
320,79,2316,1,8,0:0:0:0:
365,85,2398,1,0,0:0:0:0:
408,75,2480,1,0,0:0:0:0:
444,48,2562,1,0,0:0:0:0:
468,10,2644,6,0,L|328:4,1,135,0|0,0:0|2:0,0:0:0:0:
259,31,2972,2,0,L|399:25,1,135,8|0,0:0|2:0,0:0:0:0:
450,98,3300,2,0,L|444:238,1,135,0|0,0:0|2:0,0:0:0:0:
471,307,3628,2,0,L|465:167,1,135,8|0,0:0|2:0,0:0:0:0:
449,97,3956,6,0,P|387:87|328:104,1,90,2|0,1:2|0:0,0:0:0:0:
320,114,4202,2,0,P|258:124|199:107,1,90,2|0,1:2|0:0,0:0:0:0:
195,97,4448,2,0,P|133:87|74:104,1,90,2|0,1:2|0:0,0:0:0:0:
61,183,4776,5,0,0:0:0:0:
49,226,4857,1,0,0:0:0:0:
59,269,4939,1,8,0:0:0:0:
88,303,5021,1,0,0:0:0:0:
128,322,5102,1,0,0:0:0:0:
167,302,5184,1,0,0:0:0:0:
176,260,5267,6,0,L|316:255,1,112.5,4|0,0:0|0:0,0:0:0:0:
396,357,5513,2,0,L|256:352,1,112.5,4|0,0:0|0:0,0:0:0:0:
176,260,5759,2,0,L|316:255,1,112.5,4|0,0:0|0:0,0:0:0:0:
390,195,6251,5,0,0:0:0:0:
391,166,6332,1,0,0:0:0:0:
393,138,6414,1,0,0:0:0:0:
395,110,6496,1,0,0:0:0:0:
397,82,6579,6,0,L|503:78,1,90,4|0,0:0|0:0,0:0:0:0:
333,29,6907,2,0,L|227:25,1,90,8|0,0:0|0:0,0:0:0:0:
186,82,7235,2,0,P|181:143|198:205,1,90
264,312,7562,1,8,0:0:0:0:
268,289,7643,1,0,0:0:0:0:
269,267,7725,1,0,0:0:0:0:
268,245,7807,1,0,0:0:0:0:
264,222,7890,6,0,P|219:212|147:232,1,90,0|0,1:0|0:0,0:0:0:0:
110,264,8136,1,0,0:0:0:0:
100,296,8218,2,0,P|145:306|217:286,1,90,8|0,1:0|0:0,0:0:0:0:
245,250,8464,1,0,0:0:0:0:
264,222,8546,6,0,P|309:212|381:232,1,90,0|0,1:0|0:0,0:0:0:0:
417,267,8792,1,0,0:0:0:0:
428,296,8874,2,0,P|383:306|311:286,1,90,8|0,1:0|0:0,0:0:0:0:
264,222,9202,5,0,0:0:0:0:
263,177,9283,1,0,0:0:0:0:
239,140,9365,1,0,0:0:0:0:
199,122,9447,1,0,0:0:0:0:
155,129,9530,1,8,0:0:0:0:
113,143,9611,1,0,0:0:0:0:
71,129,9693,1,0,0:0:0:0:
47,92,9775,1,0,0:0:0:0:
51,48,9858,6,0,L|136:40,1,45
165,79,10021,2,0,L|210:75,1,45
273,29,10185,2,0,L|358:21,1,45,8|0,0:0|0:0,0:0:0:0:
387,62,10349,2,0,L|472:54,1,45
492,107,10513,6,0,P|497:169|475:249,1,135.000005149842,4|0,0:0|0:0,0:0:0:0:
412,310,10759,2,0,P|395:244|399:177,1,135.000005149842,4|0,0:0|0:0,0:0:0:0:
492,107,11005,2,0,P|497:169|475:249,1,135.000005149842,4|0,0:0|0:0,0:0:0:0:
387,60,11497,1,0,0:0:0:0:
345,49,11578,1,0,0:0:0:0:
303,49,11660,1,0,0:0:0:0:
262,57,11742,1,0,0:0:0:0:
222,72,11825,6,0,P|168:93|99:7,1,180,4|0,0:0|0:0,0:0:0:0:
172,15,12317,1,0,0:0:0:0:
222,72,12481,2,0,P|243:126|180:225,1,180,8|0,0:0|0:0,0:0:0:0:
184,223,13136,6,0,L|35:220,2,135
277,190,13792,2,0,P|319:173|379:184,1,90,8|0,0:0|0:0,0:0:0:0:
491,92,14120,2,0,P|449:109|389:98,1,90
345,32,14448,6,0,P|422:24|494:107,1,180
437,162,14940,2,0,L|433:267,1,90,0|8,0:0|0:0,0:0:0:0:
348,298,15431,2,0,P|285:298|241:320,1,90
163,315,15759,6,0,L|166:266,1,45,4|0,0:0|2:0,0:0:0:0:
133,334,15923,2,0,L|136:285,1,45,4|0,0:0|2:0,0:0:0:0:
106,355,16087,2,0,L|109:306,1,45,4|0,0:0|2:0,0:0:0:0:
47,247,16415,5,0,0:0:0:0:
47,247,16579,2,0,L|17:244,4,22.5
106,171,16907,1,0,0:0:0:0:
142,82,17071,6,0,P|90:73|10:167,1,180,4|0,0:0|0:0,0:0:0:0:
47,247,17562,1,0,0:0:0:0:
106,171,17726,2,0,P|192:169|242:260,1,180,8|0,0:0|2:0,0:0:0:0:
241,240,18382,6,0,L|376:235,2,135
106,171,19038,1,8,0:0:0:0:
148,77,19202,1,0,0:0:0:0:
241,240,19366,1,0,0:0:0:0:
283,146,19530,1,0,0:0:0:0:
375,235,19694,6,0,P|434:245|447:351,1,180
356,336,20185,1,0,0:0:0:0:
271,351,20349,2,0,B|238:326|238:326|150:355|150:355|79:317,1,180,8|0,0:0|0:0,0:0:0:0:
38,281,20841,1,0,0:0:0:0:
98,222,21005,6,0,L|109:95,1,112.5,4|0,0:0|0:0,0:0:0:0:
209,25,21251,2,0,L|198:152,1,112.5,4|0,0:0|0:0,0:0:0:0:
98,222,21497,2,0,L|109:95,1,112.5,4|0,0:0|0:0,0:0:0:0:
107,109,21989,2,0,L|163:105,1,45
220,147,22153,2,0,L|275:142,1,45
330,95,22317,6,0,P|373:80|479:173,1,180,4|8,0:0|0:0,0:0:0:0:
458,236,22808,1,0,0:0:0:0:
494,318,22972,2,0,B|450:308|450:308|376:328,1,90
248,366,23300,2,0,B|292:376|292:376|366:356,1,90,8|0,0:0|0:0,0:0:0:0:
167,311,23628,6,0,P|124:326|18:233,1,180,0|8,0:0|0:0,0:0:0:0:
39,170,24119,1,0,0:0:0:0:
10,70,24284,2,0,P|81:76|131:66,1,90
263,56,24612,2,0,P|192:50|142:60,1,90,8|0,0:0|0:0,0:0:0:0:
182,139,24940,6,0,P|182:197|200:236,1,90
267,360,25267,2,0,P|267:302|249:263,1,90,8|0,0:0|0:0,0:0:0:0:
306,139,25595,2,0,P|306:197|324:236,1,90
398,352,25923,2,0,P|398:294|380:255,1,90,8|0,0:0|0:0,0:0:0:0:
318,227,26251,6,0,P|246:215|144:299,1,168.75,4|0,0:0|0:0,0:0:0:0:
108,322,26579,2,0,P|49:312|72:259,1,112.5,4|4,0:0|0:0,0:0:0:0:
108,210,27071,1,0,0:0:0:0:
108,210,27235,1,0,0:0:0:0:
74,235,27316,1,0,0:0:0:0:
53,271,27398,1,0,0:0:0:0:
47,312,27480,1,0,0:0:0:0:
58,353,27562,6,0,P|27:308|56:156,1,180,4|8,0:0|0:0,0:0:0:0:
101,127,28054,1,0,0:0:0:0:
187,153,28218,2,0,P|226:164|284:144,1,90
427,110,28546,2,0,P|388:99|330:119,1,90,8|0,0:0|0:0,0:0:0:0:
334,193,28874,5,0,0:0:0:0:
332,237,28955,1,0,0:0:0:0:
357,273,29037,1,0,0:0:0:0:
400,285,29119,1,0,0:0:0:0:
441,268,29202,1,8,0:0:0:0:
397,259,29283,1,0,0:0:0:0:
357,273,29365,1,0,0:0:0:0:
327,309,29447,1,0,0:0:0:0:
318,353,29530,1,0,0:0:0:0:
276,367,29611,1,0,0:0:0:0:
233,355,29693,1,0,0:0:0:0:
206,320,29775,1,0,0:0:0:0:
192,278,29858,2,0,L|196:209,1,45,8|0,0:0|0:0,0:0:0:0:
161,102,30021,2,8,L|157:171,1,45,0|0,0:0|0:0,0:0:0:0:
240,174,30185,6,0,P|297:167|362:211,1,112.5,4|0,0:0|0:0,0:0:0:0:
494,137,30431,2,0,P|437:144|372:100,1,112.5,4|0,0:0|0:0,0:0:0:0:
344,190,30677,1,4,0:0:0:0:
240,174,30841,1,0,0:0:0:0:
213,181,30922,1,0,0:0:0:0:
185,184,31004,1,0,0:0:0:0:
157,183,31086,1,0,0:0:0:0:
108,150,31169,1,0,0:0:0:0:
135,143,31250,1,0,0:0:0:0:
163,140,31332,1,0,0:0:0:0:
191,141,31414,1,0,0:0:0:0:
262,103,31497,6,0,P|255:160|299:225,1,112.5,4|0,0:0|0:0,0:0:0:0:
225,357,31743,2,0,P|232:300|188:235,1,112.5,4|0,0:0|0:0,0:0:0:0:
278,207,31989,1,4,0:0:0:0:
225,357,32153,1,0,0:0:0:0:
218,330,32234,1,0,0:0:0:0:
215,302,32316,1,0,0:0:0:0:
216,274,32398,1,0,0:0:0:0:
249,225,32481,1,0,0:0:0:0:
256,252,32562,1,0,0:0:0:0:
259,280,32644,1,0,0:0:0:0:
258,308,32726,1,0,0:0:0:0:
225,357,32808,6,0,P|282:350|347:394,1,112.5,4|0,0:0|0:0,0:0:0:0:
479,320,33054,2,0,P|422:327|357:283,1,112.5,4|0,0:0|0:0,0:0:0:0:
329,373,33300,1,4,0:0:0:0:
225,357,33464,1,0,0:0:0:0:
198,364,33545,1,0,0:0:0:0:
170,367,33627,1,0,0:0:0:0:
142,366,33709,1,0,0:0:0:0:
93,333,33792,1,0,0:0:0:0:
120,326,33873,1,0,0:0:0:0:
148,323,33955,1,0,0:0:0:0:
176,324,34037,1,0,0:0:0:0:
221,263,34120,6,0,L|99:260,1,112.5,4|0,0:0|0:0,0:0:0:0:
26,291,34366,2,0,L|148:294,1,112.5,4|0,0:0|0:0,0:0:0:0:
223,327,34612,2,0,L|101:324,1,112.5,4|0,0:0|0:0,0:0:0:0:
28,355,34858,2,0,L|150:358,1,112.5,4|0,0:0|0:0,0:0:0:0:
223,327,35103,2,0,P|240:277|234:213,1,112.5
173,161,35431,5,0,0:0:0:0:
132,168,35512,1,0,0:0:0:0:
96,147,35594,1,0,0:0:0:0:
83,108,35676,1,0,0:0:0:0:
99,70,35759,1,0,0:0:0:0:
144,101,35840,1,0,0:0:0:0:
158,154,35922,1,0,0:0:0:0:
134,204,36004,1,0,0:0:0:0:
83,226,36087,1,0,0:0:0:0:
56,274,36168,1,0,0:0:0:0:
65,328,36250,1,0,0:0:0:0:
106,364,36332,1,0,0:0:0:0:
161,366,36414,1,0,0:0:0:0:
205,332,36497,1,0,0:0:0:0:
231,283,36578,1,0,0:0:0:0:
230,227,36660,1,0,0:0:0:0:
205,178,36742,5,4,0:0:0:0:
205,178,38054,5,0,0:0:0:0:
253,172,38135,1,0,0:0:0:0:
294,197,38217,1,0,0:0:0:0:
310,243,38299,1,0,0:0:0:0:
293,289,38382,2,0,B|343:300|343:300|412:282,1,99.0000030212403,8|0,0:0|0:0,0:0:0:0:
464,234,38710,5,0,0:0:0:0:
449,186,38791,1,0,0:0:0:0:
451,137,38873,1,0,0:0:0:0:
469,91,38955,1,0,0:0:0:0:
501,54,39039,1,8,0:0:0:0:
453,68,39120,1,0,0:0:0:0:
404,66,39202,1,0,0:0:0:0:
358,48,39284,1,0,0:0:0:0:
321,16,39366,6,0,L|254:13,3,49.5000015106202
201,47,39694,2,0,L|134:44,3,49.5000015106202,8|0|0|0,0:0|0:0|0:0|0:0,0:0:0:0:
85,95,40021,2,0,P|78:146|95:200,1,99.0000030212403
176,322,40349,2,0,P|183:271|166:217,1,99.0000030212403,8|0,0:0|0:0,0:0:0:0:
261,165,40677,5,0,0:0:0:0:
265,214,40758,1,0,0:0:0:0:
270,263,40840,1,0,0:0:0:0:
275,312,40923,1,0,0:0:0:0:
278,361,41004,1,8,0:0:0:0:
405,376,41169,1,0,0:0:0:0:
409,327,41250,1,0,0:0:0:0:
414,278,41332,1,0,0:0:0:0:
419,229,41415,1,0,0:0:0:0:
422,179,41496,1,0,0:0:0:0:
503,105,41661,2,0,L|499:42,3,49.5000015106202,8|0|0|0,0:0|0:0|0:0|0:0,0:0:0:0:
428,18,41989,5,0,0:0:0:0:
418,18,42071,1,0,0:0:0:0:
408,18,42153,2,0,L|344:11,1,49.5000015106202
236,82,42317,5,8,0:0:0:0:
246,82,42399,1,0,0:0:0:0:
256,82,42481,2,0,L|320:75,1,49.5000015106202
386,116,42644,5,0,0:0:0:0:
386,126,42726,1,0,0:0:0:0:
386,136,42808,2,0,L|393:200,1,49.5000015106202
322,308,42972,5,8,0:0:0:0:
322,298,43054,1,0,0:0:0:0:
322,288,43136,2,0,L|329:224,1,49.5000015106202
256,206,43300,6,0,P|194:200|132:224,1,99.0000030212403
7,271,43628,2,0,P|69:277|131:253,1,99.0000030212403,8|0,0:0|0:0,0:0:0:0:
159,208,43956,1,0,0:0:0:0:
152,159,44037,1,0,0:0:0:0:
118,125,44119,1,0,0:0:0:0:
69,120,44201,1,0,0:0:0:0:
28,145,44284,2,0,P|24:122|28:78,3,49.5000015106202,8|0|0|0,0:0|0:0|0:0|0:0,0:0:0:0:
89,32,44612,6,0,L|149:27,3,49.5000015106202
208,54,44940,2,0,L|268:49,3,49.5000015106202,8|0|0|0,0:0|0:0|0:0|0:0,0:0:0:0:
324,92,45267,1,0,0:0:0:0:
367,110,45348,1,0,0:0:0:0:
408,86,45430,1,0,0:0:0:0:
412,38,45512,1,0,0:0:0:0:
375,8,45595,1,8,0:0:0:0:
424,3,45676,1,0,0:0:0:0:
468,25,45758,1,0,0:0:0:0:
492,67,45840,1,0,0:0:0:0:
490,116,45923,6,0,L|476:273,1,148.50000453186,4|0,0:0|2:0,0:0:0:0:
404,242,46251,2,0,L|413:136,1,99.0000030212403
275,125,46743,6,0,L|260:281,1,148.50000453186,0|0,0:0|2:0,0:0:0:0:
235,300,47071,6,0,P|184:305|210:232,1,148.50000453186,4|0,0:0|2:0,0:0:0:0:
239,308,47399,2,0,P|183:313|211:234,1,161.999995056153,4|0,0:0|2:0,0:0:0:0:
243,316,47726,2,0,P|182:321|212:236,1,175.499991966248,4|0,0:0|2:0,0:0:0:0:
259,185,48054,2,0,P|261:149|228:95,2,90,2|2|2,2:0|2:0|2:0,2:0:0:0:
160,242,48546,5,4,0:0:0:0:
116,237,48628,1,0,0:0:0:0:
91,201,48709,1,0,0:0:0:0:
103,159,48792,1,0,0:0:0:0:
134,127,48874,1,8,0:0:0:0:
177,122,48955,1,0,0:0:0:0:
202,86,49037,1,0,0:0:0:0:
190,44,49120,1,0,0:0:0:0:
154,18,49202,1,0,0:0:0:0:
196,7,49284,1,0,0:0:0:0:
239,18,49366,1,0,0:0:0:0:
272,48,49448,1,0,0:0:0:0:
283,91,49530,2,0,L|287:153,3,45,8|0|0|0,0:0|0:0|0:0|0:0,0:0:0:0:
325,202,49858,6,0,L|384:201,1,45
416,263,50021,2,0,L|475:262,1,45
506,196,50185,1,8,0:0:0:0:
505,74,50349,6,0,L|446:73,1,45
417,138,50513,2,0,L|358:137,1,45
324,68,50676,1,0,0:0:0:0:
325,202,50841,1,8,0:0:0:0:
325,202,51005,2,0,L|283:204,3,22.5
228,220,51169,5,0,0:0:0:0:
184,228,51250,1,0,0:0:0:0:
143,210,51332,1,0,0:0:0:0:
120,172,51414,1,0,0:0:0:0:
125,128,51497,2,0,P|165:109|237:121,1,90,8|0,0:0|0:0,0:0:0:0:
308,163,51825,5,0,0:0:0:0:
351,171,51906,1,0,0:0:0:0:
392,153,51988,1,0,0:0:0:0:
415,115,52070,1,0,0:0:0:0:
410,70,52153,2,0,P|369:50|325:51,1,90,8|0,0:0|0:0,0:0:0:0:
244,32,52481,5,0,0:0:0:0:
207,6,52562,1,0,0:0:0:0:
163,8,52644,1,0,0:0:0:0:
128,35,52726,1,0,0:0:0:0:
116,77,52808,1,8,0:0:0:0:
133,117,52889,1,0,0:0:0:0:
118,158,52971,1,0,0:0:0:0:
79,177,53053,1,0,0:0:0:0:
37,163,53136,2,0,L|43:98,1,45
89,229,53300,2,0,L|83:294,1,45
141,159,53464,2,0,L|146:93,1,45,8|0,0:0|0:0,0:0:0:0:
192,224,53628,2,0,L|186:289,1,45
278,291,53792,6,0,L|332:287,1,45,4|0,0:0|2:0,0:0:0:0:
447,328,53956,2,0,L|393:332,1,45,4|0,0:0|2:0,0:0:0:0:
277,210,54284,2,0,L|331:206,1,45,4|0,0:0|2:0,0:0:0:0:
446,247,54448,2,0,L|392:251,1,45,4|0,0:0|2:0,0:0:0:0:
277,133,54776,2,0,L|331:129,1,45,4|0,0:0|2:0,0:0:0:0:
446,170,54940,2,0,L|392:174,1,45,4|0,0:0|2:0,0:0:0:0:
276,57,55267,2,0,L|330:53,1,45,4|0,0:0|2:0,0:0:0:0:
445,94,55431,2,0,L|391:98,1,45,4|0,0:0|2:0,0:0:0:0:
276,57,55595,1,0,0:0:0:0:
277,133,55759,5,0,0:0:0:0:
275,155,55840,1,0,0:0:0:0:
274,178,55923,2,0,L|270:234,1,45
187,248,56087,1,0,0:0:0:0:
188,270,56168,1,0,0:0:0:0:
190,293,56251,2,0,L|194:349,1,45
106,354,56415,5,0,0:0:0:0:
13,352,56579,1,0,0:0:0:0:
193,337,56743,1,0,0:0:0:0:
286,335,56907,1,0,0:0:0:0:
365,280,57071,1,0,0:0:0:0:
367,373,57235,1,0,0:0:0:0:
382,193,57399,1,0,0:0:0:0:
384,100,57563,1,0,0:0:0:0:
457,38,57726,5,0,0:0:0:0:
416,18,57807,1,0,0:0:0:0:
372,18,57889,1,0,0:0:0:0:
332,38,57971,1,0,0:0:0:0:
304,73,58053,1,0,0:0:0:0:
295,117,58136,1,0,0:0:0:0:
302,161,58217,1,0,0:0:0:0:
278,198,58299,1,0,0:0:0:0:
236,210,58381,1,0,0:0:0:0:
196,191,58463,1,0,0:0:0:0:
179,151,58546,1,0,0:0:0:0:
142,127,58627,1,0,0:0:0:0:
97,127,58710,2,0,P|74:128|48:135,3,45
34,211,59038,6,0,L|37:270,3,45,2|0|0|0,0:0|0:0|0:0|0:0,0:0:0:0:
115,293,59366,2,0,L|118:234,3,45,2|0|0|0,0:0|0:0|0:0|0:0,0:0:0:0:
196,282,59694,2,0,P|283:275|343:343,1,180,2|2,0:0|0:0,0:0:0:0:
430,322,60349,5,2,0:0:0:0:
458,231,60595,1,2,0:0:0:0:
418,146,60841,1,2,0:0:0:0:
418,146,61169,2,0,P|357:133|315:149,2,90,2|2|2,0:0|0:0|0:0,0:0:0:0:
268,90,61661,5,2,0:0:0:0:
240,181,61907,1,2,0:0:0:0:
280,266,62153,1,2,0:0:0:0:
280,266,62481,2,0,P|341:279|383:263,2,90,2|2|2,0:0|0:0|0:0,0:0:0:0:
416,335,62972,5,2,0:0:0:0:
325,363,63218,1,2,0:0:0:0:
240,323,63464,1,2,0:0:0:0:
240,323,63792,2,0,P|227:262|243:220,2,90,2|2|2,0:0|0:0|0:0,0:0:0:0:
300,178,64284,5,2,0:0:0:0:
209,150,64530,1,2,0:0:0:0:
124,190,64776,1,2,0:0:0:0:
124,190,65104,2,0,P|111:251|127:293,2,90,2|2|2,0:0|0:0|0:0,0:0:0:0:
47,303,65595,6,0,P|35:227|54:143,1,135,2|2,0:0|0:0,0:0:0:0:
114,107,66087,1,2,0:0:0:0:
114,107,66415,2,0,P|166:99|204:107,1,90,2|2,0:0|0:0,0:0:0:0:
219,184,66743,1,2,0:0:0:0:
309,134,66907,6,0,P|297:210|316:294,1,135,2|2,0:0|0:0,0:0:0:0:
376,330,67399,1,2,0:0:0:0:
376,330,67727,2,0,P|428:338|466:330,1,90,2|2,0:0|0:0,0:0:0:0:
481,253,68055,1,2,0:0:0:0:
416,198,68218,6,0,P|428:122|409:38,1,135,2|2,0:0|0:0,0:0:0:0:
349,2,68710,1,2,0:0:0:0:
349,2,69038,2,0,P|297:-6|259:2,1,90,2|2,0:0|0:0,0:0:0:0:
233,75,69366,2,0,L|229:104,3,22.5,0|0|0|0,1:0|1:0|1:0|1:0,0:0:0:0:
157,127,69530,6,0,L|97:127,1,45,4|0,0:0|0:0,0:0:0:0:
137,167,69694,2,0,L|77:167,1,45,4|0,0:0|0:0,0:0:0:0:
37,246,70021,2,0,L|97:246,1,45,4|0,0:0|0:0,0:0:0:0:
57,286,70185,2,0,L|117:286,1,45,4|0,0:0|0:0,0:0:0:0:
194,302,70513,2,0,P|221:297|256:303,1,45,4|0,0:0|0:0,0:0:0:0:
271,340,70677,2,0,L|275:369,3,22.5,0|0|0|0,1:0|1:0|1:0|1:0,0:0:0:0:
349,358,70841,5,8,0:0:0:0:
434,363,71005,1,0,0:0:0:0:
497,305,71169,1,8,0:0:0:0:
502,220,71333,1,0,0:0:0:0:
418,249,71497,5,8,0:0:0:0:
333,254,71661,1,0,0:0:0:0:
270,196,71825,1,8,0:0:0:0:
265,111,71989,1,0,0:0:0:0:
317,36,72153,5,8,0:0:0:0:
232,31,72317,1,0,0:0:0:0:
169,89,72481,1,8,0:0:0:0:
164,174,72645,1,0,0:0:0:0:
110,244,72808,2,0,L|19:242,1,90,8|0,0:0|0:0,0:0:0:0:
177,302,73136,2,0,L|268:300,1,90,8|0,0:0|1:0,0:0:0:0:
333,254,73464,6,0,P|334:204|315:153,1,90,4|0,0:0|0:0,0:0:0:0:
408,148,73792,2,0,P|407:98|426:47,1,90,8|0,0:0|0:0,0:0:0:0:
335,91,74120,2,0,P|285:90|234:109,1,90,8|0,0:0|0:0,0:0:0:0:
229,16,74448,2,0,P|179:17|128:-2,1,90,8|0,0:0|0:0,0:0:0:0:
157,89,74776,6,0,B|123:100|123:100|103:84|81:74|55:66|10:74,1,135,4|0,1:2|0:0,0:0:0:0:
154,180,75103,2,0,B|120:191|120:191|100:175|78:165|52:157|7:165,1,135,4|0,1:2|0:0,0:0:0:0:
154,266,75431,2,0,B|120:277|120:277|100:261|78:251|52:243|7:251,1,135,4|0,1:2|0:0,0:0:0:0:
157,346,75759,2,0,P|100:348|47:327,1,90,4|0,1:2|0:0,0:0:0:0:
240,311,76087,5,0,1:0:0:0:
240,311,76251,1,0,1:0:0:0:
240,311,76415,1,0,1:0:0:0:
240,311,76579,1,0,1:0:0:0:
342,311,76743,5,0,1:0:0:0:
342,311,76907,1,0,1:0:0:0:
342,311,77071,1,0,1:0:0:0:
342,311,77235,1,0,1:0:0:0:
391,240,77399,5,4,1:0:0:0:
391,240,77563,1,0,1:0:0:0:
391,240,77727,1,0,1:0:0:0:
391,240,77891,1,0,1:0:0:0:
289,240,78055,5,0,1:0:0:0:
289,240,78219,1,0,1:0:0:0:
289,240,78383,1,0,1:0:0:0:
289,240,78547,1,0,1:0:0:0:
192,220,78710,5,4,1:0:0:0:
180,176,78791,1,0,1:0:0:0:
193,134,78873,1,0,1:0:0:0:
226,104,78955,1,0,1:0:0:0:
270,95,79038,2,0,P|297:104|329:104,3,45,0|0|0|0,1:0|1:0|1:0|1:0,0:0:0:0:
346,172,79366,5,4,1:0:0:0:
389,161,79447,1,0,1:0:0:0:
431,174,79529,1,0,1:0:0:0:
461,207,79611,1,0,1:0:0:0:
470,251,79694,2,0,P|461:277|461:309,3,45,0|0|0|0,1:0|1:0|1:0|1:0,0:0:0:0:
379,318,80021,6,0,L|382:261,1,47.2499985580445,0|0,1:0|1:0,0:0:0:0:
354,325,80185,2,0,L|357:268,1,49.5000015106202,0|0,1:0|1:0,0:0:0:0:
330,333,80349,2,0,L|333:276,1,51.7500009870529,0|0,1:0|1:0,0:0:0:0:
305,342,80513,2,0,L|308:285,1,53.9999983520508,0|0,1:0|1:0,0:0:0:0:
230,292,80677,5,0,1:0:0:0:
188,289,80758,1,0,1:0:0:0:
157,262,80840,1,0,1:0:0:0:
147,222,80922,1,0,1:0:0:0:
164,184,81005,1,0,1:0:0:0:
170,125,81086,1,0,1:0:0:0:
130,82,81168,1,0,1:0:0:0:
72,83,81250,1,0,1:0:0:0:
34,129,81332,1,4,1:0:0:0:
34,129,82644,5,0,0:0:0:0:
26,172,82725,1,0,0:0:0:0:
44,213,82807,1,0,0:0:0:0:
82,236,82889,1,0,0:0:0:0:
126,234,82972,1,8,0:0:0:0:
169,222,83053,1,0,0:0:0:0:
214,224,83135,1,0,0:0:0:0:
256,240,83217,1,0,0:0:0:0:
292,267,83300,2,0,L|298:326,3,45
371,299,83628,2,0,L|376:357,3,45,8|0|0|0,0:0|0:0|0:0|0:0,0:0:0:0:
462,326,83956,5,0,0:0:0:0:
469,282,84037,1,0,0:0:0:0:
453,240,84119,1,0,0:0:0:0:
417,214,84201,1,0,0:0:0:0:
373,210,84283,1,8,0:0:0:0:
260,168,84448,5,0,0:0:0:0:
253,124,84529,1,0,0:0:0:0:
269,82,84611,1,0,0:0:0:0:
305,56,84693,1,0,0:0:0:0:
349,52,84775,1,0,0:0:0:0:
432,76,84940,2,0,L|430:131,1,45,8|0,0:0|0:0,0:0:0:0:
498,176,85103,2,0,L|500:231,1,45
435,283,85267,5,0,0:0:0:0:
395,303,85348,1,0,0:0:0:0:
352,296,85430,1,0,0:0:0:0:
321,264,85512,1,0,0:0:0:0:
315,221,85595,1,8,0:0:0:0:
277,198,85676,1,0,0:0:0:0:
233,204,85758,1,0,0:0:0:0:
204,238,85840,1,0,0:0:0:0:
203,282,85923,2,0,L|200:331,3,45
122,314,86251,2,0,L|118:362,3,45,8|0|0|0,0:0|0:0|0:0|0:0,0:0:0:0:
60,272,86579,5,0,0:0:0:0:
57,249,86660,1,0,0:0:0:0:
59,227,86743,2,0,P|60:209|64:180,1,45
150,195,86907,5,8,0:0:0:0:
152,172,86988,1,0,0:0:0:0:
151,150,87071,2,0,P|150:132|146:103,1,45
210,45,87235,5,0,0:0:0:0:
232,42,87316,1,0,0:0:0:0:
255,44,87399,2,0,P|273:45|302:49,1,45
287,135,87563,5,8,0:0:0:0:
310,137,87644,1,0,0:0:0:0:
332,136,87727,2,0,P|350:135|379:131,1,45
456,153,87890,5,0,0:0:0:0:
451,197,87971,1,0,0:0:0:0:
424,231,88053,1,0,0:0:0:0:
382,245,88135,1,0,0:0:0:0:
339,234,88217,1,8,0:0:0:0:
170,372,88382,5,0,0:0:0:0:
174,327,88463,1,0,0:0:0:0:
201,293,88545,1,0,0:0:0:0:
243,279,88627,1,0,0:0:0:0:
286,290,88709,1,0,0:0:0:0:
339,234,88874,1,8,0:0:0:0:
304,205,88955,1,0,0:0:0:0:
262,191,89037,1,0,0:0:0:0:
217,195,89119,1,0,0:0:0:0:
182,224,89202,5,0,0:0:0:0:
152,190,89283,1,0,0:0:0:0:
144,146,89365,1,0,0:0:0:0:
160,105,89447,1,0,0:0:0:0:
195,77,89530,2,0,L|255:70,3,45,8|0|0|0,0:0|0:0|0:0|0:0,0:0:0:0:
157,141,89858,5,0,0:0:0:0:
124,111,89939,1,0,0:0:0:0:
80,103,90021,1,0,0:0:0:0:
39,119,90103,1,0,0:0:0:0:
11,154,90186,2,0,L|3:213,3,45,8|0|0|0,0:0|0:0|0:0|0:0,0:0:0:0:
63,258,90513,6,0,P|127:253|199:323,1,135,4|0,0:0|0:0,0:0:0:0:
221,315,90841,2,0,P|270:317|328:266,1,90
220,219,91333,2,0,L|369:214,1,135
470,148,91661,2,0,L|321:143,1,135,4|0,0:0|0:0,0:0:0:0:
211,77,91989,2,0,L|360:72,1,135,4|0,0:0|0:0,0:0:0:0:
476,7,92317,2,0,L|327:2,1,135,4|0,0:0|0:0,0:0:0:0:
261,20,92644,6,0,P|211:26|164:16,2,90,2|2|2,2:0|2:0|2:0,0:0:0:0:
293,104,93136,1,0,0:0:0:0:
222,158,93300,1,0,0:0:0:0:
179,170,93381,1,0,0:0:0:0:
138,154,93463,5,8,0:0:0:0:
114,117,93545,1,0,0:0:0:0:
157,106,93627,1,0,0:0:0:0:
199,121,93709,1,0,0:0:0:0:
222,158,93791,1,0,0:0:0:0:
225,201,93873,1,0,0:0:0:0:
196,236,93956,1,0,0:0:0:0:
153,247,94037,1,0,0:0:0:0:
111,232,94119,1,8,0:0:0:0:
87,195,94201,1,0,0:0:0:0:
90,151,94284,2,0,P|92:127|86:82,1,45
52,24,94448,6,0,L|111:20,1,45
156,67,94612,2,0,L|215:63,1,45
262,16,94776,1,8,0:0:0:0:
472,24,94940,6,0,L|413:20,1,45
368,67,95104,2,0,L|309:63,1,45
262,16,95268,1,0,0:0:0:0:
156,67,95431,1,8,0:0:0:0:
154,111,95512,1,0,0:0:0:0:
179,147,95594,1,0,0:0:0:0:
221,162,95676,1,0,0:0:0:0:
264,150,95759,5,0,0:0:0:0:
307,142,95840,1,0,0:0:0:0:
347,161,95922,1,0,0:0:0:0:
368,200,96004,1,0,0:0:0:0:
362,244,96087,2,0,P|358:275|345:303,3,45,8|0|0|0,0:0|0:0|0:0|0:0,0:0:0:0:
280,299,96415,5,0,0:0:0:0:
288,255,96496,1,0,0:0:0:0:
268,215,96578,1,0,0:0:0:0:
230,194,96660,1,0,0:0:0:0:
186,200,96743,2,0,P|155:204|127:217,3,45,8|0|0|0,0:0|0:0|0:0|0:0,0:0:0:0:
81,263,97071,5,0,0:0:0:0:
52,229,97152,1,0,0:0:0:0:
46,185,97234,1,0,0:0:0:0:
67,145,97316,1,0,0:0:0:0:
105,124,97398,1,8,0:0:0:0:
149,127,97481,1,0,0:0:0:0:
192,140,97562,1,0,0:0:0:0:
231,120,97644,1,0,0:0:0:0:
246,79,97726,2,0,L|251:29,1,45
333,8,97890,2,0,L|328:58,1,45
405,97,98054,2,0,L|409:46,1,45,8|0,0:0|0:0,0:0:0:0:
491,25,98218,2,0,L|486:75,1,45
488,153,98382,6,0,P|490:176|482:212,1,45,4|0,0:0|2:0,0:0:0:0:
390,190,98546,2,0,P|388:213|396:249,1,45,4|0,0:0|2:0,0:0:0:0:
486,197,98874,6,0,P|488:220|480:256,1,45,4|0,0:0|2:0,0:0:0:0:
388,234,99038,2,0,P|386:257|394:293,1,45,4|0,0:0|2:0,0:0:0:0:
484,241,99366,6,0,P|486:264|478:300,1,45,4|0,0:0|2:0,0:0:0:0:
386,278,99530,2,0,P|384:301|392:337,1,45,4|0,0:0|2:0,0:0:0:0:
482,285,99858,6,0,P|484:308|476:344,1,45,4|0,0:0|2:0,0:0:0:0:
384,322,100022,2,0,P|382:345|390:381,1,45,4|0,0:0|2:0,0:0:0:0:
482,285,100185,1,0,0:0:0:0:
384,322,100349,5,0,0:0:0:0:
341,334,100430,1,0,0:0:0:0:
299,320,100512,1,0,0:0:0:0:
272,285,100594,1,0,0:0:0:0:
269,240,100676,1,0,0:0:0:0:
281,197,100758,1,0,0:0:0:0:
267,155,100840,1,0,0:0:0:0:
232,128,100922,1,0,0:0:0:0:
187,125,101005,6,0,P|140:118|79:137,1,90,8|0,0:0|0:0,0:0:0:0:
26,201,101333,2,0,P|73:208|134:189,1,90,8|0,0:0|0:0,0:0:0:0:
183,281,101661,2,0,P|136:274|75:293,1,90,8|0,0:0|0:0,0:0:0:0:
22,357,101989,2,0,P|69:364|130:345,1,90,8|0,0:0|0:0,0:0:0:0:
197,349,102317,5,0,0:0:0:0:
233,323,102398,1,0,0:0:0:0:
250,282,102480,1,0,0:0:0:0:
243,239,102562,1,0,0:0:0:0:
213,206,102644,1,0,0:0:0:0:
170,195,102726,1,0,0:0:0:0:
128,208,102808,1,0,0:0:0:0:
99,243,102890,1,0,0:0:0:0:
94,287,102972,1,0,0:0:0:0:
67,238,103053,1,0,0:0:0:0:
61,182,103135,1,0,0:0:0:0:
80,130,103217,1,0,0:0:0:0:
118,89,103299,1,0,0:0:0:0:
169,67,103381,1,0,0:0:0:0:
225,69,103463,1,0,0:0:0:0:
275,93,103545,1,0,0:0:0:0:
311,136,103628,6,0,L|316:204,3,45,4|0|0|0,0:0|2:0|2:0|2:0,0:0:0:0:
391,162,103956,2,0,L|396:230,3,45,2|0|0|0,2:0|2:0|2:0|2:0,0:0:0:0:
473,249,104284,2,0,P|399:290|305:229,1,180,2|2,2:0|2:0,0:0:0:0:
245,212,104940,6,0,P|195:192|130:301,1,180
59,345,105431,2,0,L|12:343,2,45
121,274,105841,2,0,P|111:202|58:130,1,135
21,91,106251,5,0,0:0:0:0:
22,68,106332,1,0,0:0:0:0:
24,46,106414,1,0,0:0:0:0:
28,2,106579,2,0,P|90:2|143:26,1,90
232,67,107071,2,0,P|294:67|347:43,2,90
178,135,107562,6,0,P|228:164|216:227,1,112.5,4|0,0:0|0:0,0:0:0:0:
153,248,107808,2,0,P|103:277|115:340,1,112.5,4|0,0:0|0:0,0:0:0:0:
187,349,108054,1,4,0:0:0:0:
187,349,108218,6,0,P|246:333|305:356,1,112.5,4|0,0:0|0:0,0:0:0:0:
368,366,108464,2,0,P|427:382|486:359,1,112.5,4|0,0:0|0:0,0:0:0:0:
503,295,108710,1,4,0:0:0:0:
503,295,108874,2,0,L|494:173,1,112.5,4|0,0:0|0:0,0:0:0:0:
405,125,109120,2,0,L|414:247,1,112.5,4|0,0:0|0:0,0:0:0:0:
503,295,109366,6,0,L|494:173,1,112.5,4|0,0:0|0:0,0:0:0:0:
405,125,109858,1,0,0:0:0:0:
376,125,109939,1,0,0:0:0:0:
348,125,110021,1,0,0:0:0:0:
320,126,110103,1,0,0:0:0:0:
292,126,110185,6,0,P|286:67|297:24,1,90,8|0,0:0|0:0,0:0:0:0:
217,163,110513,2,0,P|223:222|212:265,1,90,8|0,0:0|0:0,0:0:0:0:
140,121,110841,2,0,P|133:61|144:18,1,90,8|0,0:0|0:0,0:0:0:0:
64,157,111169,2,0,P|70:216|59:259,1,90,8|0,0:0|0:0,0:0:0:0:
25,40,111497,5,8,0:0:0:0:
25,40,111661,1,0,0:0:0:0:
64,157,111825,1,8,0:0:0:0:
64,157,111989,1,0,0:0:0:0:
25,274,112153,1,8,0:0:0:0:
25,274,112317,1,0,0:0:0:0:
64,157,112481,1,8,0:0:0:0:
64,157,112645,1,0,0:0:0:0:
25,274,112808,5,8,0:0:0:0:
64,253,112889,1,0,0:0:0:0:
108,257,112971,1,0,0:0:0:0:
144,283,113053,1,0,0:0:0:0:
160,325,113136,1,8,0:0:0:0:
190,277,113217,1,0,0:0:0:0:
191,222,113299,1,0,0:0:0:0:
165,173,113381,1,0,0:0:0:0:
118,143,113464,5,8,0:0:0:0:
157,163,113545,1,0,0:0:0:0:
201,159,113627,1,0,0:0:0:0:
237,133,113709,1,0,0:0:0:0:
253,91,113792,1,8,0:0:0:0:
283,139,113873,1,0,0:0:0:0:
284,194,113955,1,0,0:0:0:0:
258,243,114037,1,0,0:0:0:0:
211,273,114120,6,0,P|146:268|81:322,1,112.5,4|0,0:0|0:0,0:0:0:0:
18,206,114366,2,0,P|83:211|148:157,1,112.5,4|0,0:0|0:0,0:0:0:0:
163,98,114612,1,4,0:0:0:0:
163,98,114776,6,0,B|221:26|221:26|292:125,1,180,0|2,0:0|2:0,0:0:0:0:
