osu file format v12

[General]
AudioFilename: Little Star.mp3
AudioLeadIn: 2000
PreviewTime: 36924
Countdown: 0
SampleSet: Soft
StackLeniency: 0.7
Mode: 0
LetterboxInBreaks: 1

[Editor]
DistanceSpacing: 1.3
BeatDivisor: 2
GridSize: 32

[Metadata]
Title:Little Star
TitleUnicode:Little Star
Artist:REDALiCE Feat. Ayumi Nomiya
ArtistUnicode:REDALiCE Feat. Ayumi Nomiya
Creator:LKs
Version:Standard
Source:beatmania IIDX
Tags:20th tricoro ORIGINAL SOUNDTRACK Vol.1 jubeat saucer Philippines BakaHuang Lundlerol cRyo[iceeicee] xsrsbsns collab
BeatmapID:225493
BeatmapSetID:81051

[Difficulty]
HPDrainRate:3
CircleSize:4
OverallDifficulty:4
ApproachRate:5
SliderMultiplier:1.1
SliderTickRate:1

[Events]
//Background and Video events
0,0,"2.jpg",0,0
//Break Periods
2,60525,68141
//Storyboard Layer 0 (Background)
//Storyboard Layer 1 (Fail)
//Storyboard Layer 2 (Pass)
//Storyboard Layer 3 (Foreground)
//Storyboard Sound Samples
//Background Colour Transformations
3,100,163,162,255

[TimingPoints]
1309,327.868852459016,4,1,1,60,1,0
3931,-100,4,2,3,60,0,0
4587,-100,4,1,1,60,0,0
5243,-100,4,2,3,60,0,0
5899,-100,4,1,1,60,0,0
9177,-100,4,2,3,60,0,0
11800,-100,4,1,1,60,0,0
13276,-100,4,1,1,58,0,0
13440,-100,4,1,1,55,0,0
13768,-100,4,1,1,60,0,0
15735,-100,4,2,3,60,0,0
16227,-100,4,1,1,60,0,0
20981,-100,4,2,3,60,0,0
21636,-100,4,2,3,56,0,0
21800,-100,4,1,1,60,0,0
26227,-100,4,2,3,60,0,0
27210,-100,4,1,1,60,0,0
30161,-100,4,2,3,60,0,0
38030,-100,4,2,2,60,0,1
43276,-100,4,1,1,60,0,1
43440,-100,4,2,2,60,0,1
43604,-100,4,2,5,60,0,1
43768,-100,4,2,2,60,0,1
44915,-100,4,2,5,60,0,1
45079,-100,4,2,2,60,0,1
45899,-100,4,2,3,60,0,1
48522,-100,4,2,2,60,0,1
53768,-100,4,2,3,60,0,1
60325,-100,4,1,1,50,0,0
60489,-100,4,2,3,60,0,0
82620,-100,4,2,2,60,0,1
87866,-100,4,1,1,60,0,1
88030,-100,4,2,2,60,0,1
88194,-100,4,2,5,60,0,1
88358,-100,4,2,2,60,0,1
89505,-100,4,2,5,60,0,1
89669,-100,4,2,2,60,0,1
90489,-100,4,2,3,60,0,1
93112,-100,4,2,2,60,0,1
98194,-100,4,2,3,60,0,1
104259,-100,4,2,3,10,0,1
104915,-100,4,2,3,60,0,0
115079,-100,4,2,3,5,0,0

[Colours]
Combo1 : 95,231,122
Combo2 : 214,70,225
Combo3 : 80,216,226
Combo4 : 255,190,125

[HitObjects]
512,375,161,1,0,0:0:0:0:
412,306,489,2,0,L|420:235,1,55
481,217,817,2,0,L|474:158,1,55
415,121,1145,1,0,0:0:0:0:
468,73,1309,6,0,P|411:46|358:76,1,110,4|8,0:0|0:0,0:0:0:0:
329,120,1800,2,0,L|206:111,1,110,0|8,0:0|0:0,0:0:0:0:
93,43,2456,1,0,0:0:0:0:
34,83,2620,6,0,P|24:138|44:194,1,110,0|8,0:0|0:0,0:0:0:0:
183,194,3276,1,0,0:0:0:0:
183,194,3604,1,8,0:0:0:0:
249,221,3768,1,0,0:0:0:0:
314,192,3931,6,0,L|405:206,2,82.5,4|4|4,0:0|0:0|0:0,0:0:0:0:
307,263,4587,1,0,0:0:0:0:
189,344,4915,1,8,0:0:0:0:
119,329,5079,1,0,0:0:0:0:
56,293,5243,6,0,P|40:255|59:203,2,82.5,4|4|4,0:0|0:0|0:0,0:0:0:0:
114,250,5899,1,0,0:0:0:0:
146,110,6227,1,8,0:0:0:0:
284,75,6554,6,0,P|340:97|396:87,1,110,4|8,0:0|0:0,0:0:0:0:
451,55,7046,2,0,P|460:107|422:156,1,110,0|8,0:0|0:0,0:0:0:0:
325,250,7702,1,0,0:0:0:0:
357,313,7866,6,0,P|406:333|476:307,2,110,0|8|0,0:0|0:0|0:0,0:0:0:0:
217,344,8849,1,8,0:0:0:0:
148,324,9013,1,0,0:0:0:0:
79,343,9177,6,0,P|81:296|137:253,1,110,2|0,0:0|0:0,0:0:0:0:
222,150,9833,2,0,P|220:103|175:62,1,110,8|0,0:0|0:0,0:0:0:0:
153,131,10325,1,0,0:0:0:0:
92,169,10489,6,0,P|49:185|6:172,2,82.5,8|2|10,0:0|0:0|0:0,0:0:0:0:
153,131,11145,1,10,0:0:0:0:
424,40,11800,6,0,P|379:75|404:181,1,165,6|0,0:0|0:0,0:0:0:0:
441,225,12456,2,0,P|463:270|434:338,1,110
308,289,13112,2,0,L|405:276,2,82.5,2|2|2,0:0|0:0|0:0,0:0:0:0:
258,341,13768,1,0,0:0:0:0:
115,346,14095,1,0,0:0:0:0:
52,311,14259,1,0,0:0:0:0:
93,252,14423,6,0,P|102:203|67:146,2,110,2|0|0,0:0|0:0|0:0,0:0:0:0:
52,311,15243,2,0,P|99:325|160:282,1,110
218,320,15735,2,0,L|290:326,2,55,8|4|8,0:0|0:0|0:0,0:0:0:0:
164,187,16390,2,0,B|189:205|230:201|251:177|251:177|244:202,1,110
284,252,16882,1,0,0:0:0:0:
352,272,17046,6,0,P|391:289|459:249,1,110,2|0,0:0|0:0,0:0:0:0:
501,213,17538,1,0,0:0:0:0:
465,150,17702,2,0,P|449:117|479:47,1,110
340,107,18358,2,0,B|357:145|357:145|344:194,2,82.5,2|2|2,0:0|0:0|0:0,0:0:0:0:
279,69,19013,2,0,L|209:65,1,55
160,100,19341,2,0,L|90:96,1,55
46,139,19669,6,0,P|18:182|56:281,1,165,2|0,0:0|0:0,0:0:0:0:
73,349,20325,2,0,P|124:303|125:265,1,110
161,202,20817,1,0,0:0:0:0:
227,229,20981,2,0,B|265:244|265:244|324:229,2,82.5,2|4|2,0:0|0:0|0:0,0:0:0:0:
161,202,21636,2,0,L|139:92,1,110,4|0,0:0|0:0,0:0:0:0:
195,48,22128,1,0,0:0:0:0:
254,87,22292,6,0,P|291:113|370:91,1,110,4|8,0:0|0:0,0:0:0:0:
479,38,22948,2,0,L|474:148,1,110,0|8,0:0|0:0,0:0:0:0:
495,216,23440,1,0,0:0:0:0:
438,260,23604,6,0,P|399:280|321:247,1,110,0|8,0:0|0:0,0:0:0:0:
201,309,24259,2,0,P|139:293|100:313,1,110,0|8,0:0|0:0,0:0:0:0:
32,336,24751,1,0,0:0:0:0:
11,267,24915,6,0,P|39:246|29:168,1,110,0|8,0:0|0:0,0:0:0:0:
8,110,25407,1,0,0:0:0:0:
143,64,25735,1,0,0:0:0:0:
80,100,25899,2,0,P|125:135|192:114,1,110,8|4,0:0|0:0,0:0:0:0:
312,164,26554,5,4,0:0:0:0:
312,164,26718,1,4,0:0:0:0:
439,100,27046,1,4,0:0:0:0:
439,100,27210,1,0,0:0:0:0:
445,242,27538,6,0,P|479:289|460:353,1,110,4|8,0:0|0:0,0:0:0:0:
405,304,28030,2,0,P|354:302|312:349,1,110,0|0,0:0|0:0,0:0:0:0:
245,361,28522,2,0,L|181:362,1,55,8|0,0:0|0:0,0:0:0:0:
120,343,28849,6,0,P|75:346|26:297,1,110,0|8,0:0|0:0,0:0:0:0:
96,275,29341,2,0,P|112:251|88:169,1,110
32,142,29833,1,8,0:0:0:0:
173,122,30161,6,0,P|136:99|129:40,2,82.5,2|2|2,0:0|0:0|0:0,0:0:0:0:
244,130,30817,2,0,P|282:109|337:132,2,82.5
202,188,31472,6,0,P|200:231|152:267,2,82.5,8|8|8,0:0|0:0|0:0,0:0:0:0:
173,122,32128,2,0,P|136:99|129:40,2,82.5
244,130,32784,6,0,P|282:109|337:132,2,82.5,4|4|4,0:0|0:0|0:0,0:0:0:0:
202,188,33440,2,0,P|200:231|152:267,2,82.5
256,192,34095,12,4,36718,0:0:0:0:
119,84,38030,6,0,P|85:115|105:190,1,110,6|8,0:0|0:0,0:0:0:0:
11,294,38686,2,0,P|55:329|124:305,1,110,0|8,0:0|0:0,0:0:0:0:
176,324,39177,1,0,0:0:0:0:
244,345,39341,6,0,P|288:380|338:372,1,110,2|8,0:0|0:0,0:0:0:0:
474,326,39997,2,0,L|433:281,1,55,0|0,0:0|0:0,0:0:0:0:
456,214,40325,2,0,L|415:169,1,55,8|0,0:0|0:0,0:0:0:0:
437,103,40653,6,0,P|399:102|347:157,1,110,2|8,0:0|0:0,0:0:0:0:
334,219,41145,2,0,P|284:265|246:264,1,110,0|2,0:0|0:0,0:0:0:0:
267,196,41636,1,8,0:0:0:0:
197,212,41800,1,0,0:0:0:0:
140,168,41964,6,0,P|113:128|157:63,1,110,2|8,0:0|0:0,0:0:0:0:
271,32,42620,2,0,P|298:72|277:125,1,110,2|8,0:0|0:0,0:0:0:0:
267,196,43112,1,2,0:0:0:0:
331,225,43276,5,6,0:0:0:0:
376,280,43440,2,0,P|420:297|488:252,2,110
305,292,44259,2,0,L|238:303,1,55,8|0,0:0|0:0,0:0:0:0:
184,272,44587,5,2,0:0:0:0:
131,320,44751,2,0,P|84:348|12:325,2,110
184,272,45571,1,8,0:0:0:0:
61,198,45899,6,0,B|39:148|39:148|54:89,1,110,2|8,0:0|0:0,0:0:0:0:
116,61,46390,2,0,P|161:72|228:26,1,110,12|8,0:0|0:0,0:0:0:0:
345,106,47046,6,0,P|399:78|444:89,2,110,4|4|4,0:0|0:0|0:0,0:0:0:0:
443,210,48030,1,0,0:0:0:0:
482,269,48194,2,0,L|478:335,1,55
414,355,48522,6,0,P|365:373|298:342,1,110,6|8,0:0|0:0,0:0:0:0:
231,237,49177,2,0,P|177:219|128:237,1,110,2|8,0:0|0:0,0:0:0:0:
72,282,49669,1,0,0:0:0:0:
15,238,49833,6,0,B|-1:183|-1:183|41:126,1,110,2|8,0:0|0:0,0:0:0:0:
164,88,50489,2,0,P|158:61|164:20,2,55,2|0|8,0:0|0:0|0:0,0:0:0:0:
307,80,51145,6,0,P|338:101|415:78,1,110,2|8,0:0|0:0,0:0:0:0:
474,68,51636,2,0,B|500:116|500:116|478:167,1,110,0|2,0:0|0:0,0:0:0:0:
417,205,52128,2,0,L|433:261,1,55,8|0,0:0|0:0,0:0:0:0:
390,316,52456,6,0,P|428:331|498:289,2,110,2|8|2,0:0|0:0|0:0,0:0:0:0:
247,330,53440,1,8,0:0:0:0:
105,306,53768,5,2,0:0:0:0:
105,306,53931,1,2,0:0:0:0:
34,181,54259,5,8,0:0:0:0:
34,181,54423,1,8,0:0:0:0:
162,118,54751,5,2,0:0:0:0:
162,118,54915,1,2,0:0:0:0:
233,243,55243,5,8,0:0:0:0:
233,243,55407,1,8,0:0:0:0:
353,321,55735,6,0,P|399:337|464:294,1,110
490,251,56227,1,0,0:0:0:0:
450,191,56390,6,0,L|438:57,1,110,0|8,0:0|0:0,0:0:0:0:
302,39,57046,2,0,L|314:173,1,110,0|2,0:0|0:0,0:0:0:0:
255,193,57538,1,0,0:0:0:0:
307,241,57702,6,0,P|343:262|418:240,2,110
255,193,58522,1,0,0:0:0:0:
256,192,58849,12,4,60325,0:0:0:0:
104,108,69341,5,0,0:0:0:0:
56,161,69505,2,0,L|57:241,1,55,2|2,0:0|0:0,0:0:0:0:
178,291,69997,1,2,0:0:0:0:
236,331,70161,2,0,P|281:352|347:315,1,110,2|8,0:0|0:0,0:0:0:0:
400,302,70653,2,0,L|409:267,2,27.5
119,248,71472,6,0,P|112:185|247:145,1,220
424,354,72784,2,0,L|438:244,1,110
382,115,73440,5,4,0:0:0:0:
382,115,73768,1,0,0:0:0:0:
259,187,74095,1,0,0:0:0:0:
259,187,74423,1,0,0:0:0:0:
120,152,74751,2,0,P|89:98|119:29,2,110,2|8|2,0:0|0:0|0:0,0:0:0:0:
9,243,75735,1,2,0:0:0:0:
115,338,76063,6,0,P|173:364|324:316,1,220
256,192,77046,1,0,0:0:0:0:
397,46,77374,2,0,P|339:20|188:68,1,220
256,192,78358,1,0,0:0:0:0:
256,192,78686,12,4,81308,0:0:0:0:
393,84,82620,6,0,P|427:115|407:190,1,110,6|8,0:0|0:0,0:0:0:0:
501,294,83276,2,0,P|457:329|388:305,1,110,0|8,0:0|0:0,0:0:0:0:
335,313,83768,1,0,0:0:0:0:
272,346,83931,6,0,P|228:381|159:357,1,110,2|8,0:0|0:0,0:0:0:0:
41,324,84587,2,0,L|82:279,1,55
56,214,84915,2,0,L|97:169,1,55,8|0,0:0|0:0,0:0:0:0:
75,103,85243,6,0,P|113:102|165:157,1,110,2|8,0:0|0:0,0:0:0:0:
178,219,85735,2,0,P|228:265|266:264,1,110,0|2,0:0|0:0,0:0:0:0:
245,196,86227,1,8,0:0:0:0:
315,212,86390,1,0,0:0:0:0:
372,168,86554,6,0,P|399:128|355:63,1,110,2|8,0:0|0:0,0:0:0:0:
241,32,87210,2,0,P|214:72|235:125,1,110,2|8,0:0|0:0,0:0:0:0:
245,196,87702,1,2,0:0:0:0:
181,225,87866,5,6,0:0:0:0:
136,280,88030,2,0,P|92:297|24:252,2,110
207,292,88849,2,0,L|274:303,1,55,8|0,0:0|0:0,0:0:0:0:
328,272,89177,5,2,0:0:0:0:
381,320,89341,2,0,P|428:348|500:325,2,110
328,272,90161,1,8,0:0:0:0:
451,198,90489,6,8,B|473:148|473:148|458:89,1,110,8|8,0:0|0:0,0:0:0:0:
396,61,90981,2,0,P|351:72|284:26,1,110,2|2,0:0|0:0,0:0:0:0:
167,106,91636,6,0,P|113:78|68:89,2,110,8|4|4,0:0|0:0|0:0,0:0:0:0:
94,229,92620,1,0,0:0:0:0:
30,269,92784,2,0,L|34:335,1,55
98,355,93112,6,0,P|147:373|214:342,1,110,0|8,0:0|0:0,0:0:0:0:
281,237,93768,2,0,P|335:219|384:237,1,110,2|8,0:0|0:0,0:0:0:0:
440,282,94259,1,0,0:0:0:0:
497,238,94423,6,0,B|513:183|513:183|471:126,1,110,2|8,0:0|0:0,0:0:0:0:
348,88,95079,2,0,P|354:61|348:20,2,55,2|0|8,0:0|0:0|0:0,0:0:0:0:
205,80,95735,6,0,P|174:101|97:78,1,110,2|8,0:0|0:0,0:0:0:0:
38,68,96227,2,0,B|12:116|12:116|34:167,1,110,0|2,0:0|0:0,0:0:0:0:
95,205,96718,2,0,L|79:261,1,55,8|0,0:0|0:0,0:0:0:0:
122,316,97046,6,0,P|84:331|14:289,2,110,2|8|2,0:0|0:0|0:0,0:0:0:0:
265,330,98030,1,8,0:0:0:0:
407,306,98358,5,8,0:0:0:0:
407,306,98522,1,8,0:0:0:0:
478,181,98849,5,2,0:0:0:0:
478,181,99013,1,2,0:0:0:0:
350,118,99341,5,8,0:0:0:0:
350,118,99505,1,8,0:0:0:0:
279,243,99833,5,2,0:0:0:0:
279,243,99997,1,2,0:0:0:0:
159,321,100325,6,0,P|113:337|48:294,1,110
22,251,100817,1,0,0:0:0:0:
62,191,100981,6,0,L|74:57,1,110,0|8,0:0|0:0,0:0:0:0:
210,39,101636,2,0,L|198:173,1,110,0|2,0:0|0:0,0:0:0:0:
257,193,102128,1,0,0:0:0:0:
205,241,102292,6,0,P|169:262|94:240,2,110
257,193,103112,1,0,0:0:0:0:
256,192,103440,12,0,104259,0:0:0:0:
301,157,104915,6,0,L|421:164,1,110,4|0,0:0|0:0,0:0:0:0:
459,215,105407,2,0,P|482:171|445:102,2,110,4|2|8,0:0|0:0|0:0,0:0:0:0:
417,274,106227,5,4,0:0:0:0:
417,274,106554,1,0,0:0:0:0:
277,241,106882,1,0,0:0:0:0:
277,241,107210,1,0,0:0:0:0:
136,270,107538,6,0,L|53:293,2,82.5,2|0|2,0:0|0:0|0:0,0:0:0:0:
188,220,108194,2,0,L|209:136,2,82.5,4|0|4,0:0|0:0|0:0,0:0:0:0:
205,289,108849,6,0,L|266:349,2,82.5,2|0|2,0:0|0:0|0:0,0:0:0:0:
136,270,109505,2,4,P|94:281|28:239,1,110,4|0,0:0|0:0,0:0:0:0:
10,111,110161,6,0,L|124:108,1,110,4|0,0:0|0:0,0:0:0:0:
185,138,110653,2,0,L|299:135,2,110
138,192,111472,6,0,P|118:235|159:299,1,110,4|0,0:0|0:0,0:0:0:0:
277,335,112128,1,0,0:0:0:0:
332,289,112292,1,0,0:0:0:0:
394,323,112456,2,0,L|470:316,1,55
491,259,112784,6,0,P|503:217|471:153,1,110,4|0,0:0|0:0,0:0:0:0:
411,130,113276,1,0,0:0:0:0:
343,154,113440,2,0,L|276:165,1,55,4|0,0:0|0:0,0:0:0:0:
220,140,113768,2,0,L|153:151,1,55
104,112,114095,5,8,0:0:0:0:
35,194,114341,1,2,0:0:0:0:
126,250,114587,1,8,0:0:0:0:
188,284,114751,2,0,B|244:284|244:284|271:289|298:308,1,110,4|0,0:0|0:0,0:0:0:0:
