osu file format v12

[General]
AudioFilename: Little Star.mp3
AudioLeadIn: 2000
PreviewTime: 36924
Countdown: 0
SampleSet: Normal
StackLeniency: 0.7
Mode: 0
LetterboxInBreaks: 1

[Editor]
Bookmarks: 115325
DistanceSpacing: 1.3
BeatDivisor: 2
GridSize: 32

[Metadata]
Title:Little Star
TitleUnicode:Little Star
Artist:REDALiCE Feat. Ayumi Nomiya
ArtistUnicode:REDALiCE Feat. Ayumi Nomiya
Creator:LKs
Version:Hyper
Source:beatmania IIDX
Tags:20th tricoro ORIGINAL SOUNDTRACK Vol.1 jubeat saucer Philippines BakaHuang Lundlerol cRyo[iceeicee] xsrsbsns collab
BeatmapID:229093
BeatmapSetID:81051

[Difficulty]
HPDrainRate:6
CircleSize:4
OverallDifficulty:7
ApproachRate:8
SliderMultiplier:1.6
SliderTickRate:1

[Events]
//Background and Video events
0,0,"2.jpg",0,0
//Break Periods
2,60525,68591
//Storyboard Layer 0 (Background)
//Storyboard Layer 1 (Fail)
//Storyboard Layer 2 (Pass)
//Storyboard Layer 3 (Foreground)
//Storyboard Sound Samples
//Background Colour Transformations
3,100,163,162,255

[TimingPoints]
1309,327.868852459016,4,1,1,63,1,0
5243,-100,4,2,3,63,0,0
5899,-100,4,1,1,63,0,0
9177,-100,4,2,1,63,0,0
9341,-100,4,1,1,63,0,0
9833,-100,4,2,1,63,0,0
10161,-100,4,1,1,63,0,0
10489,-100,4,2,3,63,0,0
11800,-100,4,1,1,63,0,0
15735,-100,4,2,1,63,0,0
16227,-100,4,1,1,63,0,0
20981,-100,4,2,2,63,0,0
21636,-100,4,2,2,63,0,0
21800,-100,4,1,1,63,0,0
21964,-100,4,2,2,63,0,0
22128,-100,4,1,1,63,0,0
23112,-100,4,2,1,63,0,0
23276,-100,4,1,1,63,0,0
23440,-100,4,2,1,63,0,0
23604,-100,4,1,1,63,0,0
24423,-100,4,2,1,63,0,0
24587,-100,4,1,1,63,0,0
24751,-100,4,2,1,63,0,0
24915,-100,4,1,1,63,0,0
26227,-100,4,2,1,63,0,0
26390,-100,4,1,1,63,0,0
26554,-100,4,2,1,63,0,0
27210,-100,4,1,1,63,0,0
30161,-100,4,2,3,63,0,0
30817,-100,4,1,1,63,0,0
31472,-100,4,2,3,63,0,0
32128,-100,4,1,1,63,0,0
32784,-100,4,2,3,63,0,0
33440,-100,4,1,1,63,0,0
34095,-100,4,2,3,63,0,0
35243,-100,4,1,1,63,0,0
35735,-100,4,1,1,59,0,0
36063,-100,4,1,1,56,0,0
36390,-100,4,1,1,53,0,0
36718,-100,4,1,1,63,0,0
37046,-200,4,1,0,26,0,0
38030,-100,4,2,2,63,0,1
46390,-100,4,2,2,56,0,1
46718,-100,4,2,2,56,0,1
47046,-100,4,2,2,63,0,1
48030,-100,4,2,3,63,0,1
48522,-100,4,2,2,63,0,1
53768,-100,4,2,3,63,0,1
55735,-100,4,2,2,63,0,1
57702,-100,4,1,2,63,0,1
59013,-133.333333333333,4,2,0,5,0,1
59997,-100,4,1,0,5,0,1
60325,-100,4,1,0,62,0,0
69505,-100,4,2,3,63,0,0
70817,-133.333333333333,4,1,1,64,0,0
78686,-133.333333333333,4,1,1,57,0,0
81472,-100,4,1,0,27,0,0
82620,-100,4,2,2,62,0,1
90489,-100,4,2,3,72,0,1
91636,-100,4,2,2,62,0,1
98358,-100,4,2,3,62,0,1
100325,-100,4,2,2,62,0,1
101800,-100,4,2,2,56,0,1
101964,-100,4,2,2,62,0,1
102128,-100,4,2,2,56,0,1
102292,-100,4,2,2,62,0,1
104915,-100,4,2,2,62,0,0
105407,-100,4,1,1,56,0,0
107538,-100,4,2,3,57,0,0

[Colours]
Combo1 : 95,231,122
Combo2 : 214,70,225
Combo3 : 80,216,226

[HitObjects]
84,92,161,1,0,0:0:0:0:
84,92,489,1,0,0:0:0:0:
164,80,653,1,0,0:0:0:0:
164,80,735,1,0,0:0:0:0:
164,80,817,1,0,0:0:0:0:
244,92,981,1,0,0:0:0:0:
324,84,1145,1,0,0:0:0:0:
404,96,1309,6,0,P|432:168|404:248,1,160,4|8,0:0|0:0,0:0:0:0:
340,320,1800,2,0,P|312:248|336:172,1,160,0|0,0:0|0:0,0:0:0:0:
420,224,2292,1,8,0:0:0:0:
416,320,2456,1,0,0:0:0:0:
416,320,2538,1,0,0:0:0:0:
416,320,2620,6,0,L|256:328,1,160,0|8,0:0|0:0,0:0:0:0:
139,336,3112,1,0,0:0:0:0:
68,244,3276,2,0,L|228:236,1,160,0|8,0:0|0:0,0:0:0:0:
272,80,3931,5,0,0:0:0:0:
352,88,4095,1,0,0:0:0:0:
352,88,4177,1,0,0:0:0:0:
352,88,4259,1,8,0:0:0:0:
432,76,4423,1,0,0:0:0:0:
508,48,4587,2,0,P|508:112|468:152,1,120,0|0,0:0|0:0,0:0:0:0:
448,160,4915,1,8,0:0:0:0:
368,172,5079,1,0,0:0:0:0:
352,88,5243,5,2,0:0:0:0:
172,68,5489,1,8,0:0:0:0:
160,248,5735,1,10,0:0:0:0:
256,172,5899,2,0,P|284:252|260:324,1,160
236,352,6308,1,0,0:0:0:0:
200,372,6389,1,0,0:0:0:0:
160,376,6471,1,0,0:0:0:0:
120,372,6554,6,0,P|52:316|32:248,1,160,4|8,0:0|0:0,0:0:0:0:
76,180,7046,2,0,L|160:156,1,80
172,80,7374,2,0,L|268:52,1,80,8|8,0:0|0:0,0:0:0:0:
328,52,7702,1,0,0:0:0:0:
348,48,7784,1,0,0:0:0:0:
368,44,7866,6,0,P|420:88|504:68,1,160,0|8,0:0|0:0,0:0:0:0:
444,16,8358,1,0,0:0:0:0:
356,144,8522,1,0,0:0:0:0:
512,152,8686,2,0,L|500:328,1,160,8|0,0:0|0:0,0:0:0:0:
420,304,9177,5,4,0:0:0:0:
340,316,9341,1,0,0:0:0:0:
340,316,9423,1,0,0:0:0:0:
340,316,9505,1,8,0:0:0:0:
184,352,9833,1,4,0:0:0:0:
140,196,10161,1,8,0:0:0:0:
296,160,10489,5,2,0:0:0:0:
184,352,10735,1,8,0:0:0:0:
80,156,10981,2,0,P|112:128|156:128,1,80,4|10,0:0|0:0,0:0:0:0:
216,168,11308,1,0,0:0:0:0:
268,232,11472,1,0,0:0:0:0:
308,236,11554,1,0,0:0:0:0:
344,220,11636,1,0,0:0:0:0:
368,188,11718,1,0,0:0:0:0:
372,148,11800,6,0,P|340:96|248:100,1,160,6|0,0:0|0:0,0:0:0:0:
296,160,12292,2,0,P|324:108|264:24,1,160,2|0,0:0|0:0,0:0:0:0:
196,40,12784,1,0,0:0:0:0:
116,56,12948,1,0,0:0:0:0:
36,68,13112,6,0,P|44:160|50:189,1,120,2|2,0:0|0:0,0:0:0:0:
32,304,13604,1,2,0:0:0:0:
108,284,13768,2,0,L|188:296,2,80,0|2|0,0:0|0:0|0:0,0:0:0:0:
32,304,14259,1,0,0:0:0:0:
196,376,14423,6,0,P|188:284|180:204,1,160,2|0,0:0|0:0,0:0:0:0:
260,232,14915,2,0,P|340:252|396:204,1,160,0|2,0:0|0:0,0:0:0:0:
472,240,15407,2,0,L|480:328,1,80,0|2,0:0|0:0,0:0:0:0:
464,154,15735,5,4,0:0:0:0:
376,48,15899,1,4,0:0:0:0:
320,176,16063,1,4,0:0:0:0:
260,232,16227,1,0,0:0:0:0:
248,156,16390,2,0,P|176:160|88:156,1,160
32,216,16882,1,0,0:0:0:0:
16,136,17046,6,0,B|64:128|100:152|120:196|108:232,1,160,2|0,0:0|0:0,0:0:0:0:
184,248,17538,2,0,P|120:308|56:288,1,160,2|0,0:0|0:0,0:0:0:0:
32,216,18030,2,0,P|-4:240|-12:316,1,120
0,325,18358,5,2,0:0:0:0:
32,215,18604,1,2,0:0:0:0:
117,291,18849,1,2,0:0:0:0:
192,356,19013,5,0,0:0:0:0:
256,308,19177,1,2,0:0:0:0:
336,292,19341,1,0,0:0:0:0:
416,304,19505,1,2,0:0:0:0:
480,352,19669,6,0,P|488:264|496:192,1,160,2|0,0:0|0:0,0:0:0:0:
500,112,20161,2,0,P|448:168|360:148,1,160,0|0,0:0|0:0,0:0:0:0:
330,86,20653,2,0,P|308:104|292:152,1,80,0|0,0:0|0:0,0:0:0:0:
336,8,20981,6,0,P|372:16|412:83,2,120,4|4|4,0:0|0:0|0:0,0:0:0:0:
256,20,21636,2,0,L|168:32,1,80,0|8,0:0|0:0,0:0:0:0:
40,98,21964,2,0,L|120:88,1,80,2|8,0:0|0:0,0:0:0:0:
24,176,22292,6,0,P|12:252|48:332,1,160,6|8,0:0|0:0,0:0:0:0:
120,348,22784,1,0,0:0:0:0:
200,336,22948,2,0,B|244:328|244:328|280:336,1,80,0|2,0:0|2:0,0:0:0:0:
440,352,23276,2,0,B|396:360|396:360|360:352,1,80,0|2,0:0|2:0,0:0:0:0:
484,280,23604,6,0,B|452:240|512:160|480:124,1,160,0|8,0:0|0:0,0:0:0:0:
432,64,24095,1,0,0:0:0:0:
352,48,24259,2,0,L|264:48,1,80,0|2,0:0|2:0,0:0:0:0:
120,84,24587,2,0,L|200:84,1,80,0|2,0:0|2:0,0:0:0:0:
60,12,24915,6,0,P|28:80|64:160,1,160,2|8,0:0|0:0,0:0:0:0:
104,220,25407,2,0,P|136:288|106:362,1,160,0|0,0:0|0:0,0:0:0:0:
156,300,25899,2,0,P|204:288|248:288,1,80,8|0,0:0|0:0,0:0:0:0:
316,280,26227,5,4,0:0:0:0:
396,284,26390,1,0,0:0:0:0:
468,316,26554,2,0,L|496:228,1,80,4|4,0:0|0:0,0:0:0:0:
480,80,27046,1,4,0:0:0:0:
496,160,27210,1,0,0:0:0:0:
456,164,27291,1,0,0:0:0:0:
420,148,27373,1,0,0:0:0:0:
398,115,27455,1,0,0:0:0:0:
395,76,27538,6,0,B|364:56|344:56|344:56|300:80|236:60,1,160,4|8,0:0|0:0,0:0:0:0:
164,40,28030,1,0,0:0:0:0:
164,40,28112,1,0,0:0:0:0:
164,40,28194,2,0,P|116:32|80:32,1,80,0|2,0:0|2:0,0:0:0:0:
4,48,28522,1,0,0:0:0:0:
96,176,28686,1,2,2:0:0:0:
52,112,28849,6,0,P|16:160|56:244,1,160,0|8,0:0|0:0,0:0:0:0:
96,176,29341,2,0,P|132:224|92:308,1,160
80,316,29751,1,0,0:0:0:0:
68,324,29833,2,0,P|128:308|200:312,1,120,8|0,0:0|0:0,0:0:0:0:
210,316,30161,5,2,0:0:0:0:
333,355,30407,1,8,0:0:0:0:
460,328,30653,2,0,P|464:252|484:168,1,160,2|0,0:0|0:0,0:0:0:0:
414,46,31145,2,0,P|407:71|428:123,1,80
500,96,31472,5,2,0:0:0:0:
324,140,31718,1,8,0:0:0:0:
148,104,31964,1,2,0:0:0:0:
68,96,32128,2,0,L|41:66,2,40
60,176,32456,1,0,0:0:0:0:
60,176,32538,1,0,0:0:0:0:
60,176,32620,1,0,0:0:0:0:
121,302,32784,6,0,P|128:244|140:184,2,120,8|2|8,0:0|0:0|0:0,0:0:0:0:
188,348,33440,2,0,P|236:360|272:356,1,80
456,232,33768,2,0,P|452:260|416:296,1,80
352,352,34095,6,0,P|328:276|357:232,1,120,2|0,0:0|0:0,0:0:0:0:
488,190,34587,2,0,L|473:60,1,120,8|0,0:0|0:0,0:0:0:0:
328,20,35079,1,10,0:0:0:0:
296,92,35243,6,0,P|236:56|160:96,1,160
80,104,35735,1,0,0:0:0:0:
92,144,35817,1,0,0:0:0:0:
124,168,35899,1,0,0:0:0:0:
164,176,35981,1,0,0:0:0:0:
200,164,36063,2,0,L|200:208,3,40
236,214,36390,2,0,L|236:266,4,40,0|0|0|0|4,0:0|0:0|0:0|0:0|0:0,0:0:0:0:
256,352,37046,5,0,2:0:0:0:
272,352,37374,1,0,2:0:0:0:
288,352,37702,1,0,2:0:0:0:
492,196,38030,5,6,0:0:0:0:
504,156,38112,1,0,0:0:0:0:
496,116,38194,2,0,P|480:68|456:40,1,80,0|8,0:0|0:0,0:0:0:0:
364,36,38522,1,0,0:0:0:0:
268,56,38686,1,2,0:0:0:0:
176,32,38849,1,0,0:0:0:0:
176,32,38931,1,0,0:0:0:0:
176,32,39013,1,8,0:0:0:0:
84,64,39177,1,0,0:0:0:0:
98,191,39341,5,2,0:0:0:0:
10,99,39505,1,0,0:0:0:0:
140,120,39669,1,8,0:0:0:0:
20,175,39833,2,0,P|32:247|108:275,1,160,0|0,0:0|0:0,0:0:0:0:
192,272,40325,1,8,0:0:0:0:
192,272,40653,6,0,P|264:308|328:264,1,160,2|8,0:0|0:0,0:0:0:0:
323,109,41145,2,0,P|260:143|256:224,1,160,2|0,0:0|0:0,0:0:0:0:
325,269,41636,1,8,0:0:0:0:
402,298,41800,2,0,P|384:208|328:188,1,160,0|2,0:0|0:0,0:0:0:0:
403,297,42292,2,0,L|538:322,1,120,8|0,0:0|0:0,0:0:0:0:
500,300,42620,6,0,L|504:204,1,80,0|8,0:0|0:0,0:0:0:0:
479,64,42948,2,0,L|476:144,1,80,0|8,0:0|0:0,0:0:0:0:
400,64,43276,5,6,0:0:0:0:
400,64,43358,1,0,0:0:0:0:
400,64,43440,2,0,P|344:68|320:64,1,80,0|8,0:0|0:0,0:0:0:0:
164,40,43768,2,0,P|204:36|244:40,1,80,0|2,0:0|0:0,0:0:0:0:
84,36,44095,1,0,0:0:0:0:
52,192,44259,1,8,0:0:0:0:
204,144,44423,1,0,0:0:0:0:
172,300,44587,6,0,P|216:304|260:300,1,80,2|0,0:0|0:0,0:0:0:0:
392,224,44915,2,0,P|348:220|304:224,1,80,8|2,0:0|0:0,0:0:0:0:
204,144,45243,2,0,P|205:180|209:224,1,80,0|0,0:0|0:0,0:0:0:0:
360,379,45571,2,0,P|360:344|356:300,1,80,8|0,0:0|0:0,0:0:0:0:
448,156,45899,5,6,0:0:0:0:
448,156,46227,1,4,0:0:0:0:
484,84,46390,2,0,P|444:76|404:88,1,80,2|0,0:0|0:0,0:0:0:0:
248,64,46718,2,0,P|288:72|328:60,1,80,2|0,0:0|0:0,0:0:0:0:
184,4,47046,2,0,P|160:68|204:144,2,160,4|4|4,0:0|0:0|0:0,0:0:0:0:
284,140,48030,2,0,P|256:212|180:224,1,160,2|8,0:0|0:0,0:0:0:0:
108,196,48522,5,6,0:0:0:0:
100,216,48604,1,0,0:0:0:0:
100,236,48686,2,0,P|120:280|152:296,1,80,0|8,0:0|0:0,0:0:0:0:
224,320,49013,2,0,L|308:308,1,80,0|2,0:0|0:0,0:0:0:0:
464,316,49341,2,0,L|380:328,2,80,0|8|0,0:0|0:0|0:0,0:0:0:0:
494,93,49833,6,0,P|464:168|488:240,1,160,2|8,0:0|0:0,0:0:0:0:
500,12,50325,2,0,P|460:88|388:88,1,160,0|2,0:0|0:0,0:0:0:0:
420,16,50817,1,8,0:0:0:0:
420,16,51145,6,0,L|252:28,1,160,2|8,0:0|0:0,0:0:0:0:
216,92,51636,2,0,P|220:148|216:184,1,80,2|0,0:0|0:0,0:0:0:0:
78,335,51964,2,0,P|76:312|80:256,1,80,2|8,0:0|0:0,0:0:0:0:
144,208,52292,2,0,P|216:252|280:224,1,160
216,92,52784,2,0,L|216:184,1,80,8|0,0:0|0:0,0:0:0:0:
295,51,53112,1,0,0:0:0:0:
295,51,53276,1,0,0:0:0:0:
378,75,53440,6,0,P|424:146|402:227,1,160,8|2,0:0|0:0,0:0:0:0:
338,159,53931,1,2,0:0:0:0:
256,284,54259,2,0,L|176:284,1,80,8|8,0:0|0:0,0:0:0:0:
400,232,54751,2,0,L|492:232,1,80,2|2,0:0|0:0,0:0:0:0:
340,308,55243,5,8,0:0:0:0:
256,284,55407,1,8,0:0:0:0:
172,308,55571,1,4,0:0:0:0:
112,236,55735,2,0,P|80:320|112:380,1,160,0|8,0:0|0:0,0:0:0:0:
156,172,56227,2,0,P|188:88|156:28,1,160
28,111,56718,2,0,L|108:100,1,80,8|0,0:0|0:0,0:0:0:0:
268,80,57046,2,0,L|352:68,1,80
436,56,57374,1,8,0:0:0:0:
376,244,57702,6,0,P|368:180|364:156,1,80
136,140,58030,2,0,P|144:204|148:228,1,80,0|0,0:0|0:0,0:0:0:0:
308,72,58358,2,0,L|244:80|228:82,1,80
204,312,58686,2,0,P|268:304|283:301,1,80,0|0,0:0|0:0,0:0:0:0:
256,192,59013,12,4,60325,0:0:0:0:
140,96,69341,6,0,L|132:44,2,40,0|0|2,0:0|0:0|0:0,0:0:0:0:
148,184,69669,1,8,0:0:0:0:
346,69,69997,1,8,0:0:0:0:
346,69,70161,1,2,0:0:0:0:
346,298,70489,1,0,0:0:0:0:
328,304,70571,1,0,0:0:0:0:
308,308,70653,1,0,0:0:0:0:
288,304,70735,1,0,0:0:0:0:
272,300,70817,6,0,P|192:328|168:356,1,120.000004577637,2|8,0:0|0:0,0:0:0:0:
148,184,71472,1,0,0:0:0:0:
100,112,71636,2,0,L|44:84,2,60.0000022888184,0|8|0,0:0|0:0|0:0,0:0:0:0:
148,184,72128,2,0,P|184:136|176:76,1,120.000004577637,0|8,0:0|0:0,0:0:0:0:
60,184,72784,2,0,P|24:232|32:292,1,120.000004577637,0|8,0:0|0:0,0:0:0:0:
104,256,73276,1,2,0:0:0:0:
186,280,73440,6,0,L|244:296,1,60.0000022888184,2|0,0:0|0:0,0:0:0:0:
388,272,73768,2,0,L|328:256,1,60.0000022888184,8|0,0:0|0:0,0:0:0:0:
436,344,74095,2,0,P|468:292|464:232,1,120.000004577637,0|8,0:0|0:0,0:0:0:0:
432,152,74587,1,2,0:0:0:0:
480,64,74751,6,0,L|352:68,1,120.000004577637,2|8,0:0|0:0,0:0:0:0:
32,60,75407,2,0,L|160:56,1,120.000004577637,2|8,0:0|0:0,0:0:0:0:
228,24,75899,1,0,0:0:0:0:
224,104,76063,6,0,L|292:124,1,60.0000022888184,2|0,0:0|0:0,0:0:0:0:
144,172,76390,2,0,L|86:188,1,60.0000022888184
240,320,76718,2,0,L|232:196,1,120.000004577637
224,104,77210,1,0,0:0:0:0:
160,292,77374,6,0,P|224:240|308:272,1,180.000006866455,2|0,0:0|0:0,0:0:0:0:
448,168,78030,2,0,P|416:200|344:192,1,120.000004577637,0|0,0:0|0:0,0:0:0:0:
384,128,78522,1,0,0:0:0:0:
299,126,78686,6,0,L|240:124,1,60.0000022888184,2|0,0:0|0:0,0:0:0:0:
112,72,79013,2,0,L|192:76,1,60.0000022888184,8|0,0:0|0:0,0:0:0:0:
36,24,79341,2,0,P|20:80|48:136,1,120.000004577637,2|8,0:0|0:0,0:0:0:0:
184,324,79997,5,0,0:0:0:0:
268,328,80161,1,0,0:0:0:0:
352,312,80325,1,8,0:0:0:0:
424,268,80489,1,0,0:0:0:0:
464,192,80653,2,0,L|444:148,3,30.0000011444092
476,132,80981,2,0,L|484:92,4,30.0000011444092,8|0|0|0|0,0:0|0:0|0:0|0:0|0:0,0:0:0:0:
324,56,81636,5,0,2:0:0:0:
104,201,81964,1,0,2:0:0:0:
336,319,82292,1,0,2:0:0:0:
324,56,82620,5,6,0:0:0:0:
284,52,82702,1,0,0:0:0:0:
244,52,82784,2,0,P|200:56|160:56,1,80,0|8,0:0|0:0,0:0:0:0:
104,200,83112,2,0,P|148:204|188:204,1,80,0|2,0:0|0:0,0:0:0:0:
252,344,83440,2,0,P|208:340|168:340,2,80,0|8|0,0:0|0:0|0:0,0:0:0:0:
364,304,83931,5,2,0:0:0:0:
472,356,84095,2,0,P|484:312|480:272,1,80,0|8,0:0|0:0,0:0:0:0:
460,160,84423,2,0,P|448:116|450:82,1,80,0|2,0:0|0:0,0:0:0:0:
328,84,84751,1,0,0:0:0:0:
208,88,84915,1,8,0:0:0:0:
208,88,85243,6,0,P|172:164|128:228,1,160,2|8,0:0|0:0,0:0:0:0:
172,296,85735,2,0,P|255:289|331:294,1,160
256,192,86227,1,8,0:0:0:0:
304,88,86390,2,0,P|340:164|382:226,1,160
476,260,86882,2,0,P|432:288|374:324,1,120,8|0,0:0|0:0,0:0:0:0:
356,316,87210,6,0,L|264:328,1,80,0|8,0:0|0:0,0:0:0:0:
116,308,87538,2,0,L|208:296,1,80,0|8,0:0|0:0,0:0:0:0:
16,352,87866,5,2,0:0:0:0:
36,260,88030,1,0,0:0:0:0:
36,260,88112,1,0,0:0:0:0:
36,260,88194,1,8,0:0:0:0:
20,168,88358,2,0,P|32:124|36:80,1,80,0|2,0:0|0:0,0:0:0:0:
156,108,88686,5,0,0:0:0:0:
256,44,88849,1,8,0:0:0:0:
376,64,89013,1,0,0:0:0:0:
492,28,89177,2,0,L|488:116,1,80,2|0,0:0|0:0,0:0:0:0:
384,272,89505,2,0,L|381:193,1,80,8|0,0:0|0:0,0:0:0:0:
216,92,89833,2,0,L|220:172,1,80,2|0,0:0|0:0,0:0:0:0:
80,304,90161,2,0,L|84:216,1,80,8|0,0:0|0:0,0:0:0:0:
20,348,90489,6,0,P|84:380|148:332,1,160,2|8,0:0|0:0,0:0:0:0:
224,356,90981,2,0,P|288:308|352:340,1,160,4|2,0:0|0:0,0:0:0:0:
413,198,91636,2,0,L|440:356,2,160,4|4|4,0:0|0:0|0:0,0:0:0:0:
195,87,92620,2,0,P|126:106|92:182,1,160
183,176,93112,6,0,P|227:176|267:180,1,80,6|0,0:0|0:0,0:0:0:0:
284,181,93358,1,0,0:0:0:0:
304,184,93440,1,8,0:0:0:0:
212,262,93604,2,0,P|168:265|128:266,1,80,0|2,0:0|0:0,0:0:0:0:
272,336,93931,2,0,P|316:336|356:340,1,80,0|8,0:0|0:0,0:0:0:0:
432,348,94259,1,0,0:0:0:0:
500,304,94423,6,0,P|470:229|494:157,1,160,2|8,0:0|0:0,0:0:0:0:
312,40,94915,2,0,P|378:42|418:118,1,160
338,114,95407,1,8,0:0:0:0:
65,56,95735,6,0,L|241:48,1,160,2|8,0:0|0:0,0:0:0:0:
20,128,96227,2,0,P|18:151|22:207,1,80,0|0,0:0|0:0,0:0:0:0:
172,268,96554,2,0,B|173:296|177:188,1,80,2|8,0:0|0:0,0:0:0:0:
96,344,96882,2,0,L|256:352,1,160,0|0,0:0|0:0,0:0:0:0:
328,312,97374,2,0,L|424:316,1,80,8|0,0:0|0:0,0:0:0:0:
494,344,97702,1,0,0:0:0:0:
494,344,97866,1,0,0:0:0:0:
479,257,98030,6,0,P|507:181|483:97,1,160,8|8,0:0|0:0,0:0:0:0:
446,32,98522,1,0,0:0:0:0:
283,55,98849,2,0,L|199:55,1,80,2|2,0:0|0:0,0:0:0:0:
129,193,99341,2,0,L|213:193,1,80,8|8,0:0|0:0,0:0:0:0:
144,340,99833,2,0,L|44:340,2,80,2|8|2,0:0|0:0|0:0,0:0:0:0:
226,337,100325,6,0,B|282:311|322:370|386:333,1,160,4|0,0:0|0:0,0:0:0:0:
466,343,100817,1,0,0:0:0:0:
496,264,100981,2,0,L|481:186,1,80,0|8,0:0|0:0,0:0:0:0:
375,218,101308,2,0,L|360:140,1,80,0|8,0:0|0:0,0:0:0:0:
251,162,101636,2,0,L|236:84,1,80,0|8,0:0|0:0,0:0:0:0:
145,37,101964,1,0,0:0:0:0:
41,72,102128,1,8,0:0:0:0:
26,197,102292,6,0,P|-6:265|26:341,1,160,2|2,0:0|0:0,0:0:0:0:
90,269,102784,1,2,0:0:0:0:
155,340,102948,2,0,P|186:265|154:197,1,160,0|2,0:0|0:0,0:0:0:0:
90,269,103440,1,0,0:0:0:0:
256,192,103604,12,4,104915,0:0:0:0:
52,68,105407,6,0,L|32:16,2,40
76,144,105735,1,0,0:0:0:0:
88,182,105817,1,0,0:0:0:0:
100,220,105899,2,0,L|128:304,1,80
60,344,106227,6,0,P|112:308|200:332,1,160
400,264,106882,2,0,P|348:300|260:276,2,160,0|0|2,0:0|0:0|0:0,0:0:0:0:
400,264,107784,5,8,0:0:0:0:
484,176,108030,1,2,0:0:0:0:
468,96,108194,2,0,L|384:72,1,80,4|0,0:0|0:0,0:0:0:0:
234,70,108522,2,0,L|312:92,1,80
128,128,108849,2,0,P|152:64|168:12,2,120,8|2|8,0:0|0:0|0:0,0:0:0:0:
52,152,109505,2,0,P|108:204|182:185,1,160,4|0,0:0|0:0,0:0:0:0:
220,168,109915,1,0,0:0:0:0:
232,204,109997,1,0,0:0:0:0:
244,244,110079,1,0,0:0:0:0:
256,280,110161,6,0,P|336:284|416:296,1,160,4|0,0:0|0:0,0:0:0:0:
484,348,110653,2,0,P|492:280|500:244,1,80,4|0,0:0|0:0,0:0:0:0:
428,168,110981,2,0,P|456:112|472:84,1,80,4|0,0:0|0:0,0:0:0:0:
372,96,111308,1,0,0:0:0:0:
352,88,111390,1,0,0:0:0:0:
332,84,111472,6,0,P|248:92|160:88,1,160,4|0,0:0|0:0,0:0:0:0:
96,60,111964,1,4,0:0:0:0:
72,216,112128,1,0,0:0:0:0:
44,140,112292,2,0,P|120:148|152:224,1,160,4|0,0:0|0:0,0:0:0:0:
112,288,112784,5,4,0:0:0:0:
192,288,112948,1,0,0:0:0:0:
192,288,113030,1,0,0:0:0:0:
192,288,113112,1,0,0:0:0:0:
392,340,113440,1,4,0:0:0:0:
456,140,113768,1,0,0:0:0:0:
256,88,114095,6,0,L|124:84,2,120,2|8|2,0:0|0:0|0:0,0:0:0:0:
256,88,114751,1,10,0:0:0:0:
