osu file format v12

[General]
AudioFilename: Little Star.mp3
AudioLeadIn: 1000
PreviewTime: 36924
Countdown: 0
SampleSet: Normal
StackLeniency: 0.7
Mode: 0
LetterboxInBreaks: 1

[Editor]
DistanceSpacing: 1.2
BeatDivisor: 2
GridSize: 32

[Metadata]
Title:Little Star
TitleUnicode:Little Star
Artist:REDALiCE Feat. Ayumi Nomiya
ArtistUnicode:REDALiCE Feat. Ayumi Nomiya
Creator:LKs
Version:Beginner
Source:beatmania IIDX
Tags:20th tricoro ORIGINAL SOUNDTRACK Vol.1 jubeat saucer Philippines BakaHuang Lundlerol cRyo[iceeicee] xsrsbsns collab
BeatmapID:225491
BeatmapSetID:81051

[Difficulty]
HPDrainRate:2
CircleSize:3
OverallDifficulty:2
ApproachRate:3
SliderMultiplier:0.8
SliderTickRate:1

[Events]
//Background and Video events
0,0,"1.jpg",0,0
//Break Periods
2,60525,69377
//Storyboard Layer 0 (Background)
//Storyboard Layer 1 (Fail)
//Storyboard Layer 2 (Pass)
//Storyboard Layer 3 (Foreground)
//Storyboard Sound Samples
//Background Colour Transformations
3,100,163,162,255

[TimingPoints]
1309,327.868852459016,4,1,1,60,1,0
5243,-100,4,2,1,60,0,0
6063,-100,4,1,1,60,0,0
15735,-100,4,2,1,60,0,0
16390,-100,4,1,1,60,0,0
20981,-100,4,2,1,60,0,0
21636,-100,4,1,1,60,0,0
26227,-100,4,2,1,60,0,0
27210,-100,4,1,1,60,0,0
30161,-100,4,2,3,60,0,0
35407,-100,4,1,1,60,0,0
38030,-100,4,1,1,50,0,1
38686,-100,4,2,2,60,0,1
45899,-100,4,2,1,60,0,1
47046,-100,4,2,1,60,0,1
48522,-100,4,2,2,60,0,1
53768,-100,4,2,3,60,0,1
56554,-100,4,2,2,60,0,1
60325,-100,4,1,0,47,0,0
60653,-100,4,1,0,60,0,0
70817,-100,4,1,1,60,0,0
76063,-100,4,1,1,60,0,0
77702,-100,4,1,1,5,0,0
77866,-100,4,1,1,60,0,0
78030,-100,4,1,1,5,0,0
78194,-100,4,1,1,60,0,0
82620,-100,4,2,2,60,0,1
90489,-100,4,2,3,60,0,1
93440,-100,4,2,2,60,0,1
93768,-100,4,2,5,60,0,1
94095,-100,4,2,2,60,0,1
95079,-100,4,2,5,60,0,1
95407,-100,4,2,2,60,0,1
98358,-100,4,2,3,60,0,1
104915,-100,4,1,1,60,0,0
108849,-100,4,2,3,60,0,0
109669,-100,4,1,1,60,0,0
114095,-100,4,2,3,60,0,0

[Colours]
Combo1 : 95,231,122
Combo2 : 214,70,225
Combo3 : 80,216,226
Combo4 : 255,190,125

[HitObjects]
487,42,1309,1,4,0:0:0:0:
424,225,1964,2,0,P|374:255|312:250,1,120,8|0,0:0|0:0,0:0:0:0:
268,236,2620,2,0,L|261:149,1,80
205,77,3276,2,0,P|125:58|94:73,1,120,8|0,0:0|0:0,0:0:0:0:
58,104,3931,5,0,0:0:0:0:
14,291,4587,1,8,0:0:0:0:
202,330,5243,2,0,L|196:261,2,60,4|4|4,0:0|0:0|0:0,0:0:0:0:
246,347,5899,2,0,P|316:364|405:340,1,160,4|4,0:0|0:0,0:0:0:0:
505,182,7210,6,0,P|516:127|498:56,1,120,8|0,0:0|0:0,0:0:0:0:
472,27,7866,2,0,L|370:46,1,80
315,99,8522,2,0,P|304:154|322:225,1,120,8|0,0:0|0:0,0:0:0:0:
342,256,9177,5,0,0:0:0:0:
173,348,9833,1,8,0:0:0:0:
23,226,10489,2,0,L|16:86,2,120
115,195,11800,6,0,B|155:114|253:104|316:171,1,240,4|0,0:0|0:0,0:0:0:0:
367,251,13112,2,0,L|532:255,1,160
494,65,14423,6,0,P|433:119|298:65,1,240
207,96,15735,2,0,L|198:154,2,40,4|4|4,0:0|0:0|0:0,0:0:0:0:
126,44,16390,1,0,0:0:0:0:
19,203,17046,6,0,P|123:257|247:218,1,240
332,235,18358,2,0,L|345:371,2,120
420,196,19669,6,0,L|436:56,1,120
296,30,20653,1,0,0:0:0:0:
212,77,20981,2,0,L|136:67,2,60,4|4|4,0:0|0:0|0:0,0:0:0:0:
340,142,21964,1,0,0:0:0:0:
248,165,22292,6,0,L|252:266,1,80,4|8,0:0|0:0,0:0:0:0:
91,352,23276,1,8,0:0:0:0:
6,305,23604,2,0,L|2:225,1,80,0|8,0:0|0:0,0:0:0:0:
163,119,24587,1,8,0:0:0:0:
248,165,24915,6,0,L|252:266,1,80,0|8,0:0|0:0,0:0:0:0:
406,357,25899,1,8,0:0:0:0:
485,303,26227,2,0,L|488:223,1,80,4|4,0:0|0:0,0:0:0:0:
454,189,26718,2,0,L|457:109,1,80,4|4,0:0|0:0,0:0:0:0:
352,9,27538,6,0,L|251:14,1,80,4|8,0:0|0:0,0:0:0:0:
146,158,28522,1,8,0:0:0:0:
213,225,28849,2,0,L|292:221,1,80,0|8,0:0|0:0,0:0:0:0:
420,77,29833,1,8,0:0:0:0:
352,9,30161,6,0,L|277:14,2,60,2|12|2,0:0|0:0|0:0,0:0:0:0:
112,26,31472,6,0,L|145:75,2,60,8|6|8,0:0|0:0|0:0,0:0:0:0:
262,213,32784,6,0,L|295:145,2,60,2|12|2,0:0|0:0|0:0,0:0:0:0:
51,328,34095,6,0,L|185:335,1,120,8|2,0:0|0:0,0:0:0:0:
314,342,35079,2,0,L|372:347,1,40,8|2,0:0|0:0,0:0:0:0:
440,302,35571,6,0,P|452:263|454:217,1,80
506,142,36227,2,0,P|494:103|492:57,1,80
256,192,36718,12,4,38030,0:0:0:0:
168,32,38686,5,8,0:0:0:0:
1,127,39341,2,0,L|11:211,1,80,2|0,0:0|0:0,0:0:0:0:
71,280,39997,2,0,P|154:319|225:292,1,160,8|2,0:0|0:0,0:0:0:0:
400,349,41308,5,8,0:0:0:0:
511,192,41964,2,0,L|428:194,1,80,2|0,0:0|0:0,0:0:0:0:
345,239,42620,2,0,L|241:241,1,80,8|0,0:0|0:0,0:0:0:0:
184,293,43276,5,2,0:0:0:0:
41,164,43931,1,8,0:0:0:0:
184,293,44587,2,0,L|193:206,1,80,2|0,0:0|0:0,0:0:0:0:
247,134,45243,2,0,P|344:121|391:173,1,160,8|4,0:0|0:0,0:0:0:0:
512,202,46390,6,0,L|511:287,1,80
429,332,47046,2,0,L|413:238,2,80,4|4|4,0:0|0:0|0:0,0:0:0:0:
335,309,48030,2,0,L|303:227,1,80
263,211,48522,5,6,0:0:0:0:
130,349,49177,1,8,0:0:0:0:
28,185,49833,2,0,L|44:275,1,80,2|0,0:0|0:0,0:0:0:0:
132,231,50489,2,0,P|156:169|133:66,1,160,8|2,0:0|0:0,0:0:0:0:
326,29,51800,5,8,0:0:0:0:
479,144,52456,2,0,L|479:228,1,80,2|0,0:0|0:0,0:0:0:0:
382,222,53112,2,0,L|382:306,1,80,8|0,0:0|0:0,0:0:0:0:
299,351,53768,6,0,B|257:284|257:284|268:194,1,160,4|4,0:0|0:0,0:0:0:0:
176,234,54751,2,0,B|185:153|185:153|143:86,1,160,4|4,0:0|0:0,0:0:0:0:
52,54,55735,1,4,0:0:0:0:
31,244,56390,6,0,P|116:300|230:235,1,240,4|0,0:0|0:0,0:0:0:0:
256,192,57702,12,0,59013,0:0:0:0:
256,192,60325,5,4,0:0:0:0:
458,65,70817,6,0,P|514:179|438:261,1,240,4|0,0:0|0:0,0:0:0:0:
399,336,72128,2,0,B|319:303|237:376|163:342,1,240,0|0,0:0|0:0,0:0:0:0:
71,369,73440,6,0,P|15:255|91:173,1,240,4|0,0:0|0:0,0:0:0:0:
156,232,74751,2,0,B|236:265|318:192|392:226,1,240,4|0,0:0|0:0,0:0:0:0:
454,298,76063,6,0,P|479:262|481:214,1,80,0|8,0:0|0:0,0:0:0:0:
327,339,77046,1,8,0:0:0:0:
240,297,77374,2,0,L|232:162,2,120,0|8|8,0:0|0:0|0:0,0:0:0:0:
161,353,78686,5,0,0:0:0:0:
50,195,79341,1,0,0:0:0:0:
161,353,79997,2,0,L|245:302,1,80,0|8,0:0|0:0,0:0:0:0:
320,343,80653,2,0,L|404:292,2,80,0|8|4,0:0|0:0|0:0,0:0:0:0:
512,62,82620,6,0,P|430:99|344:73,1,160,6|8,0:0|0:0,0:0:0:0:
277,128,83604,1,0,0:0:0:0:
186,160,83931,2,0,P|104:123|18:149,1,160,2|8,0:0|0:0,0:0:0:0:
61,320,85243,5,2,0:0:0:0:
251,345,85899,1,8,0:0:0:0:
117,207,86554,2,0,L|104:117,1,80,2|0,0:0|0:0,0:0:0:0:
193,89,87210,2,0,L|204:168,1,80,8|0,0:0|0:0,0:0:0:0:
293,205,87866,6,0,P|363:182|381:103,1,160,2|8,0:0|0:0,0:0:0:0:
454,42,88849,1,0,0:0:0:0:
499,126,89177,2,0,L|484:297,1,160,2|8,0:0|0:0,0:0:0:0:
309,359,90489,6,0,L|303:221,1,120,4|0,0:0|0:0,0:0:0:0:
217,196,91308,1,0,0:0:0:0:
129,235,91636,2,0,L|123:332,2,80,4|4|4,0:0|0:0|0:0,0:0:0:0:
46,186,92620,2,0,L|51:105,1,80
181,41,93440,6,0,P|286:42|332:86,1,160,0|0,0:0|0:0,0:0:0:0:
356,166,94423,1,2,0:0:0:0:
321,255,94751,2,0,P|262:307|185:302,1,160,0|0,0:0|0:0,0:0:0:0:
108,243,95735,5,2,0:0:0:0:
264,132,96390,1,8,0:0:0:0:
370,290,97046,2,0,L|380:375,1,80,2|0,0:0|0:0,0:0:0:0:
470,338,97702,2,0,L|479:252,1,80,8|0,0:0|0:0,0:0:0:0:
512,171,98358,6,0,L|505:111,1,40,2|2,0:0|0:0,0:0:0:0:
390,47,99013,1,8,0:0:0:0:
318,111,99341,6,0,L|311:165,1,40,2|2,0:0|0:0,0:0:0:0:
172,185,99997,1,10,0:0:0:0:
102,118,100325,2,0,P|60:115|22:123,1,80,0|10,0:0|0:0,0:0:0:0:
1,216,100981,5,0,0:0:0:0:
67,284,101308,1,12,0:0:0:0:
154,323,101636,2,0,L|253:325,1,80,0|2,0:0|0:0,0:0:0:0:
256,192,102292,12,0,103604,0:0:0:0:
23,342,104915,5,4,0:0:0:0:
86,159,105571,2,0,P|136:129|198:134,1,120,8|0,0:0|0:0,0:0:0:0:
242,148,106226,2,0,L|249:235,1,80
305,307,106882,2,0,P|341:323|388:315,1,80,8|0,0:0|0:0,0:0:0:0:
467,278,107537,5,0,0:0:0:0:
496,88,108193,1,8,0:0:0:0:
308,54,108849,2,0,L|314:123,2,60,2|8|2,0:0|0:0|0:0,0:0:0:0:
264,37,109505,2,0,P|194:20|105:44,1,160,10|0,0:0|0:0,0:0:0:0:
5,202,110816,6,8,P|-6:257|12:328,1,120
38,357,111472,2,0,L|140:338,1,80
195,285,112128,2,0,P|210:249|201:196,1,80,8|0,0:0|0:0,0:0:0:0:
173,118,112783,5,0,0:0:0:0:
343,30,113439,1,8,0:0:0:0:
487,158,114095,2,0,L|478:234,2,60,8|2|8,0:0|0:0|0:0,0:0:0:0:
474,111,114751,1,10,0:0:0:0:
