osu file format v12

[General]
AudioFilename: Little Star.mp3
AudioLeadIn: 2000
PreviewTime: 36924
Countdown: 0
SampleSet: Soft
StackLeniency: 0.7
Mode: 0
LetterboxInBreaks: 1

[Editor]
Bookmarks: 60243,70735,82538,104833,115325
DistanceSpacing: 0.9
BeatDivisor: 4
GridSize: 32

[Metadata]
Title:Little Star
TitleUnicode:Little Star
Artist:REDALiCE Feat. Ayumi Nomiya
ArtistUnicode:REDALiCE Feat. Ayumi Nomiya
Creator:LKs
Version:Another
Source:beatmania IIDX
Tags:20th tricoro ORIGINAL SOUNDTRACK Vol.1 jubeat saucer Philippines BakaHuang Lundlerol cRyo[iceeicee] xsrsbsns collab
BeatmapID:225490
BeatmapSetID:81051

[Difficulty]
HPDrainRate:7
CircleSize:5
OverallDifficulty:8
ApproachRate:9
SliderMultiplier:1.8
SliderTickRate:1

[Events]
//Background and Video events
0,0,"1.jpg",0,0
//Break Periods
2,60525,68741
//Storyboard Layer 0 (Background)
//Storyboard Layer 1 (Fail)
//Storyboard Layer 2 (Pass)
//Storyboard Layer 3 (Foreground)
//Storyboard Sound Samples
//Background Colour Transformations
3,100,163,162,255

[TimingPoints]
1309,327.868852459016,4,1,1,60,1,0
1636,-133.333333333333,4,1,1,60,0,0
3276,-133.333333333333,4,1,1,52,0,0
3440,-133.333333333333,4,1,1,54,0,0
3604,-133.333333333333,4,1,1,56,0,0
3768,-133.333333333333,4,1,1,58,0,0
3931,-133.333333333333,4,1,1,60,0,0
5243,-133.333333333333,4,2,1,60,0,0
5899,-133.333333333333,4,2,1,60,0,0
6063,-133.333333333333,4,1,1,60,0,0
9013,-133.333333333333,4,1,1,55,0,0
10489,-133.333333333333,4,2,0,60,0,0
10981,-133.333333333333,4,2,1,60,0,0
11308,-133.333333333333,4,1,1,60,0,0
13276,-133.333333333333,4,1,1,55,0,0
13604,-133.333333333333,4,1,1,54,0,0
13768,-133.333333333333,4,2,0,60,0,0
13931,-133.333333333333,4,1,1,51,0,0
14095,-133.333333333333,4,1,1,54,0,0
14259,-133.333333333333,4,1,1,57,0,0
14423,-133.333333333333,4,1,1,60,0,0
15735,-133.333333333333,4,2,1,60,0,0
16390,-133.333333333333,4,1,1,60,0,0
18522,-133.333333333333,4,1,1,55,0,0
18849,-133.333333333333,4,1,1,57,0,0
19013,-133.333333333333,4,2,0,57,0,0
19177,-133.333333333333,4,1,1,54,0,0
19341,-133.333333333333,4,1,1,56,0,0
19505,-133.333333333333,4,1,1,58,0,0
19669,-133.333333333333,4,1,1,60,0,0
20981,-133.333333333333,4,2,1,60,0,0
21636,-133.333333333333,4,2,0,60,0,0
21718,-133.333333333333,4,1,1,60,0,0
21800,-133.333333333333,4,2,0,60,0,0
21882,-133.333333333333,4,1,1,55,0,0
28849,-133.333333333333,4,1,1,50,0,0
30161,-100,4,2,3,70,0,0
30817,-133.333333333333,4,1,1,53,0,0
30981,-133.333333333333,4,1,1,56,0,0
31145,-133.333333333333,4,1,1,54,0,0
31308,-133.333333333333,4,1,1,50,0,0
31472,-133.333333333333,4,2,3,70,0,0
32128,-133.333333333333,4,1,1,49,0,0
32292,-133.333333333333,4,1,1,50,0,0
32456,-133.333333333333,4,1,1,55,0,0
32620,-133.333333333333,4,1,1,58,0,0
32784,-133.333333333333,4,2,3,60,0,0
33440,-133.333333333333,4,1,1,60,0,0
34095,-133.333333333333,4,2,3,60,0,0
35243,-133.333333333333,4,1,1,55,0,0
36718,-200,4,1,1,60,0,0
36882,-200,4,2,0,55,0,0
38030,-100,4,2,2,60,0,1
38112,-100,4,2,2,60,0,1
45899,-133.333333333333,4,2,2,60,0,1
46718,-133.333333333333,4,2,1,60,0,1
46964,-133.333333333333,4,2,2,5,0,1
47046,-133.333333333333,4,2,1,60,0,1
47292,-133.333333333333,4,2,2,5,0,1
47374,-111.111111111111,4,2,1,60,0,1
47620,-111.111111111111,4,2,2,5,0,1
47702,-100,4,2,1,60,0,1
47866,-100,4,2,1,60,0,1
47948,-100,4,2,0,60,0,1
48030,-100,4,2,1,50,0,1
48194,-100,4,2,1,40,0,1
48358,-100,4,2,1,35,0,1
48522,-100,4,1,1,60,0,1
48604,-100,4,2,2,60,0,1
52620,-100,4,2,0,60,0,1
52784,-100,4,2,2,60,0,1
52866,-100,4,2,0,60,0,1
52948,-100,4,2,0,53,0,1
53030,-100,4,2,0,60,0,1
53112,-100,4,2,2,60,0,1
53276,-100,4,2,0,60,0,1
53440,-100,4,2,2,60,0,1
53522,-100,4,2,0,60,0,1
53768,-100,4,2,3,60,0,1
59013,-100,4,2,2,60,0,1
59177,-100,4,2,2,55,0,1
59505,-100,4,2,2,50,0,1
59669,-100,4,2,2,45,0,1
59997,-100,4,2,2,40,0,1
60325,-100,4,1,1,55,0,0
69505,-100,4,2,3,55,0,0
70981,-100,4,2,0,53,0,0
73440,-100,4,1,1,55,0,0
73604,-100,4,2,0,55,0,0
74751,-100,4,1,1,55,0,0
74833,-100,4,2,0,55,0,0
75079,-100,4,1,1,55,0,0
75161,-100,4,2,0,55,0,0
75325,-100,4,1,0,55,0,0
75407,-100,4,1,1,55,0,0
81636,-100,4,2,0,55,0,0
82620,-100,4,1,1,60,0,1
82675,-100,4,2,2,60,0,1
90489,-133.333333333333,4,2,2,65,0,1
91308,-133.333333333333,4,2,1,60,0,1
91636,-133.333333333333,4,2,1,60,0,1
91882,-133.333333333333,4,2,1,5,0,1
91964,-111.111111111111,4,2,1,60,0,1
92210,-133.333333333333,4,2,1,5,0,1
92292,-100,4,2,1,60,0,1
93440,-100,4,2,2,60,0,1
98358,-100,4,2,3,55,0,1
103604,-100,4,2,2,60,0,1
104095,-100,4,2,2,56,0,1
104259,-100,4,2,2,52,0,1
104423,-100,4,2,0,54,0,1
104915,-200,4,1,1,60,0,0
107538,-200,4,2,1,60,0,0
109751,-200,4,1,1,60,0,0
110161,-200,4,2,1,60,0,0
110243,-100,4,1,1,60,0,0
110817,-100,4,2,1,60,0,0
110899,-100,4,1,1,60,0,0
111472,-100,4,2,1,60,0,0
111554,-100,4,1,1,60,0,0
112128,-100,4,2,1,60,0,0
112210,-100,4,1,1,60,0,0
112784,-100,4,2,1,60,0,0
114751,-200,4,2,1,60,0,0
115407,-200,4,2,2,20,0,0

[Colours]
Combo1 : 95,231,122
Combo2 : 214,70,225
Combo3 : 80,216,226
Combo4 : 255,190,125

[HitObjects]
160,20,161,1,0,0:0:0:0:
304,128,489,1,0,0:0:0:0:
208,160,653,1,0,0:0:0:0:
212,172,735,1,0,0:0:0:0:
216,184,817,1,0,0:0:0:0:
283,227,981,1,0,0:0:0:0:
304,128,1145,1,0,0:0:0:0:
208,160,1309,5,4,0:0:0:0:
52,116,1636,2,0,L|40:192,1,67.5000025749208,8|0,0:0|0:0,0:0:0:0:
64,312,1964,1,0,0:0:0:0:
128,352,2128,1,8,0:0:0:0:
252,312,2292,1,8,0:0:0:0:
188,272,2456,1,0,0:0:0:0:
188,272,2538,1,0,0:0:0:0:
188,272,2620,5,0,0:0:0:0:
323,198,2948,1,8,0:0:0:0:
320,352,3276,1,0,0:0:0:0:
338,347,3358,1,0,0:0:0:0:
357,342,3440,1,0,0:0:0:0:
374,347,3522,1,0,0:0:0:0:
391,356,3604,1,8,0:0:0:0:
408,364,3686,1,0,0:0:0:0:
427,358,3768,1,0,0:0:0:0:
445,353,3849,1,0,0:0:0:0:
464,361,3931,6,0,B|488:315|488:315|472:262,1,101.250003862381
480,248,4259,1,0,0:0:0:0:
480,248,4423,1,0,0:0:0:0:
416,192,4587,2,0,L|404:108,1,67.5000025749208
480,80,4915,2,0,L|489:146,1,67.5000025749208,8|0,0:0|0:0,0:0:0:0:
416,192,5243,5,4,0:0:0:0:
352,92,5489,1,4,0:0:0:0:
264,172,5735,1,4,0:0:0:0:
188,148,5899,2,0,L|196:248,1,101.250003862381,4|0,0:0|0:0,0:0:0:0:
184,264,6227,1,8,0:0:0:0:
167,263,6308,1,0,0:0:0:0:
150,262,6390,1,0,0:0:0:0:
133,261,6472,1,0,0:0:0:0:
116,260,6554,5,4,0:0:0:0:
0,232,6718,1,0,0:0:0:0:
52,172,6882,1,8,0:0:0:0:
64,320,7046,1,0,0:0:0:0:
208,312,7210,1,0,0:0:0:0:
156,372,7374,1,8,0:0:0:0:
348,340,7702,5,0,0:0:0:0:
360,328,7784,1,0,0:0:0:0:
372,316,7866,1,0,0:0:0:0:
488,288,8030,2,0,P|496:324|484:356,1,67.5000025749208,0|8,0:0|0:0,0:0:0:0:
388,232,8358,2,0,L|380:152,1,67.5000025749208,0|0,0:0|0:0,0:0:0:0:
500,88,8686,1,8,0:0:0:0:
281,45,9013,5,0,0:0:0:0:
294,67,9094,1,0,0:0:0:0:
296,91,9177,1,0,0:0:0:0:
290,113,9259,1,0,0:0:0:0:
275,129,9341,1,0,0:0:0:0:
254,138,9423,1,0,0:0:0:0:
213,134,9505,5,0,0:0:0:0:
209,118,9587,1,0,0:0:0:0:
204,101,9669,1,0,0:0:0:0:
200,85,9750,1,0,0:0:0:0:
152,87,9833,5,0,0:0:0:0:
146,109,9915,1,0,0:0:0:0:
131,125,9997,1,0,0:0:0:0:
110,134,10079,1,0,0:0:0:0:
63,139,10161,5,0,0:0:0:0:
59,123,10243,1,0,0:0:0:0:
54,106,10325,1,0,0:0:0:0:
50,90,10406,1,0,0:0:0:0:
45,73,10489,5,4,0:0:0:0:
118,252,10735,1,4,0:0:0:0:
302,188,10981,1,0,0:0:0:0:
299,204,11062,1,0,0:0:0:0:
297,221,11144,1,4,0:0:0:0:
484,356,11472,5,0,0:0:0:0:
484,339,11554,1,0,0:0:0:0:
485,322,11636,1,0,0:0:0:0:
486,305,11718,1,0,0:0:0:0:
487,288,11800,5,6,0:0:0:0:
492,204,11964,1,0,2:0:0:0:
492,204,12128,1,2,2:0:0:0:
399,81,12292,5,2,0:0:0:0:
416,164,12456,1,0,2:0:0:0:
416,164,12620,1,2,2:0:0:0:
360,228,12784,5,0,0:0:0:0:
284,264,12948,1,2,2:0:0:0:
204,248,13112,1,2,1:0:0:0:
140,328,13358,1,2,0:0:0:0:
52,276,13604,1,2,0:0:0:0:
52,276,13768,5,0,2:0:0:0:
140,328,13931,1,0,0:0:0:0:
204,248,14095,1,2,0:0:0:0:
116,196,14259,1,2,0:0:0:0:
140,328,14423,5,2,0:0:0:0:
148,244,14587,1,0,0:0:0:0:
148,244,14751,1,2,2:0:0:0:
56,136,14915,5,2,0:0:0:0:
64,220,15079,1,0,2:0:0:0:
64,220,15243,1,2,2:0:0:0:
216,196,15407,5,2,2:0:0:0:
224,112,15571,1,2,0:0:0:0:
224,112,15735,5,4,0:0:0:0:
336,36,15899,1,4,0:0:0:0:
468,60,16063,1,4,0:0:0:0:
480,80,16390,6,0,L|400:80,1,67.5000025749208
396,72,16636,1,0,0:0:0:0:
380,136,16718,2,0,L|300:136,1,67.5000025749208,2|2,0:0|0:0,0:0:0:0:
256,192,17046,5,6,0:0:0:0:
272,272,17210,1,0,2:0:0:0:
288,352,17374,1,2,2:0:0:0:
151,327,17538,5,2,1:0:0:0:
165,255,17702,1,0,2:0:0:0:
180,184,17866,1,2,2:0:0:0:
108,152,18030,5,0,0:0:0:0:
71,205,18194,1,2,2:0:0:0:
35,259,18358,1,2,1:0:0:0:
151,327,18604,1,2,0:0:0:0:
288,352,18849,1,2,0:0:0:0:
272,272,19013,5,0,2:0:0:0:
256,192,19177,1,0,0:0:0:0:
256,192,19341,1,2,0:0:0:0:
256,192,19505,1,2,0:0:0:0:
328,104,19669,6,0,P|344:136|340:176,1,67.5000025749208,2|0,0:0|2:0,0:0:0:0:
343,167,19997,1,2,2:0:0:0:
168,280,20161,6,0,L|176:208,1,67.5000025749208,2|0,0:0|2:0,0:0:0:0:
175,212,20489,1,2,2:0:0:0:
368,364,20653,6,0,P|338:380|305:374,1,67.5000025749208,2|2,2:0|0:0,0:0:0:0:
228,344,20981,1,4,0:0:0:0:
80,292,21145,2,0,L|72:252,1,33.7500012874604,0|4,2:2|0:0,0:0:0:0:
0,216,21390,2,0,L|7:173,1,33.7500012874604,0|4,2:2|0:0,0:0:0:0:
19,98,21636,5,0,2:0:0:0:
35,95,21718,1,0,0:0:0:0:
52,93,21800,1,0,2:0:0:0:
69,90,21882,1,0,0:0:0:0:
96,109,21964,1,0,0:0:0:0:
113,107,22046,1,0,0:0:0:0:
130,105,22128,1,0,0:0:0:0:
146,102,22210,1,0,0:0:0:0:
170,124,22292,6,0,B|220:110|239:67|225:16,1,135.000005149842,6|8,0:0|0:0,0:0:0:0:
374,57,22784,1,0,0:0:0:0:
427,128,22948,1,0,0:0:0:0:
392,205,23112,1,2,2:0:0:0:
438,144,23276,1,0,0:0:0:0:
403,221,23440,1,2,2:0:0:0:
455,306,23604,6,0,L|322:324,1,135.000005149842,0|8,0:0|0:0,0:0:0:0:
279,203,24095,1,0,0:0:0:0:
222,265,24259,1,0,0:0:0:0:
216,280,24341,1,0,0:0:0:0:
211,296,24423,1,2,2:0:0:0:
145,130,24587,1,0,0:0:0:0:
154,214,24751,1,2,2:0:0:0:
100,280,24915,6,0,P|42:319|-17:303,1,135.000005149842,0|8,0:0|0:0,0:0:0:0:
21,171,25407,1,0,0:0:0:0:
61,113,25899,1,8,0:0:0:0:
128,133,26227,6,0,L|204:117,1,67.5000025749208,4|0,2:0|0:0,0:0:0:0:
262,162,26554,1,4,2:0:0:0:
321,15,26718,2,0,L|394:32,1,67.5000025749208,4|0,2:0|0:0,0:0:0:0:
432,99,27046,1,4,2:0:0:0:
508,76,27210,1,0,0:0:0:0:
512,92,27292,1,0,0:0:0:0:
512,108,27374,1,0,0:0:0:0:
510,126,27456,1,0,0:0:0:0:
502,141,27538,6,0,P|449:175|376:155,1,135.000005149842,6|8,0:0|0:0,0:0:0:0:
209,97,28030,1,0,0:0:0:0:
172,179,28194,1,0,0:0:0:0:
34,114,28358,1,2,2:0:0:0:
84,183,28522,1,0,0:0:0:0:
155,27,28686,1,2,2:0:0:0:
70,35,28849,6,0,L|93:72,1,33.7500012874604,8|0,0:0|0:0,0:0:0:0:
209,97,29013,2,0,L|165:101,1,33.7500012874604
84,183,29177,2,0,L|105:145,1,33.7500012874604,8|0,0:0|0:0,0:0:0:0:
155,27,29341,6,0,L|135:68,1,33.7500012874604
171,179,29505,2,0,L|146:143,1,33.7500012874604,8|0,0:0|0:0,0:0:0:0:
34,113,29669,2,0,L|82:110,1,33.7500012874604,8|0,0:0|0:0,0:0:0:0:
209,97,29833,5,8,0:0:0:0:
356,180,29997,1,8,0:0:0:0:
433,111,30161,1,8,0:0:0:0:
502,158,30407,1,2,0:0:0:0:
509,76,30653,1,8,0:0:0:0:
466,262,30817,1,0,0:0:0:0:
449,259,30899,1,0,0:0:0:0:
432,257,30981,1,0,0:0:0:0:
417,256,31063,1,0,0:0:0:0:
422,272,31145,1,0,0:0:0:0:
426,288,31227,1,0,0:0:0:0:
431,304,31308,1,0,0:0:0:0:
436,320,31390,1,0,0:0:0:0:
441,336,31472,5,2,0:0:0:0:
348,327,31718,1,8,0:0:0:0:
254,317,31964,1,2,0:0:0:0:
143,375,32128,1,0,0:0:0:0:
139,355,32210,1,0,0:0:0:0:
140,334,32292,1,0,0:0:0:0:
148,315,32374,1,0,0:0:0:0:
159,297,32456,1,0,0:0:0:0:
171,280,32538,1,0,0:0:0:0:
181,261,32620,1,0,0:0:0:0:
185,240,32702,1,0,0:0:0:0:
184,219,32784,5,6,0:0:0:0:
82,246,33030,1,12,0:0:0:0:
0,179,33276,1,10,0:0:0:0:
23,91,33440,1,0,0:0:0:0:
43,75,33522,1,0,0:0:0:0:
67,67,33604,1,0,0:0:0:0:
92,66,33686,1,0,0:0:0:0:
142,118,33768,1,0,0:0:0:0:
121,133,33849,1,0,0:0:0:0:
98,142,33931,1,0,0:0:0:0:
73,143,34013,1,0,0:0:0:0:
23,91,34095,5,6,0:0:0:0:
227,58,34341,1,0,0:0:0:0:
116,230,34587,1,12,0:0:0:0:
320,197,34833,1,0,0:0:0:0:
489,91,35079,5,10,0:0:0:0:
401,84,35243,1,0,0:0:0:0:
399,103,35325,1,0,0:0:0:0:
402,121,35407,1,0,0:0:0:0:
409,137,35489,1,0,0:0:0:0:
419,153,35571,1,0,0:0:0:0:
433,166,35653,1,0,0:0:0:0:
450,174,35735,1,0,0:0:0:0:
467,182,35817,1,0,0:0:0:0:
482,186,35899,5,0,0:0:0:0:
483,205,35981,1,0,0:0:0:0:
484,224,36063,1,0,0:0:0:0:
484,242,36145,1,0,0:0:0:0:
462,263,36227,1,0,0:0:0:0:
449,273,36308,1,0,0:0:0:0:
463,282,36390,1,0,0:0:0:0:
449,291,36472,1,0,0:0:0:0:
463,300,36554,1,0,0:0:0:0:
450,310,36636,1,0,0:0:0:0:
464,318,36718,5,6,1:0:0:0:
395,371,37046,1,0,2:0:0:0:
315,331,37374,1,0,2:0:0:0:
243,380,37702,1,0,2:0:0:0:
139,299,38030,5,6,0:0:0:0:
115,300,38112,1,0,0:0:0:0:
91,295,38194,1,0,0:0:0:0:
69,284,38276,1,0,0:0:0:0:
50,267,38358,1,10,0:0:0:0:
37,246,38440,1,0,0:0:0:0:
30,222,38522,1,0,0:0:0:0:
29,197,38604,1,0,0:0:0:0:
33,172,38686,5,2,0:0:0:0:
43,149,38768,1,0,0:0:0:0:
59,130,38849,1,0,0:0:0:0:
80,117,38931,1,0,0:0:0:0:
92,135,39013,1,10,0:0:0:0:
107,155,39095,1,0,0:0:0:0:
126,171,39177,1,0,0:0:0:0:
149,181,39259,1,0,0:0:0:0:
173,186,39341,5,2,0:0:0:0:
175,210,39423,1,0,0:0:0:0:
181,234,39505,1,0,0:0:0:0:
196,254,39587,1,0,0:0:0:0:
217,266,39669,1,10,0:0:0:0:
241,274,39751,1,0,0:0:0:0:
265,282,39833,1,0,0:0:0:0:
288,292,39915,1,0,0:0:0:0:
307,308,39997,5,2,0:0:0:0:
319,329,40079,1,0,0:0:0:0:
330,348,40161,1,0,0:0:0:0:
355,349,40243,1,2,0:0:0:0:
380,346,40325,1,10,0:0:0:0:
404,341,40407,1,0,0:0:0:0:
427,331,40489,1,2,0:0:0:0:
447,316,40571,1,0,0:0:0:0:
463,298,40653,5,2,0:0:0:0:
475,276,40735,1,0,0:0:0:0:
483,252,40817,1,0,0:0:0:0:
485,227,40899,1,0,0:0:0:0:
481,202,40981,1,10,0:0:0:0:
454,70,41145,1,0,0:0:0:0:
452,94,41227,1,2,0:0:0:0:
439,116,41308,1,0,0:0:0:0:
418,131,41390,1,0,0:0:0:0:
394,135,41472,1,2,0:0:0:0:
303,193,41636,1,8,0:0:0:0:
286,174,41718,1,0,0:0:0:0:
276,151,41800,1,0,0:0:0:0:
274,126,41882,1,0,0:0:0:0:
281,102,41964,5,2,0:0:0:0:
263,104,42046,1,0,0:0:0:0:
244,105,42128,1,0,0:0:0:0:
225,107,42210,1,0,0:0:0:0:
207,108,42292,1,10,0:0:0:0:
188,110,42374,1,0,0:0:0:0:
169,112,42456,1,0,0:0:0:0:
151,113,42538,1,2,0:0:0:0:
132,115,42620,5,2,0:0:0:0:
147,150,42702,1,0,0:0:0:0:
179,172,42784,1,2,0:0:0:0:
218,173,42866,1,0,0:0:0:0:
251,153,42948,1,10,0:0:0:0:
268,118,43030,1,0,0:0:0:0:
262,79,43112,1,2,0:0:0:0:
237,50,43194,1,0,0:0:0:0:
201,39,43276,5,2,0:0:0:0:
179,44,43358,1,0,0:0:0:0:
157,45,43440,1,0,0:0:0:0:
135,42,43522,1,0,0:0:0:0:
115,34,43604,1,10,0:0:0:0:
97,22,43686,1,0,0:0:0:0:
80,8,43768,1,0,0:0:0:0:
59,15,43849,1,0,0:0:0:0:
41,24,43931,5,2,0:0:0:0:
36,45,44013,1,0,0:0:0:0:
36,67,44095,1,0,0:0:0:0:
44,88,44177,1,0,0:0:0:0:
57,105,44259,1,10,0:0:0:0:
73,121,44341,1,0,0:0:0:0:
87,137,44423,1,0,0:0:0:0:
97,157,44505,1,0,0:0:0:0:
128,160,44587,5,2,0:0:0:0:
138,180,44669,1,0,0:0:0:0:
152,196,44751,1,0,0:0:0:0:
168,212,44833,1,0,0:0:0:0:
181,229,44915,1,10,0:0:0:0:
189,250,44997,1,0,0:0:0:0:
189,272,45079,1,0,0:0:0:0:
184,293,45161,1,0,0:0:0:0:
166,302,45243,5,2,0:0:0:0:
145,309,45325,1,0,0:0:0:0:
128,295,45407,1,0,0:0:0:0:
110,283,45489,1,2,0:0:0:0:
90,275,45571,1,8,0:0:0:0:
68,272,45653,1,0,0:0:0:0:
46,273,45735,1,2,0:0:0:0:
24,278,45817,1,0,0:0:0:0:
4,255,45899,5,4,0:0:0:0:
66,358,46227,1,6,0:0:0:0:
152,133,46390,1,6,0:0:0:0:
221,207,46718,2,0,B|253:234|253:234|315:225,1,101.250003862381,0|0,0:0|0:0,0:0:0:0:
340,207,47046,6,0,B|368:185|377:154|360:117,1,101.250003862381,4|0,2:0|0:0,0:0:0:0:
239,11,47374,2,0,P|201:58|210:122,1,121.499996292114,4|0,2:0|0:0,0:0:0:0:
316,237,47702,6,0,L|413:219,1,90,4|0,0:0|0:0,0:0:0:0:
436,236,47948,1,0,2:0:0:0:
440,257,48030,1,0,0:0:0:0:
438,279,48112,1,0,0:0:0:0:
434,302,48194,1,0,0:0:0:0:
423,321,48276,1,0,0:0:0:0:
410,340,48358,1,0,0:0:0:0:
393,353,48440,1,0,0:0:0:0:
367,336,48522,5,6,0:0:0:0:
344,336,48604,1,0,0:0:0:0:
322,330,48686,1,0,0:0:0:0:
303,315,48768,1,0,0:0:0:0:
291,296,48849,1,10,0:0:0:0:
271,286,48931,1,0,0:0:0:0:
253,271,49013,1,0,0:0:0:0:
244,250,49095,1,0,0:0:0:0:
238,230,49177,5,2,0:0:0:0:
215,229,49259,1,0,0:0:0:0:
192,228,49341,1,0,0:0:0:0:
168,227,49423,1,0,0:0:0:0:
145,226,49505,1,10,0:0:0:0:
122,225,49587,1,0,0:0:0:0:
99,224,49669,1,0,0:0:0:0:
76,223,49751,1,0,0:0:0:0:
53,221,49833,5,2,0:0:0:0:
48,199,49915,1,0,0:0:0:0:
47,176,49997,1,0,0:0:0:0:
49,153,50079,1,0,0:0:0:0:
56,131,50161,1,10,0:0:0:0:
68,111,50243,1,0,0:0:0:0:
84,95,50325,1,0,0:0:0:0:
102,81,50407,1,0,0:0:0:0:
114,61,50489,5,2,0:0:0:0:
130,44,50571,1,0,0:0:0:0:
149,32,50653,1,0,0:0:0:0:
171,25,50735,1,2,0:0:0:0:
194,24,50817,1,10,0:0:0:0:
216,30,50899,1,0,0:0:0:0:
236,41,50981,1,2,0:0:0:0:
253,58,51063,1,0,0:0:0:0:
264,78,51145,5,0,0:0:0:0:
270,100,51227,1,0,0:0:0:0:
272,123,51308,1,0,0:0:0:0:
268,146,51390,1,0,0:0:0:0:
258,168,51472,1,10,0:0:0:0:
196,232,51636,1,0,0:0:0:0:
191,253,51718,1,2,0:0:0:0:
192,276,51800,1,0,0:0:0:0:
198,297,51882,1,0,0:0:0:0:
209,317,51964,1,2,0:0:0:0:
294,363,52128,2,0,P|307:344|314:320,2,45,10|0|0,0:0|0:0|0:0,0:0:0:0:
409,208,52456,6,0,L|417:265,1,45,2|0,0:0|0:0,0:0:0:0:
471,167,52620,2,0,L|487:216,1,45,2|0,0:0|0:0,0:0:0:0:
386,103,52784,6,0,L|378:46,1,45,0|0,0:0|0:0,0:0:0:0:
324,144,52948,2,0,L|308:95,1,45,2|0,0:0|0:0,0:0:0:0:
321,238,53112,6,0,L|267:232,1,45,2|0,0:0|0:0,0:0:0:0:
207,267,53276,2,0,L|158:273,1,45,2|0,0:0|0:0,0:0:0:0:
104,306,53440,1,2,0:0:0:0:
90,288,53522,1,0,0:0:0:0:
82,267,53604,1,2,0:0:0:0:
81,244,53686,1,2,0:0:0:0:
85,222,53768,5,8,0:0:0:0:
58,133,53931,1,8,0:0:0:0:
197,150,54259,5,2,0:0:0:0:
184,57,54423,1,2,0:0:0:0:
435,349,54751,5,4,0:0:0:0:
462,260,54915,1,4,0:0:0:0:
323,277,55243,5,8,0:0:0:0:
336,184,55407,1,8,0:0:0:0:
197,150,55571,1,4,0:0:0:0:
268,39,55735,2,0,P|304:62|320:106,1,90
223,228,56063,1,4,0:0:0:0:
143,215,56227,1,0,0:0:0:0:
60,200,56390,6,0,L|68:290,1,90,0|4,0:0|0:0,0:0:0:0:
147,330,56718,2,0,L|220:278,1,90,0|4,0:0|0:0,0:0:0:0:
308,296,57046,2,0,L|351:375,1,90,0|4,0:0|0:0,0:0:0:0:
440,372,57374,2,0,L|486:294,1,90,0|8,0:0|0:0,0:0:0:0:
396,307,57702,5,0,0:0:0:0:
396,307,57866,1,0,0:0:0:0:
396,307,58030,1,0,0:0:0:0:
396,307,58194,1,0,0:0:0:0:
496,182,58358,1,0,0:0:0:0:
424,210,58522,1,0,0:0:0:0:
352,181,58686,1,0,0:0:0:0:
284,219,58849,1,0,0:0:0:0:
213,190,59013,1,2,0:0:0:0:
197,196,59095,1,0,0:0:0:0:
181,202,59177,1,0,0:0:0:0:
166,209,59259,1,2,0:0:0:0:
162,224,59341,1,0,0:0:0:0:
157,240,59423,1,0,0:0:0:0:
149,255,59505,1,2,0:0:0:0:
137,267,59587,1,0,0:0:0:0:
124,277,59669,6,0,B|63:253|45:187|83:128,1,180,2|2,0:0|0:0,0:0:0:0:
83,127,60325,5,4,0:0:0:0:
25,82,69341,6,0,L|20:134,1,45
19,148,69505,1,8,0:0:0:0:
129,125,69669,1,2,0:0:0:0:
17,166,69997,1,8,0:0:0:0:
127,143,70161,1,2,0:0:0:0:
15,185,70489,1,8,0:0:0:0:
125,162,70653,2,0,L|121:200,3,22.5
150,194,70817,6,0,L|246:180,1,90,0|0,0:0|0:0,0:0:0:0:
314,211,71145,1,8,0:0:0:0:
363,276,71308,1,2,0:0:0:0:
512,375,71636,1,2,0:0:0:0:
501,277,71800,1,8,0:0:0:0:
490,178,71964,1,2,0:0:0:0:
449,103,72128,6,0,B|419:119|419:119|356:114,1,90,0|2,0:0|0:0,0:0:0:0:
305,59,72456,1,8,0:0:0:0:
180,21,72620,2,0,B|120:24|120:24|81:75|81:75|19:78,1,180,2|2,0:0|0:0,0:0:0:0:
25,77,73112,1,8,0:0:0:0:
25,77,73276,1,0,1:0:0:0:
0,233,73440,5,2,1:0:0:0:
80,244,73604,1,2,0:0:0:0:
159,227,73768,1,8,0:0:0:0:
234,250,73931,1,2,0:0:0:0:
270,354,74095,1,0,0:0:0:0:
349,368,74259,1,2,0:0:0:0:
427,348,74423,1,8,0:0:0:0:
505,367,74587,1,0,1:0:0:0:
474,242,74751,6,0,L|468:174,1,45,2|0,0:0|0:0,0:0:0:0:
302,32,75079,2,0,L|307:82,1,45
222,184,75325,2,0,L|230:234,1,45,0|2,0:0|0:0,0:0:0:0:
137,233,75571,1,0,0:0:0:0:
50,207,75735,1,2,0:0:0:0:
45,184,75816,1,0,0:0:0:0:
43,162,75898,1,2,0:0:0:0:
42,140,75980,1,0,0:0:0:0:
42,117,76062,5,6,0:0:0:0:
104,36,76227,1,0,0:0:0:0:
104,36,76390,1,0,0:0:0:0:
104,36,76554,1,0,0:0:0:0:
104,36,76718,1,0,0:0:0:0:
104,36,76882,1,0,0:0:0:0:
173,74,77046,1,0,0:0:0:0:
244,41,77210,1,0,0:0:0:0:
390,217,77374,5,2,0:0:0:0:
458,153,77538,1,0,0:0:0:0:
458,153,77702,1,0,0:0:0:0:
458,153,77866,1,0,0:0:0:0:
458,153,78030,1,0,0:0:0:0:
458,153,78194,1,0,0:0:0:0:
507,233,78358,1,0,0:0:0:0:
390,217,78522,1,0,0:0:0:0:
335,338,78686,5,2,0:0:0:0:
316,325,78767,1,0,0:0:0:0:
300,309,78849,1,8,0:0:0:0:
288,290,78931,1,0,0:0:0:0:
280,269,79013,1,0,0:0:0:0:
278,246,79095,1,0,0:0:0:0:
280,224,79177,1,8,0:0:0:0:
286,202,79259,1,0,0:0:0:0:
294,182,79341,5,2,0:0:0:0:
271,185,79422,1,0,0:0:0:0:
249,189,79504,1,8,0:0:0:0:
227,193,79586,1,0,0:0:0:0:
205,197,79668,1,0,0:0:0:0:
183,201,79750,1,0,0:0:0:0:
161,205,79832,1,8,0:0:0:0:
138,209,79914,1,0,0:0:0:0:
116,213,79996,5,2,0:0:0:0:
62,280,80161,1,0,0:0:0:0:
217,363,80325,1,8,0:0:0:0:
204,277,80490,1,0,0:0:0:0:
121,233,80653,5,0,0:0:0:0:
76,306,80818,1,0,0:0:0:0:
274,239,80981,1,8,0:0:0:0:
272,216,81062,1,0,0:0:0:0:
270,194,81144,1,0,0:0:0:0:
269,171,81226,1,0,0:0:0:0:
267,149,81308,5,6,0:0:0:0:
337,98,81636,1,0,0:0:0:0:
414,135,81964,1,0,0:0:0:0:
408,220,82292,1,0,0:0:0:0:
186,40,82620,5,6,0:0:0:0:
193,62,82701,1,0,0:0:0:0:
192,86,82783,1,0,0:0:0:0:
180,106,82865,1,0,0:0:0:0:
164,120,82947,1,10,0:0:0:0:
142,129,83029,1,0,0:0:0:0:
120,135,83111,1,0,0:0:0:0:
98,143,83193,1,0,0:0:0:0:
78,153,83275,5,2,0:0:0:0:
59,166,83357,1,0,0:0:0:0:
43,183,83439,1,0,0:0:0:0:
32,203,83521,1,0,0:0:0:0:
25,225,83603,1,10,0:0:0:0:
23,248,83685,1,0,0:0:0:0:
25,271,83767,1,0,0:0:0:0:
31,293,83849,1,0,0:0:0:0:
40,315,83931,5,2,0:0:0:0:
61,313,84013,1,0,0:0:0:0:
84,309,84095,1,0,0:0:0:0:
106,304,84177,1,0,0:0:0:0:
125,296,84259,1,10,0:0:0:0:
135,275,84341,1,0,0:0:0:0:
150,258,84423,1,0,0:0:0:0:
169,245,84505,1,0,0:0:0:0:
191,238,84587,5,2,0:0:0:0:
214,237,84669,1,0,0:0:0:0:
236,243,84751,1,0,0:0:0:0:
256,255,84833,1,2,0:0:0:0:
273,271,84915,1,10,0:0:0:0:
284,290,84997,1,0,0:0:0:0:
289,313,85079,1,2,0:0:0:0:
293,335,85160,1,0,0:0:0:0:
297,358,85242,5,2,0:0:0:0:
318,365,85324,1,0,0:0:0:0:
341,369,85406,1,0,0:0:0:0:
364,370,85488,1,0,0:0:0:0:
387,366,85570,1,8,0:0:0:0:
511,282,85735,1,0,0:0:0:0:
490,275,85817,1,2,0:0:0:0:
467,271,85899,1,0,0:0:0:0:
444,270,85981,1,0,0:0:0:0:
421,274,86063,1,2,0:0:0:0:
363,187,86227,1,8,0:0:0:0:
456,169,86390,2,0,P|479:168|515:175,1,45
509,141,86554,5,2,0:0:0:0:
507,121,86635,1,0,0:0:0:0:
502,103,86717,1,0,0:0:0:0:
492,86,86799,1,0,0:0:0:0:
478,73,86881,1,10,0:0:0:0:
462,62,86963,1,0,0:0:0:0:
444,56,87045,1,0,0:0:0:0:
425,54,87127,1,2,0:0:0:0:
409,42,87210,5,2,0:0:0:0:
389,52,87291,1,0,0:0:0:0:
369,63,87373,1,2,0:0:0:0:
349,58,87455,1,0,0:0:0:0:
329,49,87537,1,10,0:0:0:0:
309,59,87619,1,0,0:0:0:0:
289,66,87701,1,2,0:0:0:0:
268,58,87783,1,0,0:0:0:0:
247,50,87866,5,2,0:0:0:0:
229,64,87947,1,0,0:0:0:0:
216,82,88029,1,0,0:0:0:0:
208,103,88111,1,0,0:0:0:0:
206,125,88193,1,10,0:0:0:0:
209,147,88275,1,0,0:0:0:0:
218,168,88357,1,0,0:0:0:0:
233,185,88439,1,0,0:0:0:0:
251,198,88522,6,0,L|261:252,1,45,2|0,0:0|0:0,0:0:0:0:
293,249,88686,2,0,L|302:302,1,45,0|0,0:0|0:0,0:0:0:0:
335,290,88849,2,0,L|344:343,1,45,10|0,0:0|0:0,0:0:0:0:
376,340,89013,2,0,L|385:393,1,45,0|0,0:0|0:0,0:0:0:0:
411,358,89177,5,2,0:0:0:0:
432,352,89258,1,0,0:0:0:0:
452,341,89340,1,0,0:0:0:0:
468,325,89422,1,0,0:0:0:0:
479,306,89504,1,10,0:0:0:0:
486,284,89586,1,0,0:0:0:0:
486,262,89668,1,0,0:0:0:0:
481,240,89750,1,0,0:0:0:0:
470,220,89833,6,0,L|412:226,1,45,2|0,0:0|0:0,0:0:0:0:
375,179,89997,2,0,L|317:189,1,45,0|2,0:0|0:0,0:0:0:0:
275,152,90161,2,0,L|218:167,1,45,10|0,0:0|0:0,0:0:0:0:
174,130,90325,2,0,L|118:150,1,45,2|0,0:0|0:0,0:0:0:0:
70,131,90489,5,4,0:0:0:0:
17,345,90817,1,4,0:0:0:0:
158,332,90981,1,4,0:0:0:0:
70,131,91308,1,0,0:0:0:0:
297,33,91636,2,0,L|296:141,1,101.250003862381,4|0,0:0|0:0,0:0:0:0:
256,208,91964,6,0,P|312:225|376:192,1,121.499996292114,4|0,0:0|0:0,0:0:0:0:
425,323,92292,2,0,L|327:316,1,90,4|0,0:0|0:0,0:0:0:0:
247,379,92620,1,0,0:0:0:0:
226,369,92701,1,0,0:0:0:0:
206,359,92783,1,0,0:0:0:0:
184,363,92865,1,0,0:0:0:0:
162,367,92947,1,0,0:0:0:0:
76,340,93112,1,0,0:0:0:0:
25,265,93276,2,0,L|30:215,1,45
49,197,93440,5,10,0:0:0:0:
64,178,93521,1,0,0:0:0:0:
84,165,93603,1,0,0:0:0:0:
107,158,93685,1,0,0:0:0:0:
131,157,93767,1,2,0:0:0:0:
154,163,93849,1,0,0:0:0:0:
175,174,93931,1,0,0:0:0:0:
195,189,94013,1,0,0:0:0:0:
213,204,94095,5,10,0:0:0:0:
232,219,94177,1,0,0:0:0:0:
253,229,94259,1,0,0:0:0:0:
277,235,94341,1,0,0:0:0:0:
301,235,94423,1,2,0:0:0:0:
324,229,94505,1,0,0:0:0:0:
343,216,94587,1,0,0:0:0:0:
357,196,94669,1,0,0:0:0:0:
364,170,94751,6,0,L|349:118,3,45,10|0|0|0,0:0|0:0|0:0|0:0,0:0:0:0:
375,94,95079,1,2,0:0:0:0:
395,85,95160,1,0,0:0:0:0:
417,81,95242,1,0,0:0:0:0:
440,82,95324,1,2,0:0:0:0:
472,105,95407,6,0,L|493:48,3,45,10|0|2|0,0:0|0:0|0:0|0:0,0:0:0:0:
497,130,95735,1,2,0:0:0:0:
499,152,95816,1,0,0:0:0:0:
502,174,95898,1,0,0:0:0:0:
504,197,95980,1,0,0:0:0:0:
507,219,96062,1,10,0:0:0:0:
435,298,96227,1,0,0:0:0:0:
417,283,96308,1,2,0:0:0:0:
400,268,96390,1,0,0:0:0:0:
381,279,96472,1,0,0:0:0:0:
362,290,96554,1,2,0:0:0:0:
283,339,96718,1,10,0:0:0:0:
207,283,96882,2,0,L|202:238,1,45,0|2,0:0|0:0,0:0:0:0:
214,214,97046,5,2,0:0:0:0:
197,215,97127,1,0,0:0:0:0:
180,217,97209,1,0,0:0:0:0:
163,218,97291,1,0,0:0:0:0:
146,220,97373,1,10,0:0:0:0:
129,221,97455,1,0,0:0:0:0:
113,223,97537,1,0,0:0:0:0:
96,224,97619,1,10,0:0:0:0:
79,226,97702,5,2,0:0:0:0:
94,262,97783,1,0,0:0:0:0:
126,284,97865,1,10,0:0:0:0:
165,284,97947,1,0,0:0:0:0:
198,264,98029,1,10,0:0:0:0:
214,229,98111,1,0,0:0:0:0:
208,190,98193,1,2,0:0:0:0:
182,161,98275,1,0,0:0:0:0:
145,151,98357,5,8,0:0:0:0:
64,132,98522,1,8,0:0:0:0:
322,91,98849,1,2,0:0:0:0:
414,60,99013,1,2,0:0:0:0:
366,232,99341,5,2,0:0:0:0:
448,252,99506,1,2,0:0:0:0:
190,293,99833,1,8,0:0:0:0:
98,324,99997,1,8,0:0:0:0:
195,232,100161,1,4,0:0:0:0:
266,343,100325,2,0,P|302:320|318:276,1,90
221,154,100653,1,10,0:0:0:0:
141,167,100817,1,0,0:0:0:0:
58,182,100981,6,0,L|66:92,1,90,0|4,0:0|0:0,0:0:0:0:
145,52,101308,2,0,L|218:104,1,90,0|4,0:0|0:0,0:0:0:0:
306,86,101636,2,0,L|349:7,1,90,0|4,0:0|0:0,0:0:0:0:
438,10,101964,2,0,L|484:88,1,90,0|8,0:0|0:0,0:0:0:0:
394,75,102292,5,0,0:0:0:0:
391,155,102456,1,0,0:0:0:0:
422,229,102620,1,0,0:0:0:0:
490,272,102784,1,0,0:0:0:0:
293,384,102948,1,0,0:0:0:0:
283,303,103112,1,0,0:0:0:0:
275,222,103276,1,0,0:0:0:0:
266,141,103439,1,0,0:0:0:0:
144,170,103603,5,2,0:0:0:0:
144,170,103849,1,2,0:0:0:0:
144,170,104095,1,2,0:0:0:0:
129,250,104259,1,2,0:0:0:0:
8,330,104587,2,0,L|0:284,3,45,2|2|2|2,0:0|0:0|0:0|0:0,0:0:0:0:
39,352,104915,6,0,P|85:370|126:358,1,90,4|8,0:0|0:0,0:0:0:0:
185,335,105407,1,0,0:0:0:0:
185,335,105489,1,0,0:0:0:0:
185,335,105571,1,0,0:0:0:0:
269,379,105817,1,0,0:0:0:0:
322,336,105981,2,0,L|318:306,1,22.5
370,267,106227,5,0,0:0:0:0:
370,267,106308,1,0,0:0:0:0:
370,267,106390,1,0,0:0:0:0:
481,237,106554,1,8,0:0:0:0:
399,155,106718,1,0,0:0:0:0:
351,201,107046,5,0,0:0:0:0:
463,171,107210,1,8,0:0:0:0:
432,283,107374,1,0,0:0:0:0:
432,283,107456,1,0,0:0:0:0:
432,283,107538,5,4,0:0:0:0:
399,155,107784,1,4,0:0:0:0:
333,177,107948,2,0,L|294:180,1,22.5,0|4,0:0|0:0,0:0:0:0:
260,130,108194,2,0,L|178:111,2,67.5,4|4|4,0:0|0:0|0:0,0:0:0:0:
299,67,108849,5,4,0:0:0:0:
116,48,109095,1,4,0:0:0:0:
182,217,109341,1,4,0:0:0:0:
129,285,109505,2,0,L|37:281,1,90,4|0,0:0|0:0,0:0:0:0:
29,262,109915,1,0,0:0:0:0:
24,240,109996,1,0,0:0:0:0:
26,217,110078,1,0,0:0:0:0:
35,197,110160,5,0,0:0:0:0:
129,285,110325,1,0,0:0:0:0:
129,285,110489,1,0,0:0:0:0:
129,285,110653,1,0,0:0:0:0:
182,217,110817,5,4,0:0:0:0:
273,135,110981,1,0,0:0:0:0:
273,135,111145,1,0,0:0:0:0:
273,135,111308,1,0,0:0:0:0:
335,185,111472,5,4,0:0:0:0:
406,261,111636,1,0,0:0:0:0:
406,261,111800,1,0,0:0:0:0:
406,261,111964,1,0,0:0:0:0:
475,211,112128,5,4,0:0:0:0:
500,93,112292,1,0,0:0:0:0:
500,93,112456,1,0,0:0:0:0:
500,93,112620,1,0,0:0:0:0:
447,37,112784,5,4,0:0:0:0:
425,42,112865,1,0,0:0:0:0:
403,48,112947,1,0,0:0:0:0:
381,54,113029,1,0,0:0:0:0:
359,59,113111,1,4,0:0:0:0:
356,82,113194,1,0,0:0:0:0:
352,104,113276,1,0,0:0:0:0:
257,124,113440,5,4,0:0:0:0:
258,146,113521,1,0,0:0:0:0:
260,168,113603,1,0,0:0:0:0:
262,191,113685,1,0,0:0:0:0:
264,213,113767,1,4,0:0:0:0:
266,236,113849,1,0,0:0:0:0:
268,258,113931,1,0,0:0:0:0:
335,319,114095,6,0,P|300:345|248:341,1,90,4|0,0:0|0:0,0:0:0:0:
177,384,114341,2,0,L|180:290,1,90,4|0,0:0|0:0,0:0:0:0:
148,239,114587,1,0,0:0:0:0:
21,137,114751,6,0,B|23:175|23:175|42:189|42:189|25:213|25:213|47:236|47:236|26:250|26:250|28:284,1,180,4|0,0:0|0:0,0:0:0:0:
