osu file format v5

[General]
AudioFilename: taboo tears you up.mp3
AudioLeadIn: 0
PreviewTime: 38367
Countdown: 0
SampleSet: Normal
StackLeniency: 0.2
Mode: 0
LetterboxInBreaks: 1
EditorBookmarks: 5367,16033,26700,38700,49367,60033,70700,81367,94700,105367,116033,126700,137367
EditorDistanceSpacing: 0.600000023841858

[Metadata]
Title:taboo tears you up
Artist:REDALiCE
Creator:DJPop
Version:Normal
Source:Touhou Suisui Suusuu
Tags:taboo tears you up redalice iosys touhou suisui suusuu

[Difficulty]
HPDrainRate:4
CircleSize:4
OverallDifficulty:4
SliderMultiplier:1.3
SliderTickRate:1

[Events]
//Background and Video events
0,0,"taboo tears you up.png"
1,-510,"taboo tears you up.avi"
//Break Periods
2,16233,25617
//Storyboard Layer 0 (Background)
//Storyboard Layer 1 (Failing)
//Storyboard Layer 2 (Passing)
//Storyboard Layer 3 (Foreground)
//Storyboard Sound Samples
//Background Colour Transformations
3,100,200,30,60

[TimingPoints]
34,333.333333333333,4,1,0,80,1,0
26367,-100,4,1,0,60,0,0
31700,-100,4,1,0,80,0,0
37367,-100,4,1,0,80,0,1
60033,-100,4,1,0,80,0,0
92033,-100,4,1,0,80,0,1
94032,-100,4,1,0,80,0,0
94033,-100,4,1,0,80,0,1
116033,-100,4,1,0,80,0,0
135950,-100,4,1,0,60,0,0

[Colours]
Combo1 : 135,20,240
Combo2 : 235,245,20
Combo3 : 245,95,25
Combo4 : 110,245,20
Combo5 : 25,200,250

[HitObjects]
32,32,5367,5,4
96,64,5700,1,0
160,96,6033,1,0
224,128,6367,1,0
288,160,6700,5,0
352,192,7033,1,0
416,224,7367,1,2
416,224,7533,1,2
416,224,7700,1,2
480,256,8033,5,0
416,288,8367,1,0
352,320,8700,1,0
288,352,9033,1,0
224,320,9367,5,0
160,288,9700,1,0
160,288,9867,1,2
160,288,10033,1,2
160,288,10200,1,2
32,224,10700,5,0
64,160,11033,1,0
96,96,11367,1,0
128,32,11700,1,0
160,96,12033,5,0
192,160,12367,1,0
224,224,12700,1,2
224,224,12867,1,2
224,224,13033,1,2
256,288,13367,5,0
288,352,13700,1,0
320,288,14033,1,0
352,224,14367,1,0
384,160,14700,5,4
320,128,15033,2,2,B|320:96|320:64|320:32|256:-4|192:32|192:64|192:96|192:128,1,260
256,160,16033,1,4
480,32,26700,5,0
448,96,27033,1,0
416,160,27367,1,0
384,224,27700,1,0
352,288,28033,5,0
320,352,28367,1,0
288,288,28700,1,0
288,288,28867,1,0
224,160,29367,5,0
192,96,29700,1,0
160,32,30033,1,0
128,96,30367,1,0
96,160,30700,5,0
64,224,31033,1,0
64,224,31200,1,0
64,224,31367,1,0
128,352,32033,5,0
160,288,32367,1,0
192,224,32700,1,0
224,160,33033,1,0
256,96,33367,5,0
288,32,33700,1,0
320,96,34033,1,0
320,96,34200,1,0
384,224,34700,5,0
352,288,35033,1,0
320,352,35367,1,0
288,288,35700,1,0
256,224,36033,1,0
256,192,36367,12,4,37367
32,352,38700,5,4
96,320,39033,1,8
160,288,39367,1,0
224,256,39700,1,8
288,224,40033,5,0
352,192,40367,1,8
416,160,40700,1,0
416,160,40867,1,0
416,160,41033,1,8
480,128,41367,5,0
416,96,41700,1,8
352,64,42033,1,0
288,32,42367,1,8
224,64,42700,5,0
224,64,42867,1,0
224,64,43033,1,8
224,64,43200,1,0
224,64,43367,1,0
160,96,43700,1,8
96,128,44033,5,0
32,160,44367,1,8
96,192,44700,1,0
160,224,45033,1,8
224,256,45367,5,0
288,288,45700,1,8
352,320,46033,1,0
352,320,46200,1,0
352,320,46367,1,8
416,352,46700,5,0
480,320,47033,1,8
448,256,47367,1,0
416,192,47700,1,8
384,128,48033,5,0
384,128,48200,1,0
384,128,48367,1,8
384,128,48533,1,0
384,128,48700,1,0
352,64,49033,1,12
288,32,49367,5,4
256,96,49700,1,8
224,160,50033,1,0
192,224,50367,1,8
160,288,50700,5,0
128,352,51033,1,8
96,288,51367,1,0
96,288,51533,1,0
96,288,51700,1,8
64,224,52033,5,0
32,160,52367,1,8
64,96,52700,1,0
96,32,53033,1,8
128,96,53367,5,0
128,96,53533,1,0
128,96,53700,1,8
128,96,53867,1,0
128,96,54033,1,0
160,160,54367,1,8
192,224,54700,5,0
224,288,55033,1,8
256,352,55367,1,0
288,288,55700,1,8
320,224,56033,5,0
352,160,56367,1,8
384,96,56700,1,0
384,96,56867,1,0
384,96,57033,1,8
416,32,57367,5,0
448,96,57700,1,8
480,160,58033,1,0
448,224,58367,1,8
416,288,58700,6,0,B|384:224|352:192|256:181|160:192|128:224|96:288,1,390,4|0
64,224,60033,5,4
32,160,60367,1,0
64,96,60700,1,0
96,32,61033,1,0
160,64,61367,5,0
224,96,61700,1,0
288,128,62033,1,2
288,128,62200,1,2
288,128,62367,1,2
352,160,62700,5,0
416,192,63033,1,0
480,224,63367,1,0
448,288,63700,1,0
416,352,64033,5,0
352,320,64367,1,0
352,320,64533,1,2
352,320,64700,1,2
352,320,64867,1,2
352,320,65033,1,0
288,288,65367,5,0
224,256,65700,1,0
160,224,66033,1,0
96,192,66367,1,0
32,160,66700,5,0
64,96,67033,1,0
96,32,67367,1,2
96,32,67533,1,2
96,32,67700,1,2
160,64,68033,5,0
224,96,68367,1,0
288,128,68700,1,0
352,160,69033,1,0
416,192,69367,6,0,B|480:208|504:256|480:304|416:320,1,195,4|0
384,320,70033,2,0,B|256:288,1,130,0|2
224,352,70700,5,4
192,320,70950,1,0
160,288,71200,1,0
32,224,71700,1,2
64,160,72033,5,0
96,128,72283,1,0
128,96,72533,1,0
256,32,73033,1,2
320,64,73367,5,0
352,96,73617,1,0
384,128,73867,1,0
448,256,74367,1,2
384,288,74700,5,0
352,320,74950,1,0
320,352,75200,1,0
192,288,75700,1,2
160,352,76033,5,0
128,320,76283,1,0
96,288,76533,1,0
32,160,77033,1,2
64,96,77367,5,0
96,128,77617,1,0
128,160,77867,1,0
192,32,78367,1,2
256,64,78700,5,0
224,96,78950,1,0
192,128,79200,1,0
320,192,79700,1,2
352,256,80033,5,0
384,224,80283,1,0
416,192,80533,1,0
288,128,81033,1,2
256,192,81367,5,12
256,192,82700,5,8
256,192,84033,5,8
256,192,85367,5,8
256,192,86700,5,8
256,192,87367,1,8
256,192,88033,5,8
256,192,88700,1,8
256,192,89367,5,12
256,192,89700,1,8
256,192,90033,1,12
256,192,90367,1,8
256,192,90700,5,12
256,192,90867,1,8
256,192,91033,1,8
256,192,91200,1,8
256,192,91367,1,12
256,192,91534,1,8
256,192,91700,1,8
256,192,91867,1,12
256,192,92033,12,4,94033
480,352,94700,5,4
416,320,95033,1,8
384,256,95367,1,0
416,192,95700,1,8
480,160,96033,5,0
448,96,96367,1,8
384,64,96700,1,0
384,64,96867,1,0
384,64,97033,1,8
320,96,97367,5,0
288,160,97700,1,8
320,224,98033,1,0
288,288,98367,1,8
224,320,98700,5,0
224,320,98867,1,0
224,320,99033,1,8
224,320,99200,1,0
224,320,99367,1,0
160,288,99700,1,8
128,224,100033,5,0
64,192,100367,1,8
32,128,100700,1,0
64,64,101033,1,8
128,32,101367,5,0
192,64,101700,1,8
224,128,102033,1,0
224,128,102200,1,0
224,128,102367,1,8
288,160,102700,5,0
352,128,103033,1,8
384,64,103367,1,0
448,96,103700,1,8
480,160,104033,5,0
480,160,104200,1,0
480,160,104367,1,8
480,160,104533,1,0
480,160,104700,1,0
448,224,105033,1,12
384,256,105367,5,4
320,224,105700,1,8
288,160,106033,1,0
320,96,106367,1,8
256,64,106700,5,0
192,96,107033,1,8
160,160,107367,1,0
160,160,107533,1,0
160,160,107700,1,8
192,224,108033,5,0
256,256,108367,1,8
224,320,108700,1,0
160,352,109033,1,8
96,320,109367,5,0
96,320,109533,1,0
96,320,109700,1,8
96,320,109867,1,0
96,320,110033,1,0
64,256,110367,1,8
96,192,110700,5,0
32,160,111033,1,8
64,96,111367,1,0
128,64,111700,1,8
192,96,112033,5,0
224,160,112367,1,8
288,128,112700,1,0
288,128,112867,1,0
288,128,113033,1,8
320,64,113367,5,0
384,32,113700,1,8
448,64,114033,1,0
480,128,114367,1,8
448,192,114700,6,0,B|256:264|64:192,1,390,4|0
32,256,116033,5,4
64,288,116283,1,0
96,320,116533,1,0
224,256,117033,1,2
256,320,117366,5,0
288,288,117616,1,0
320,256,117866,1,0
448,320,118366,1,2
480,256,118700,5,0
448,224,118950,1,0
416,192,119200,1,0
352,64,119700,1,2
288,32,120033,5,0
256,64,120283,1,0
224,96,120533,1,0
224,96,120700,1,2
224,96,120867,1,2
224,96,121033,1,2
160,128,121366,5,0
128,96,121616,1,0
96,64,121866,1,0
32,192,122366,1,2
64,256,122700,5,0
96,224,122950,1,0
128,192,123200,1,0
192,320,123700,1,2
256,288,124033,5,0
288,320,124283,1,0
320,352,124533,1,0
384,224,125033,1,2
352,160,125366,5,0
384,128,125616,1,0
416,96,125866,1,2
416,96,126033,1,2
416,96,126200,1,2
416,96,126366,1,4
384,32,126700,5,4
384,32,126867,1,2
320,64,127200,1,2
256,32,127533,1,2
128,96,128200,5,2
96,160,128533,1,2
96,160,128700,1,2
96,160,128867,1,2
96,160,129033,1,2
32,288,129533,5,2
96,320,129867,1,2
160,352,130200,1,2
288,288,130867,5,2
320,352,131200,1,2
320,352,131367,1,2
320,352,131533,1,2
320,352,131700,1,2
448,288,132200,5,2
480,224,132533,1,2
448,160,132867,1,2
384,32,133533,5,2
320,64,133867,1,2
320,64,134033,1,2
320,64,134200,1,2
320,64,134367,1,2
192,128,134867,5,2
160,192,135200,1,2
192,256,135533,1,2
256,288,135867,1,2
288,272,136033,6,0,B|336:240|360:176|320:128|272:128,1,195
240,128,136700,2,0,B|192:128|152:176|176:240|224:272,1,195
