osu file format v5

[General]
AudioFilename: taboo tears you up.mp3
AudioLeadIn: 0
PreviewTime: 38367
Countdown: 0
SampleSet: Normal
StackLeniency: 0.2
Mode: 0
LetterboxInBreaks: 1
EditorBookmarks: 5367,16033,26700,38700,49367,60033,70700,81367,94700,105367,116033,126700,137367
EditorDistanceSpacing: 0.600000023841858

[Metadata]
Title:taboo tears you up
Artist:REDALiCE
Creator:DJPop
Version:Insane
Source:Touhou Suisui Suusuu
Tags:taboo tears you up redalice iosys touhou suisui suusuu

[Difficulty]
HPDrainRate:5
CircleSize:5
OverallDifficulty:8
SliderMultiplier:1.9
SliderTickRate:1

[Events]
//Background and Video events
0,0,"taboo tears you up.png"
1,-510,"taboo tears you up.avi"
//Break Periods
2,16233,25617
//Storyboard Layer 0 (Background)
//Storyboard Layer 1 (Failing)
//Storyboard Layer 2 (Passing)
//Storyboard Layer 3 (Foreground)
//Storyboard Sound Samples
//Background Colour Transformations
3,100,200,30,60

[TimingPoints]
34,333.333333333333,4,1,0,80,1,0
26033,-100,4,1,0,60,0,0
31950,-100,4,1,0,80,0,0
38033,-100,4,1,0,80,0,1
60033,-100,4,1,0,80,0,0
92033,-100,4,1,0,0,0,1
92116,-100,4,1,0,80,0,1
94032,-100,4,1,0,80,0,0
94033,-100,4,1,0,80,0,1
116033,-100,4,1,0,80,0,0
127700,-200,4,1,1,80,0,0
128033,-100,4,1,0,80,0,0
130367,-200,4,1,1,80,0,0
130700,-100,4,1,0,80,0,0
133033,-200,4,1,1,80,0,0
133366,-100,4,1,0,80,0,0
135950,-100,4,1,0,60,0,0

[Colours]
Combo1 : 135,20,240
Combo2 : 235,245,20
Combo3 : 245,95,25
Combo4 : 110,245,20
Combo5 : 25,200,250

[HitObjects]
32,32,5367,5,4
64,96,5533,1,0
96,160,5700,1,0
128,96,5867,1,0
160,160,6033,1,0
192,224,6200,1,0
224,160,6367,1,0
256,224,6533,1,0
288,288,6700,5,0
320,224,6867,1,0
352,288,7033,1,0
384,352,7200,1,0
416,288,7367,1,2
448,224,7533,1,2
480,160,7700,1,2
480,32,8033,5,0
448,96,8200,1,0
416,160,8367,1,0
384,96,8533,1,0
352,160,8700,1,0
320,224,8867,1,0
288,208,8950,1,0
224,176,9117,1,0
192,160,9200,1,0
160,224,9367,5,0
128,160,9533,1,0
96,224,9700,1,0
64,288,9867,1,2
32,224,10033,1,2
64,160,10200,2,0,B|64:64,1,95,2|0
192,32,10700,5,0
256,64,10867,1,0
320,32,11033,1,0
352,96,11200,1,0
320,160,11367,1,0
352,224,11533,1,0
416,192,11700,1,0
480,224,11867,1,0
448,288,12033,5,0
416,352,12200,1,0
352,320,12367,1,0
288,352,12533,1,0
256,288,12700,1,2
288,224,12867,1,2
256,160,13033,1,2
224,32,13367,5,0
160,64,13533,1,0
96,96,13700,1,0
32,128,13867,1,0
96,160,14033,1,0
160,192,14200,1,0
224,224,14367,1,0
192,240,14450,1,0
160,256,14533,1,0
128,272,14617,1,0
96,288,14700,5,4
224,320,15033,1,2
288,352,15200,1,0
320,336,15283,1,0
352,320,15367,1,0
416,288,15533,1,0
448,224,15700,1,2
480,352,16033,1,4
480,32,26367,5,0
448,96,26533,1,0
416,160,26700,1,0
384,224,26867,1,0
352,160,27033,1,0
320,96,27200,1,0
288,32,27367,1,0
256,96,27533,1,0
224,160,27700,1,0
192,96,27867,1,0
176,64,27950,1,0
160,32,28033,5,0
128,96,28200,1,0
96,160,28367,1,0
64,224,28533,1,0
32,288,28700,1,0
64,352,28867,2,0,B|256:352,1,190
272,320,29283,1,0
288,288,29367,5,0
320,224,29533,1,0
352,160,29700,1,0
384,96,29867,1,0
400,64,29950,1,0
416,32,30033,1,0
448,96,30200,1,0
464,128,30283,1,0
480,160,30367,1,0
448,224,30533,1,0
416,288,30700,5,0
384,352,30867,1,0
352,288,31033,1,0
320,352,31200,1,0
288,288,31367,2,0,B|96:288,1,190
64,352,31867,1,0
32,288,32033,5,0
64,224,32200,1,0
96,160,32366,1,0
128,96,32533,1,0
160,32,32700,1,0
192,96,32866,1,0
224,160,33033,1,0
256,224,33200,1,0
272,192,33283,1,0
288,160,33367,5,0
320,96,33533,1,0
352,32,33700,1,0
384,96,33867,1,0
416,32,34033,1,0
448,96,34200,2,0,B|448:288,1,190
432,320,34616,1,0
416,352,34700,5,0
384,288,34866,1,0
352,224,35033,1,0
320,160,35200,1,0
304,192,35283,1,0
288,224,35366,1,0
256,160,35533,1,0
240,128,35616,1,0
224,96,35700,1,0
192,32,35866,1,0
160,96,36033,6,0,B|160:288,1,190
128,352,36533,1,0
96,288,36700,1,0
64,224,36867,1,0
32,160,37033,1,0
48,128,37117,1,0
64,96,37200,1,0
80,64,37283,1,0
256,192,37367,12,4,38033
480,352,38367,5,0
416,320,38533,1,0
352,288,38700,1,4
288,256,38867,1,0
224,288,39033,1,8
160,320,39200,1,0
96,352,39367,1,0
32,320,39533,1,0
96,288,39700,1,8
160,256,39867,1,0
128,240,39950,1,0
96,224,40033,5,0
32,192,40200,1,0
96,160,40367,1,8
160,128,40533,1,0
224,160,40700,1,0
288,128,40867,2,0,B|288:32,1,95,0|8
352,64,41200,1,0
384,48,41283,1,0
416,32,41367,5,0
480,64,41533,1,0
416,96,41700,1,8
480,128,41867,1,0
448,144,41950,1,0
416,160,42033,1,0
352,192,42200,1,0
384,208,42283,1,0
416,224,42367,1,8
480,256,42533,1,0
416,288,42700,5,0
352,320,42867,1,0
288,288,43033,1,8
224,320,43200,1,0
160,352,43367,2,0,B|160:256,1,95
96,224,43700,1,8
32,192,43867,1,0
96,160,44033,5,0
160,128,44200,1,0
96,96,44366,1,8
160,64,44533,1,0
224,32,44700,1,0
288,64,44866,1,0
352,96,45033,1,8
288,128,45200,1,0
256,144,45283,1,0
224,160,45366,5,0
288,192,45533,1,0
224,224,45700,1,8
160,256,45866,1,0
224,288,46033,1,0
288,256,46200,2,0,B|288:352,1,95,0|8
352,320,46533,1,0
384,304,46616,1,0
416,288,46700,5,0
480,256,46866,1,0
416,224,47033,1,8
480,192,47200,1,0
448,176,47283,1,0
416,160,47366,1,0
352,128,47533,1,0
384,112,47616,1,0
416,96,47700,1,8
480,64,47866,1,0
416,32,48033,5,0
352,64,48200,1,0
288,32,48366,1,8
224,64,48533,1,0
160,32,48700,2,0,B|64:32,1,95
32,96,49033,1,12
64,160,49200,1,0
32,224,49367,5,4
64,288,49534,1,0
96,352,49700,1,8
128,288,49867,1,0
160,224,50034,1,0
192,160,50200,1,0
224,224,50367,1,8
256,288,50534,1,0
272,320,50617,1,0
288,352,50700,5,0
320,288,50867,1,0
352,224,51034,1,8
384,288,51200,1,0
416,224,51367,1,0
448,160,51533,2,0,B|448:64,1,95,0|8
384,32,51867,1,0
352,48,51950,1,0
320,64,52034,5,0
256,96,52200,1,0
192,64,52367,1,8
128,32,52534,1,0
96,48,52617,1,0
64,64,52700,1,0
128,96,52867,1,0
160,112,52950,1,0
192,128,53034,1,8
128,160,53200,1,0
192,192,53367,5,0
256,224,53534,1,0
320,192,53700,1,8
384,224,53867,1,0
448,192,54033,2,0,B|448:288,1,95
416,352,54367,1,8
384,288,54534,1,0
352,352,54700,5,0
320,288,54867,1,0
288,224,55033,1,8
320,160,55200,1,0
352,96,55367,1,0
320,32,55533,1,0
288,96,55700,1,8
256,32,55867,1,0
240,64,55950,1,0
224,96,56033,5,0
192,160,56200,1,0
224,224,56367,1,8
192,288,56533,1,0
160,352,56700,1,0
96,320,56867,2,0,B|96:224,1,95,0|8
32,192,57200,1,0
64,176,57283,1,0
96,160,57367,5,0
32,128,57533,1,0
96,96,57700,1,8
160,64,57867,1,0
192,80,57950,1,0
224,96,58033,1,0
288,128,58200,1,0
256,144,58283,1,0
224,160,58367,1,8
160,192,58533,1,0
224,224,58700,6,0,B|416:224,1,190,4|0
480,192,59200,1,0
416,160,59367,1,0
352,128,59533,1,0
416,96,59700,1,0
384,80,59783,1,0
352,64,59867,1,0
320,48,59950,1,0
288,32,60033,5,4
224,64,60199,1,0
192,128,60366,1,0
160,64,60533,1,0
96,96,60699,1,0
64,160,60866,1,0
128,192,61033,1,0
96,256,61199,1,0
128,320,61366,5,0
160,256,61533,1,0
224,288,61699,1,0
256,352,61866,1,0
320,320,62033,1,2
352,256,62199,1,2
416,224,62366,1,2
480,352,62699,5,0
448,288,62866,1,0
480,224,63033,1,0
448,160,63199,1,0
480,96,63366,1,0
448,32,63533,1,0
416,48,63616,1,0
352,80,63783,1,0
320,96,63866,1,0
288,32,64033,5,0
224,64,64199,1,0
192,128,64366,1,0
224,192,64533,1,2
288,224,64699,1,2
224,256,64867,2,0,B|224:352,1,95,2|0
96,288,65367,5,0
64,352,65533,1,0
32,288,65700,1,0
64,224,65867,1,0
128,192,66033,1,0
64,160,66200,1,0
32,96,66367,1,0
64,32,66533,1,0
96,96,66700,5,0
160,64,66867,1,0
224,96,67033,1,0
160,128,67200,1,0
192,192,67367,1,2
224,256,67533,1,2
256,192,67700,1,2
320,64,68033,5,0
384,96,68200,1,0
448,128,68367,1,0
480,192,68533,1,0
448,256,68700,1,0
384,288,68867,1,0
320,320,69033,1,0
304,288,69117,1,0
288,256,69200,1,0
272,224,69283,1,0
256,192,69367,6,0,B|64:192,1,190,4|0
32,128,69867,1,0
64,64,70033,2,0,B|256:64,1,190,0|2
384,32,70700,5,4
448,96,70950,1,0
384,160,71200,1,0
448,288,71533,1,0
384,320,71700,1,0
320,352,71867,1,0
288,288,72033,5,0
224,224,72283,1,0
160,288,72533,1,0
32,352,72867,1,0
64,288,73033,1,0
32,224,73200,1,0
64,160,73367,5,0
128,96,73617,1,0
192,160,73867,1,0
256,32,74200,1,0
320,64,74367,1,0
384,96,74533,1,0
448,128,74700,5,0
384,192,74950,1,0
448,256,75200,1,0
320,320,75533,1,0
256,352,75700,1,0
192,320,75866,1,0
256,288,76033,5,0
320,224,76283,1,0
256,160,76533,1,0
128,96,76866,1,0
96,160,77033,1,0
64,224,77200,1,0
32,288,77366,5,0
96,352,77616,1,0
160,288,77866,1,0
224,160,78200,1,0
288,128,78366,1,0
224,96,78533,1,0
288,64,78700,5,0
352,128,78950,1,0
416,64,79200,1,0
480,192,79533,1,0
448,256,79700,1,0
416,320,79866,1,0
352,352,80033,5,0
288,288,80283,1,0
224,352,80533,1,0
160,224,80866,1,0
96,256,81033,1,0
32,224,81199,1,0
96,192,81367,5,12
416,192,82700,5,8
96,192,84033,5,8
416,192,85367,5,8
336,272,85700,1,0
256,192,86033,1,0
176,272,86367,1,0
96,192,86700,5,8
128,128,86867,1,0
160,64,87033,1,0
224,32,87200,1,0
256,96,87367,1,8
288,32,87533,1,0
352,64,87700,1,0
384,128,87867,1,0
416,192,88033,5,8
384,256,88200,1,0
352,320,88367,1,8
288,352,88533,1,0
256,288,88700,1,8
224,352,88867,1,0
160,320,89033,1,8
128,256,89200,1,0
96,192,89367,5,12
160,160,89533,1,8
224,192,89700,1,8
288,160,89867,1,8
352,192,90033,1,12
416,160,90200,1,8
480,128,90367,1,8
448,64,90533,1,8
384,32,90700,5,12
368,64,90783,1,8
352,96,90867,1,8
336,64,90950,1,8
320,32,91033,1,8
304,64,91117,1,8
288,96,91200,1,8
272,64,91283,1,8
256,32,91367,1,12
240,64,91450,1,8
224,96,91533,1,8
208,64,91617,1,8
192,32,91700,1,8
176,64,91783,1,8
160,96,91867,1,8
144,64,91950,1,12
128,32,92033,1,0
256,192,92117,12,4,94033
32,352,94367,5,0
96,320,94533,1,0
128,256,94700,1,4
96,192,94867,1,0
32,160,95033,1,8
64,96,95200,1,0
128,64,95367,1,0
192,96,95533,1,0
224,160,95700,1,8
256,96,95867,1,0
272,64,95950,1,0
288,32,96033,5,0
352,64,96200,1,0
384,128,96367,1,8
352,192,96533,1,0
288,224,96700,1,0
224,256,96867,2,0,B|224:352,1,95,0|8
288,320,97200,1,0
320,336,97283,1,0
352,352,97367,5,0
416,320,97533,1,0
448,256,97700,1,8
416,192,97867,1,0
448,176,97950,1,0
480,160,98033,1,0
448,96,98200,1,0
416,112,98283,1,0
384,128,98367,1,8
352,64,98533,1,0
288,32,98700,5,0
224,64,98867,1,0
192,128,99033,1,8
224,192,99200,1,0
288,224,99367,2,0,B|288:320,1,95
224,352,99700,1,8
160,320,99866,1,0
96,288,100033,5,0
64,224,100200,1,0
32,160,100366,1,8
64,96,100533,1,0
128,64,100700,1,0
192,32,100866,1,0
256,64,101033,1,8
288,128,101200,1,0
304,160,101283,1,0
320,192,101366,5,0
288,256,101533,1,0
320,320,101700,1,8
384,352,101866,1,0
448,320,102033,1,0
480,256,102200,2,0,B|480:160,1,95,0|8
448,96,102533,1,0
416,80,102616,1,0
384,64,102700,5,0
320,32,102866,1,0
256,64,103033,1,8
224,128,103200,1,0
208,160,103283,1,0
192,192,103366,1,0
256,224,103533,1,0
272,192,103616,1,0
288,160,103700,1,8
352,192,103866,1,0
384,256,104033,5,0
352,320,104200,1,0
288,352,104366,1,8
224,320,104533,1,0
192,256,104700,2,0,B|96:256,1,95
64,320,105033,1,12
32,256,105199,1,0
64,192,105366,5,4
128,160,105533,1,0
192,192,105699,1,8
224,128,105866,1,0
192,64,106033,1,0
256,32,106199,1,0
320,64,106366,1,8
288,128,106533,1,0
304,160,106616,1,0
320,192,106699,5,0
384,160,106866,1,0
416,96,107033,1,8
448,160,107199,1,0
416,224,107366,1,0
480,256,107533,2,0,B|480:352,1,95,0|8
416,320,107866,1,0
384,304,107949,1,0
352,288,108033,5,0
320,352,108199,1,0
256,320,108367,1,8
224,256,108533,1,0
256,240,108616,1,0
288,224,108699,1,0
256,160,108866,1,0
224,176,108949,1,0
192,192,109033,1,8
160,256,109199,1,0
192,320,109366,5,0
128,352,109533,1,0
64,320,109699,1,8
96,256,109866,1,0
32,224,110033,2,0,B|32:128,1,95
64,64,110367,1,8
128,32,110533,1,0
192,64,110700,5,0
160,128,110867,1,0
96,160,111033,1,8
160,192,111200,1,0
192,256,111367,1,0
256,224,111533,1,0
288,160,111700,1,8
256,96,111867,1,0
288,80,111950,1,0
320,64,112033,5,0
384,96,112200,1,0
416,32,112367,1,8
480,64,112533,1,0
448,128,112700,1,0
384,160,112867,2,0,B|384:256,1,95,0|8
448,224,113200,1,0
464,256,113283,1,0
480,288,113367,5,0
416,320,113533,1,0
352,352,113700,1,8
320,288,113867,1,0
304,256,113950,1,0
288,224,114033,1,0
224,256,114200,1,0
240,288,114283,1,0
256,320,114367,1,8
192,352,114533,1,0
160,288,114700,6,0,B|160:96,1,190,4|0
128,32,115200,1,0
64,64,115367,1,0
32,128,115533,1,0
96,160,115700,1,0
80,192,115783,1,0
64,224,115867,1,0
48,256,115950,1,0
32,288,116033,5,4
96,352,116283,1,0
160,288,116533,1,0
224,160,116867,1,0
192,96,117033,1,0
224,32,117200,1,0
256,96,117367,5,0
320,32,117617,1,0
384,96,117867,1,0
448,224,118200,1,0
480,288,118367,1,0
448,352,118533,1,0
416,288,118700,5,0
352,352,118950,1,0
288,288,119200,1,0
160,224,119533,1,0
96,256,119700,1,0
32,224,119867,1,0
96,192,120033,5,0
32,128,120283,1,0
96,64,120533,1,0
160,32,120700,1,2
224,64,120867,1,2
160,96,121033,2,0,B|228:164,1,95,2|0
288,128,121367,5,0
352,192,121617,1,0
416,256,121867,1,0
288,320,122201,1,0
224,352,122367,1,0
160,320,122534,1,0
224,288,122701,5,0
160,224,122951,1,0
96,160,123201,1,0
160,32,123534,1,0
192,96,123701,1,0
224,160,123867,1,0
288,192,124034,5,0
352,128,124284,1,0
416,64,124534,1,0
480,192,124867,1,0
416,224,125034,1,0
448,288,125201,1,0
384,320,125367,5,0
320,256,125617,1,0
256,192,125867,1,2
224,256,126033,1,2
160,288,126200,1,2
128,352,126367,1,4
64,224,126700,5,4
32,160,126867,2,0,B|32:64,1,95,2|8
96,32,127200,2,0,B|192:32,1,95,2|0
160,96,127533,1,2
128,160,127700,2,0,B|224:160,1,95,8|0
288,128,128200,6,0,B|384:128,1,95,2|8
352,64,128533,1,2
416,32,128700,1,2
480,64,128867,1,2
448,128,129033,2,0,B|448:224,1,95,10|0
480,288,129367,5,0
416,320,129534,2,0,B|320:320,1,95,2|8
352,256,129867,2,0,B|352:160,1,95,2|0
288,192,130200,1,2
256,256,130367,2,0,B|160:256,1,95,8|0
96,288,130867,6,0,B|96:192,1,95,2|8
32,160,131200,1,2
64,96,131367,1,2
128,64,131533,1,2
160,128,131700,1,10
192,112,131783,1,0
224,96,131867,1,0
256,80,131950,1,0
288,64,132033,5,0
352,32,132200,2,0,B|352:128,1,95,2|8
320,192,132533,2,0,B|416:192,1,95,2|0
448,128,132866,1,2
480,192,133033,2,0,B|480:288,1,95,8|0
416,256,133533,6,0,B|320:256,1,95,2|8
352,320,133866,1,2
288,352,134033,1,2
224,320,134200,1,2
256,256,134367,2,0,B|160:256,1,95,10|0
128,192,134700,5,0
144,160,134783,1,0
160,128,134867,1,2
192,112,134950,1,0
224,96,135033,1,8
256,80,135117,1,0
288,96,135200,1,2
320,112,135283,1,0
352,128,135367,1,0
368,160,135450,1,0
384,192,135533,2,0,B|288:192,1,95,2|8
256,128,135867,1,2
224,192,136033,6,0,B|32:192,1,190,0|8
64,256,136533,1,0
128,288,136700,2,0,B|272:288,1,142.5
288,256,137033,1,8
256,192,137200,1,0
