osu file format v5

[General]
AudioFilename: taboo tears you up.mp3
AudioLeadIn: 0
PreviewTime: 38367
Countdown: 0
SampleSet: Normal
StackLeniency: 0.2
Mode: 0
LetterboxInBreaks: 1
EditorBookmarks: 5367,16033,26700,38700,49367,60033,70700,81367,94700,105367,116033,126700,137367
EditorDistanceSpacing: 0.600000023841858

[Metadata]
Title:taboo tears you up
Artist:REDALiCE
Creator:DJPop
Version:Hard
Source:Touhou Suisui Suusuu
Tags:taboo tears you up redalice iosys touhou suisui suusuu

[Difficulty]
HPDrainRate:4
CircleSize:5
OverallDifficulty:6
SliderMultiplier:1.6
SliderTickRate:1

[Events]
//Background and Video events
0,0,"taboo tears you up.png"
1,-510,"taboo tears you up.avi"
//Break Periods
2,16233,25617
//Storyboard Layer 0 (Background)
//Storyboard Layer 1 (Failing)
//Storyboard Layer 2 (Passing)
//Storyboard Layer 3 (Foreground)
//Storyboard Sound Samples
//Background Colour Transformations
3,100,200,30,60

[TimingPoints]
34,333.333333333333,4,1,0,80,1,0
26033,-100,4,1,0,60,0,0
31950,-100,4,1,0,80,0,0
38033,-100,4,1,0,80,0,1
60033,-100,4,1,0,80,0,0
92033,-100,4,1,0,80,0,1
94032,-100,4,1,0,80,0,0
94033,-100,4,1,0,80,0,1
116033,-100,4,1,0,80,0,0
127700,-200,4,1,1,80,0,0
128033,-100,4,1,0,80,0,0
130367,-200,4,1,1,80,0,0
130700,-100,4,1,0,80,0,0
133033,-200,4,1,1,80,0,0
133366,-100,4,1,0,80,0,0
135950,-100,4,1,0,60,0,0

[Colours]
Combo1 : 135,20,240
Combo2 : 235,245,20
Combo3 : 245,95,25
Combo4 : 110,245,20
Combo5 : 25,200,250

[HitObjects]
64,112,5367,6,0,B|64:30,2,80,4|0|0
128,112,5867,2,0,B|128:29,2,80
192,112,6367,2,0,B|192:30,2,80
256,112,6867,6,0,B|256:30,2,80
320,112,7367,1,2
384,112,7533,1,2
448,112,7700,1,2
448,272,8033,6,0,B|448:356,2,80
384,272,8533,2,0,B|383:355,2,80
352,272,8950,2,0,B|319:317|288:272,1,80
256,272,9200,1,0
192,272,9367,6,0,B|192:354,2,80
128,272,9867,1,2
128,336,10033,1,2
64,336,10200,1,2
64,272,10367,1,0
64,112,10700,6,0,B|64:31,2,80
128,112,11200,2,0,B|128:29,2,80
192,112,11700,2,0,B|192:31,2,80
256,112,12200,6,0,B|256:30,2,80
320,112,12700,1,2
384,112,12867,1,2
448,112,13033,1,2
448,272,13367,6,0,B|448:354,2,80
384,272,13867,2,0,B|384:353,2,80
320,272,14367,2,0,B|320:314,3,40
320,336,14700,5,4
192,336,15033,1,2
128,336,15200,2,0,B|80:336,2,40
128,272,15533,1,0
192,272,15700,1,2
256,192,16033,1,4
480,48,26367,5,0
432,48,26533,1,0
432,96,26700,1,0
384,96,26867,1,0
384,144,27033,1,0
336,144,27200,1,0
336,192,27367,1,0
288,192,27533,1,0
288,240,27700,1,0
240,240,27867,6,0,B|176:240,2,40
240,288,28200,1,0
240,336,28367,1,0
192,336,28533,1,0
144,336,28700,1,0
144,288,28867,1,0
32,288,29200,6,0,B|32:352,2,40
32,240,29533,1,0
32,192,29700,1,0
80,192,29867,2,0,B|144:192,2,40
80,144,30200,2,0,B|80:80,2,40
128,144,30533,1,0
128,96,30700,5,0
176,96,30867,1,0
176,48,31033,1,0
224,48,31200,1,0
272,48,31367,1,0
384,48,31700,1,0
384,96,31867,1,0
432,96,32033,5,0
432,144,32200,1,0
480,144,32366,1,0
480,192,32533,1,0
480,240,32700,1,0
432,240,32866,1,0
432,288,33033,1,0
384,288,33200,6,0,B|320:288,2,40
384,336,33533,1,0
336,336,33700,1,0
288,336,33867,1,0
288,288,34033,1,0
240,288,34200,1,0
104,288,34533,6,0,B|104:352,2,40
104,240,34866,1,0
104,192,35033,1,0
104,144,35200,2,0,B|40:144,2,40
104,96,35533,2,0,B|104:32,2,40
152,96,35866,1,0
200,96,36033,6,0,B|363:96,1,160
408,96,36533,1,0
408,144,36700,1,0
408,192,36867,1,0
408,240,37033,2,0,B|408:281,3,40
256,192,37367,12,4,38033
32,352,38367,5,0
80,352,38533,1,0
128,352,38700,1,4
128,304,38867,1,0
128,256,39033,1,8
176,256,39200,1,0
224,256,39367,1,0
224,208,39533,1,0
224,160,39700,1,8
272,160,39867,6,0,B|272:96,2,40
320,160,40200,1,0
320,208,40367,1,8
320,256,40533,1,0
368,256,40700,1,0
416,256,40867,2,0,B|415:340,1,80,0|8
464,336,41200,6,0,B|506:336,2,40
464,288,41533,1,0
464,240,41700,1,8
464,192,41867,2,0,B|506:192,2,40
416,192,42200,2,0,B|374:192,2,40,0|0|8
416,144,42533,1,0
416,96,42700,5,0
368,96,42867,1,0
320,96,43033,1,8
320,48,43200,1,0
272,48,43367,2,0,B|190:48,1,80
192,96,43700,1,8
144,96,43867,1,0
144,48,44033,5,0
96,48,44200,1,0
48,48,44367,1,8
48,96,44533,1,0
48,144,44700,1,0
96,144,44866,1,0
144,144,45033,1,8
144,192,45200,6,0,B|208:192,2,40
144,240,45533,1,0
96,240,45700,1,8
48,240,45866,1,0
48,288,46033,1,0
48,336,46200,2,0,B|130:336,1,80,0|8
176,336,46533,6,0,B|176:295,2,40
224,336,46866,1,0
272,336,47033,1,8
272,288,47200,2,0,B|313:288,2,40
272,240,47533,2,0,B|230:240,2,40,0|0|8
272,192,47866,1,0
320,192,48033,5,0
368,192,48200,1,0
368,240,48366,1,8
416,240,48533,1,0
464,240,48700,2,0,B|464:158,1,80
464,112,49033,1,12
416,112,49200,1,0
416,64,49367,5,4
368,64,49534,1,0
320,64,49700,1,8
320,112,49867,1,0
272,112,50034,1,0
224,112,50200,1,0
224,160,50367,1,8
176,160,50533,6,0,B|134:160,2,40
176,208,50867,1,0
176,256,51034,1,8
128,256,51200,1,0
128,304,51367,1,0
128,352,51533,2,0,B|46:352,1,80,0|8
48,304,51867,6,0,B|7:304,2,40
48,256,52200,1,0
48,208,52367,1,8
48,160,52533,2,0,B|7:160,2,40,0|0|0
48,112,52867,2,0,B|48:70,2,40,0|0|8
96,112,53200,1,0
144,112,53367,5,0
192,112,53534,1,0
192,64,53700,1,8
240,64,53867,1,0
288,64,54033,2,0,B|370:64,1,80
368,112,54367,1,8
368,160,54534,1,0
320,160,54700,5,0
272,160,54867,1,0
272,208,55033,1,8
272,256,55200,1,0
320,256,55367,1,0
368,256,55533,1,0
416,256,55700,1,8
464,256,55867,6,0,B|464:215,2,40
464,304,56200,1,0
464,352,56367,1,8
416,352,56533,1,0
368,352,56700,1,0
320,352,56867,2,0,B|238:352,1,80,0|8
192,352,57200,6,0,B|192:310,2,40
144,352,57533,1,0
96,352,57700,1,8
96,304,57867,2,0,B|55:304,2,40
96,256,58200,2,0,B|138:256,2,40,0|0|8
96,208,58533,1,0
96,160,58700,6,0,B|50:111|96:48|160:64,1,160,4|0
208,64,59200,1,0
256,64,59367,1,0
304,64,59533,1,0
352,64,59700,2,0,B|352:23,3,40
400,64,60033,6,0,B|482:64,2,80,4|0|0
400,128,60533,2,0,B|481:128,2,80
400,192,61033,2,0,B|481:192,2,80
400,256,61533,6,0,B|481:256,2,80
400,320,62033,1,2
336,320,62200,1,2
272,320,62367,1,2
112,320,62700,6,0,B|30:320,2,80
112,256,63200,2,0,B|30:256,2,80
112,224,63617,2,0,B|66:192|112:160,1,80
112,128,63867,1,0
112,64,64033,6,0,B|29:64,2,80
176,64,64533,1,2
176,128,64700,1,2
240,128,64867,1,2
240,64,65033,1,0
400,64,65367,6,0,B|482:64,2,80,0|0|0
400,128,65867,2,0,B|481:128,2,80
400,192,66367,2,0,B|481:192,2,80
400,256,66867,6,0,B|481:256,2,80
400,320,67367,1,2
336,320,67534,1,2
272,320,67701,1,2
112,320,68034,6,0,B|30:320,2,80
112,256,68534,2,0,B|30:256,2,80
112,192,69033,2,0,B|71:192,3,40
112,160,69367,6,0,B|99:47|192:48,1,160,4|0
256,48,69867,1,0
320,48,70033,2,0,B|412:48|400:160,1,160,0|2
480,224,70700,5,4
448,288,70950,1,0
416,352,71200,1,0
288,352,71533,2,0,B|204:352,2,80
288,288,72033,5,0
256,224,72283,1,0
224,160,72533,1,0
224,32,72867,2,0,B|306:32,2,80
160,32,73367,5,0
96,64,73617,1,0
32,96,73867,1,0
32,224,74200,2,0,B|32:306,2,80
96,224,74700,5,0
160,256,74950,1,0
224,288,75200,1,0
352,288,75533,2,0,B|352:207,2,80
416,288,76033,5,0
448,224,76283,1,0
480,160,76533,1,0
352,160,76867,2,0,B|352:241,2,80
352,96,77366,5,0
288,64,77616,1,0
224,32,77866,1,0
96,32,78200,2,0,B|14:32,2,80
96,96,78700,5,0
128,160,78950,1,0
160,224,79200,1,0
160,352,79533,2,0,B|256:352,2,80
160,288,80033,5,0
224,256,80283,1,0
288,224,80533,1,0
416,224,80867,2,0,B|416:128,2,80
480,192,81367,5,12
32,192,82700,5,8
480,192,84033,5,8
32,192,85367,5,8
256,192,86033,1,0
480,192,86700,5,8
416,192,87033,1,0
352,192,87367,1,8
288,192,87700,1,0
224,192,88033,5,8
160,192,88367,1,8
96,192,88700,1,8
32,192,89033,1,8
37,192,89367,5,12
69,192,89533,1,8
101,192,89700,1,8
133,192,89867,1,8
165,192,90033,1,12
197,192,90200,1,8
229,192,90367,1,8
261,192,90533,1,8
293,192,90700,6,8,B|335:192,3,40,12|8|8|8
341,192,91033,2,8,B|382:192,3,40
389,192,91367,2,8,B|430:192,3,40,12|8|8|8
437,192,91700,2,8,B|478:192,3,40,8|8|8|12
256,192,92033,12,4,94033
480,352,94367,5,0
480,304,94533,1,0
432,304,94700,1,4
432,256,94867,1,0
384,256,95033,1,8
384,208,95200,1,0
336,208,95367,1,0
336,160,95533,1,0
288,160,95700,1,8
288,112,95867,6,0,B|288:71,2,40
240,112,96200,1,0
192,112,96367,1,8
192,64,96533,1,0
144,64,96700,1,0
96,64,96867,2,0,B|96:147,1,80,0|8
96,192,97200,6,0,B|55:192,2,40
96,240,97533,1,0
144,240,97700,1,8
192,240,97867,2,0,B|192:281,2,40
240,240,98200,2,0,B|240:199,2,40,0|0|8
288,240,98533,1,0
288,288,98700,5,0
336,288,98867,1,0
336,336,99033,1,8
384,336,99200,1,0
384,288,99367,2,0,B|465:288,1,80
464,240,99700,1,8
464,192,99867,1,0
416,192,100033,5,0
416,144,100200,1,0
368,144,100366,1,8
368,96,100533,1,0
320,96,100700,1,0
320,48,100866,1,0
272,48,101033,1,8
224,48,101200,6,0,B|224:90,2,40
176,48,101533,1,0
128,48,101700,1,8
80,48,101866,1,0
32,48,102033,1,0
32,96,102200,2,0,B|32:178,1,80,0|8
80,176,102533,6,0,B|121:176,2,40
80,224,102866,1,0
80,272,103033,1,8
128,272,103200,2,0,B|128:313,2,40
176,272,103533,2,0,B|176:231,2,40,0|0|8
224,272,103866,1,0
224,320,104033,5,0
272,320,104200,1,0
320,320,104366,1,8
320,272,104533,1,0
368,272,104700,2,0,B|368:191,1,80
320,192,105033,1,12
272,192,105200,1,0
224,192,105367,5,4
224,144,105534,1,0
224,96,105700,1,8
272,96,105867,1,0
320,96,106034,1,0
320,48,106200,1,0
368,48,106367,1,8
416,48,106533,6,0,B|416:90,2,40
464,48,106867,1,0
464,96,107034,1,8
464,144,107200,1,0
416,144,107367,1,0
416,192,107533,2,0,B|415:274,1,80,0|8
416,320,107867,6,0,B|457:320,2,40
368,320,108200,1,0
320,320,108367,1,8
272,320,108533,2,0,B|230:320,2,40,0|0|0
272,272,108867,2,0,B|272:231,2,40,0|0|8
320,272,109200,1,0
320,224,109367,5,0
320,176,109534,1,0
320,128,109700,1,8
272,128,109867,1,0
224,128,110033,2,0,B|142:128,1,80
144,80,110367,1,8
144,32,110534,1,0
96,32,110700,5,0
48,32,110867,1,0
48,80,111033,1,8
48,128,111200,1,0
48,176,111367,1,0
96,176,111533,1,0
96,224,111700,1,8
144,224,111867,6,0,B|186:224,2,40
144,272,112200,1,0
144,320,112367,1,8
192,320,112533,1,0
240,320,112700,1,0
240,272,112867,2,0,B|240:189,1,80,0|8
288,192,113200,6,0,B|330:192,2,40
288,240,113533,1,0
336,240,113700,1,8
336,288,113867,2,0,B|336:329,2,40
384,288,114200,2,0,B|384:246,2,40,0|0|8
432,288,114533,1,0
480,288,114700,6,0,B|480:126,1,160,4|0
432,128,115200,1,0
384,128,115367,1,0
336,128,115533,1,0
288,128,115700,2,0,B|260:98,3,40
256,96,116033,6,0,B|208:29|160:96,2,120,4|0|0
160,224,116867,1,0
160,288,117033,1,0
160,352,117200,1,0
96,352,117367,6,0,B|28:304|96:256,2,120
224,256,118200,1,0
288,256,118367,1,0
352,256,118533,1,0
352,320,118700,6,0,B|402:387|448:320,2,120
448,192,119533,1,0
384,192,119700,1,0
320,192,119867,1,0
320,128,120033,6,0,B|387:80|320:32,2,120
256,128,120700,2,2,B|223:173|192:128,2,80
256,64,121200,1,0
192,64,121367,6,0,B|147:-4|96:64,2,120
96,192,122201,1,0
32,192,122367,1,0
32,256,122534,1,0
96,256,122700,6,0,B|164:304|96:352,2,120
224,352,123534,1,0
288,352,123701,1,0
288,288,123867,1,0
352,288,124033,6,0,B|401:356|448:288,2,120
448,160,124867,1,0
448,96,125034,1,0
384,96,125201,1,0
320,96,125367,6,0,B|253:144|320:192,1,120
224,192,125867,2,2,B|192:237|160:192,2,80
224,128,126367,1,4
96,32,126700,5,4
32,32,126867,2,0,B|-14:62|32:96,1,80,2|8
96,96,127200,2,0,B|142:128|96:160,1,80,2|0
32,160,127533,1,2
32,224,127700,2,0,B|63:269|96:224,1,80,8|0
160,224,128200,6,0,B|205:256|160:288,1,80,2|8
160,352,128533,1,2
224,352,128700,1,2
288,352,128867,1,2
352,352,129033,1,10
480,224,129367,5,0
416,224,129534,2,0,B|371:192|416:160,1,80,2|8
480,160,129867,2,0,B|525:128|480:96,1,80,2|0
416,96,130200,1,2
416,32,130367,2,0,B|384:-13|352:32,1,80,8|0
352,96,130867,6,0,B|320:142|288:96,1,80,2|8
288,32,131200,1,2
224,32,131367,1,2
160,32,131533,1,2
160,96,131700,2,0,B|160:137,3,40,10|0|0|0
160,160,132033,5,0
96,160,132200,2,0,B|44:156|48:208,1,80,2|8
48,272,132533,2,0,B|42:323|96:320,1,80,2|0
160,320,132866,1,2
224,320,133033,2,0,B|276:324|272:272,1,80,8|0
272,208,133533,6,0,B|276:156|224:160,1,80,2|8
224,96,133866,1,2
288,96,134033,1,2
352,96,134200,1,2
352,160,134367,1,10
480,288,134700,5,0
416,288,134867,2,0,B|384:334|352:288,1,80,2|8
288,288,135200,2,0,B|256:334|224:288,1,80,2|0
160,288,135533,2,0,B|128:333|96:288,1,80,2|8
32,288,135867,1,2
32,224,136033,6,0,B|96:134|160:224,1,160,0|8
224,224,136533,1,0
288,224,136700,2,0,B|352:134|416:224,1,160,0|8
480,224,137200,1,0
