osu file format v12

[General]
AudioFilename: alice's emotion - scarlet eyes - 04 - volar.mp3
AudioLeadIn: 0
PreviewTime: 91608
Countdown: 0
SampleSet: None
StackLeniency: 0.7
Mode: 1
LetterboxInBreaks: 1
WidescreenStoryboard: 1

[Editor]
Bookmarks: -39,91521,113717,136001,191492
DistanceSpacing: 1
BeatDivisor: 4
GridSize: 8

[Metadata]
Title:Volar
TitleUnicode:Volar
Artist:REDALiCE
ArtistUnicode:REDALiCE
Creator:gn01703465
Version:Special Taiko(short ver.)
Source:Touhou
Tags:
BeatmapID:295081
BeatmapSetID:50932

[Difficulty]
HPDrainRate:5
CircleSize:5
OverallDifficulty:2
ApproachRate:5
SliderMultiplier:1.4
SliderTickRate:1

[Events]
//Background and Video events
0,0,"bg_taiko.jpg",0,0
//Break Periods
2,90420,91795
//Storyboard Layer 0 (Background)
//Storyboard Layer 1 (Fail)
//Storyboard Layer 2 (Pass)
//Storyboard Layer 3 (Foreground)
Sprite,Foreground,Centre,"bg_taiko.jpg",320,240 M,0,47,142935,320,372 S,0,47,142935,0.6312743 S,0,142935,,0.6312743
Sprite,Foreground,Centre,"0ero.png",320,240 M,0,90220,,323,319 S,0,90220,,0.7849602 F,0,90220,91608,0,1 F,0,91608,136001,1,0.9690202
Sprite,Foreground,Centre,"WATCHOUT.png",320,240 F,0,87446,87793,0,1 S,0,87446,87793,0.17056,0.2012799 M,0,87446,90220,313,502 F,0,87793,88139,1,0 S,0,87793,88486,0.2012799,0.2232284 F,0,88139,88486,0,1 F,0,88486,88833,1,0 S,0,88486,89180,0.2232284,0.2328691 F,0,88833,89180,0,1 F,0,89180,89527,1,0 S,0,89180,89874,0.2328691,0.2527296 F,0,89527,89874,0,1 S,0,89874,90134,0.2527296,0.1 F,0,89874,90220,1,0 S,0,90134,,0.1 F,0,90220,90307,0
Sprite,Foreground,Centre,"11leven2.png",320,240 M,0,119787,121868,1057,316,-352,319 F,0,121174,121521,1,0
Sprite,Foreground,Centre,"11leven.png",320,240 M,0,118660,120741,1051,316,-331,316
Sprite,Foreground,Centre,"10en.png",320,240 M,0,115885,117966,1051,316,-368,316 F,0,117272,117619,1,0
Sprite,Foreground,Centre,"9ine.png",320,240 M,0,113111,115191,1051,319,-368,319 F,0,114498,114845,1,0
Sprite,Foreground,Centre,"8ight.png",320,240 M,0,110336,112417,1051,316,-328,316 F,0,111723,112070,1,0
Sprite,Foreground,Centre,"7even.png",320,240 M,0,107561,109642,1051,316,-362,316 F,0,108949,109295,1,0
Sprite,Foreground,Centre,"6ix.png",320,240 M,0,104787,106868,1051,316,-328,316 F,0,106174,106521,1,0
Sprite,Foreground,Centre,"5ive.png",320,240 M,0,102012,104093,1051,316,-328,316 F,0,103400,103746,1,0
Sprite,Foreground,Centre,"4our.png",320,240 M,0,99238,101319,1063,319,-368,319 F,0,100625,100972,1,0
Sprite,Foreground,Centre,"3hree.png",320,240 M,0,96463,98544,1063,319,-365,316 F,0,97850,98197,1,0
Sprite,Foreground,Centre,"2wo.png",320,240 M,0,93689,95769,1063,319,-361,319 F,0,95076,95423,1,0 F,0,95423,,0
Sprite,Foreground,Centre,"12welve.png",320,240 M,0,124209,126290,1051,319,-328,319
Sprite,Foreground,Centre,"12welve2.png",320,240 M,0,125336,127417,1051,319,-331,319 F,0,126723,127070,1,0
Sprite,Foreground,Centre,"13hirteen.png",320,240 S,0,130885,,0.9692801 M,0,130885,132966,1029,318,-359,315 F,0,132272,132619,1,0 M,0,132966,133066,-359,315,-323,315
Sprite,Foreground,Centre,"13hirteen0.png",320,240 S,0,129758,,0.9692801 M,0,129758,131839,1047,316,-342,316
Sprite,Foreground,Centre,"1ne.png",320,240 M,0,90914,92995,1064,319,-361,319 F,0,92301,92648,1,0 F,0,92648,,0
Sprite,Foreground,Centre,"black.jpg",320,240 M,0,-39,47,320,240,320,249 M,0,47,,320,249 M,0,47,,320,240 F,0,47,2822,1,0 F,0,2822,5249,0,0.0003603697 F,0,5249,5596,0.0003603697,1 F,0,5596,8284,1 F,0,8284,8371,1,0 F,0,8371,10452,0 F,0,10452,11145,0,1 F,0,11145,13833,1 F,0,13833,13920,1,0 F,0,13920,16001,0 F,0,16001,16694,0,1 F,0,16694,19382,1 F,0,19382,19469,1,0 F,0,19469,21897,0,0.045977 F,0,21897,22243,0.045977,1 F,0,22243,25018,1,0 F,0,25018,45827,0 F,0,45827,47215,0,1 F,0,47215,48602,1,0.86176 F,0,48602,49989,0.86176,1 F,0,49989,51376,1,0.7849602 F,0,51376,52764,0.7849602,1 F,0,52764,54151,1,0.7081599 F,0,54151,55538,0.7081599,1 F,0,55538,56926,1,0.6159999 F,0,56926,58313,0.6159999,1 F,0,58313,59700,1,0.4316801 F,0,59700,61087,0.4316801,1 F,0,61087,62475,1,0.4624 F,0,62475,63862,0.4624,1 F,0,63862,65249,1,0.4623999 F,0,65249,66637,0.4623999,1 F,0,66637,68024,1,0 F,0,68024,69411,0,1 F,0,69411,86058,1,0 F,0,86058,88833,0,1 F,0,88833,90307,1,0 F,0,90307,90914,0,1 F,0,90914,91001,1,0.2668842 F,0,91001,91261,0.2668842,0 F,0,91261,134613,0 F,0,134613,136001,0,1 F,0,136001,137388,1 F,0,137388,138775,1 F,0,138775,140596,1 F,0,140596,140943,1 F,0,140943,141550,1 F,0,141550,142935,1 F,0,142935,,1
Sprite,Foreground,Centre,"end.png",320,240 S,0,136087,,0.3548801 F,0,136087,136174,0,1 F,0,136174,137388,1 F,0,137388,138428,1,0.5113003 F,0,138428,138775,0.5113003,1 F,0,138775,138783,1 F,0,138783,140163,1 F,0,140163,141550,1,0 F,0,141550,141723,0 F,0,141723,142935,0 F,0,142935,,0
Sprite,Foreground,Centre,"18808039.jpg",320,240 F,0,136001,136174,0,1 F,0,136174,137388,1 S,0,137388,,0.1307199 F,0,137388,138775,1 M,0,137388,142935,381,310 F,0,138775,140163,1 F,0,140163,141550,1,0 F,0,141550,142935,0 M,0,142935,,381,310 F,0,142935,,0
//Storyboard Sound Samples
//Background Colour Transformations
3,100,163,162,255

[TimingPoints]
2822,346.820809248555,4,1,0,70,1,0
5596,-100,4,1,0,25,0,1
8371,-100,4,1,0,70,0,0
11145,-100,4,1,0,25,0,1
13920,-100,4,1,0,70,0,0
16694,-100,4,1,0,25,0,1
19469,-100,4,1,0,70,0,0
22243,-100,4,1,0,25,0,1
23631,-100,4,1,0,30,0,1
23804,-100,4,1,0,35,0,1
23978,-100,4,1,0,40,0,1
24151,-100,4,1,0,45,0,1
24324,-100,4,1,0,50,0,1
24498,-100,4,1,0,55,0,1
24671,-100,4,1,0,60,0,1
24845,-100,4,1,0,65,0,1
25018,-100,4,1,0,70,0,1
45827,-100,4,1,0,5,0,0
47215,-200,4,1,0,25,0,0
48602,-133.333333333333,4,1,0,25,0,0
49989,-100,4,1,0,25,0,0
51376,-133.333333333333,4,1,0,25,0,0
52764,-200,4,1,0,25,0,0
54151,-166.666666666667,4,1,0,25,0,0
55538,-125,4,1,0,25,0,0
56926,-111.111111111111,4,1,0,25,0,0
58313,-153.846153846154,4,1,0,25,0,0
59700,-125,4,1,0,25,0,0
61087,-200,4,1,0,25,0,0
62475,-105.263157894737,4,1,0,25,0,0
63862,-200,4,1,0,25,0,0
65249,-133.333333333333,4,1,0,25,0,0
66637,-166.666666666667,4,1,0,25,0,0
68024,-100,4,1,0,25,0,0
83284,-80,4,1,0,25,0,0
84671,-71.4285714285714,4,1,0,25,0,0
86058,-64.5161290322581,4,1,0,25,0,0
87446,-58.8235294117647,4,1,0,25,0,0
88833,-50,4,1,0,25,0,0
91608,-100,4,1,0,25,0,0
92994,346.820809248555,4,1,0,25,1,0
92995,-1,4,1,0,70,0,1
94382,-100,4,1,0,25,0,0
95768,346.820809248555,4,1,0,70,1,1
95769,-1,4,1,0,70,0,1
97157,-100,4,1,0,25,0,0
98543,346.820809248555,4,1,0,70,1,1
98544,-1,4,1,0,70,0,1
99931,-100,4,1,0,25,0,0
101318,346.820809248555,4,1,0,70,1,1
101319,-1,4,1,0,70,0,1
102706,-100,4,1,0,25,0,0
104092,346.820809248555,4,1,0,70,1,1
104093,-1,4,1,0,70,0,1
105480,-100,4,1,0,25,0,0
106867,346.820809248555,4,1,0,70,1,1
106868,-1,4,1,0,70,0,1
108255,-100,4,1,0,25,0,0
109641,346.820809248555,4,1,0,70,1,1
109642,-1,4,1,0,70,0,1
111030,-100,4,1,0,25,0,0
112416,346.820809248555,4,1,0,70,1,1
112417,-1,4,1,0,70,0,1
113804,-100,4,1,0,25,0,0
115190,346.820809248555,4,1,0,70,1,1
115191,-1,4,1,0,70,0,1
116579,-100,4,1,0,25,0,0
117965,346.820809248555,4,1,0,70,1,1
117966,-1,4,1,0,70,0,1
119353,-100,4,1,0,25,0,0
122127,346.820809248555,4,1,0,70,1,1
122128,-1,4,1,0,70,0,1
124902,-100,4,1,0,25,0,0
127676,346.820809248555,4,1,0,70,1,1
127677,-1,4,1,0,70,0,1
130452,-100,4,1,0,25,0,0
133225,346.820809248555,4,1,0,70,1,1
133226,-1,4,1,0,70,0,1
136174,-100,4,1,0,25,0,0

[Colours]
Combo1 : 43,78,104
Combo2 : 177,67,78

[HitObjects]
256,192,87446,12,0,90220,0:0:0:0:
256,192,92995,5,0,0:0:0:0:
256,192,93168,1,8,0:0:0:0:
256,192,93341,1,8,0:0:0:0:
256,192,93515,1,8,0:0:0:0:
256,192,93688,1,0,0:0:0:0:
256,192,93862,1,8,0:0:0:0:
256,192,94035,1,0,0:0:0:0:
256,192,94209,1,8,0:0:0:0:
256,192,95769,1,0,0:0:0:0:
256,192,95943,1,8,0:0:0:0:
256,192,96116,1,0,0:0:0:0:
256,192,96290,1,8,0:0:0:0:
256,192,96463,1,0,0:0:0:0:
256,192,96550,1,0,0:0:0:0:
256,192,96637,1,0,0:0:0:0:
256,192,96810,1,8,0:0:0:0:
256,192,96897,1,8,0:0:0:0:
256,192,96983,1,8,0:0:0:0:
256,192,98544,1,8,0:0:0:0:
256,192,98631,1,8,0:0:0:0:
256,192,98717,1,8,0:0:0:0:
256,192,98891,1,8,0:0:0:0:
256,192,98978,1,8,0:0:0:0:
256,192,99064,1,0,0:0:0:0:
256,192,99238,1,8,0:0:0:0:
256,192,99324,1,8,0:0:0:0:
256,192,99411,1,8,0:0:0:0:
256,192,99585,1,8,0:0:0:0:
256,192,99671,1,8,0:0:0:0:
256,192,99758,1,0,0:0:0:0:
256,192,101319,1,8,0:0:0:0:
256,192,101492,1,8,0:0:0:0:
256,192,101665,1,8,0:0:0:0:
256,192,101839,1,8,0:0:0:0:
256,192,102012,1,8,0:0:0:0:
256,192,102099,1,8,0:0:0:0:
256,192,102186,1,0,0:0:0:0:
256,192,102272,1,0,0:0:0:0:
256,192,102359,1,8,0:0:0:0:
256,192,102446,1,8,0:0:0:0:
256,192,102532,1,0,0:0:0:0:
256,192,104093,1,0,0:0:0:0:
256,192,104180,1,0,0:0:0:0:
256,192,104267,1,8,0:0:0:0:
256,192,104353,1,0,0:0:0:0:
256,192,104440,1,0,0:0:0:0:
256,192,104613,1,8,0:0:0:0:
256,192,104787,1,0,0:0:0:0:
256,192,104960,1,8,0:0:0:0:
256,192,105047,1,8,0:0:0:0:
256,192,105134,1,0,0:0:0:0:
256,192,105307,1,8,0:0:0:0:
256,192,106868,1,0,0:0:0:0:
256,192,106954,1,8,0:0:0:0:
256,192,107041,1,8,0:0:0:0:
256,192,107128,1,8,0:0:0:0:
256,192,107215,1,0,0:0:0:0:
256,192,107388,1,8,0:0:0:0:
256,192,107561,1,0,0:0:0:0:
256,192,107648,1,8,0:0:0:0:
256,192,107735,1,0,0:0:0:0:
256,192,107822,1,8,0:0:0:0:
256,192,107908,1,8,0:0:0:0:
256,192,107995,1,8,0:0:0:0:
256,192,108082,1,0,0:0:0:0:
256,192,109642,1,0,0:0:0:0:
256,192,109729,1,8,0:0:0:0:
256,192,109816,1,0,0:0:0:0:
256,192,109902,1,0,0:0:0:0:
256,192,109989,1,8,0:0:0:0:
256,192,110163,1,0,0:0:0:0:
256,192,110249,1,0,0:0:0:0:
256,192,110336,1,8,0:0:0:0:
256,192,110509,1,8,0:0:0:0:
256,192,110596,1,0,0:0:0:0:
256,192,110683,1,0,0:0:0:0:
256,192,110769,1,8,0:0:0:0:
256,192,110856,1,8,0:0:0:0:
256,192,112417,1,0,0:0:0:0:
256,192,112504,1,0,0:0:0:0:
256,192,112590,1,0,0:0:0:0:
256,192,112677,1,0,0:0:0:0:
256,192,112764,1,8,0:0:0:0:
256,192,112850,1,0,0:0:0:0:
256,192,112937,1,0,0:0:0:0:
256,192,113024,1,0,0:0:0:0:
256,192,113111,1,8,0:0:0:0:
256,192,113284,1,0,0:0:0:0:
256,192,113342,1,0,0:0:0:0:
256,192,113400,1,0,0:0:0:0:
256,192,113457,1,8,0:0:0:0:
216,144,115191,1,0,0:0:0:0:
216,144,115278,1,0,0:0:0:0:
216,144,115365,1,8,0:0:0:0:
216,144,115452,1,8,0:0:0:0:
216,144,115538,1,0,0:0:0:0:
216,144,115625,1,0,0:0:0:0:
216,144,115712,1,8,0:0:0:0:
216,144,115798,1,8,0:0:0:0:
216,144,115885,1,0,0:0:0:0:
216,144,116058,1,8,0:0:0:0:
216,144,116145,1,8,0:0:0:0:
216,144,116232,1,0,0:0:0:0:
216,144,116405,1,8,0:0:0:0:
216,144,117966,1,0,0:0:0:0:
216,144,118139,1,8,0:0:0:0:
216,144,118226,1,8,0:0:0:0:
216,144,118313,1,0,0:0:0:0:
216,144,118400,1,8,0:0:0:0:
216,144,118486,1,8,0:0:0:0:
216,144,118573,1,8,0:0:0:0:
216,144,118660,1,0,0:0:0:0:
216,144,118746,1,8,0:0:0:0:
216,144,118833,1,8,0:0:0:0:
216,144,118920,1,8,0:0:0:0:
216,144,119006,1,0,0:0:0:0:
216,144,119180,1,8,0:0:0:0:
256,192,122128,1,0,0:0:0:0:
256,192,122215,1,0,0:0:0:0:
256,192,122301,1,8,0:0:0:0:
256,192,122475,1,0,0:0:0:0:
256,192,122561,1,0,0:0:0:0:
256,192,122648,1,8,0:0:0:0:
256,192,122822,1,0,0:0:0:0:
256,192,122995,1,8,0:0:0:0:
256,192,123082,1,8,0:0:0:0:
256,192,123168,1,0,0:0:0:0:
256,192,123342,1,8,0:0:0:0:
256,192,123515,1,0,0:0:0:0:
256,192,123602,1,0,0:0:0:0:
256,192,123689,1,0,0:0:0:0:
256,192,123775,1,0,0:0:0:0:
256,192,123862,1,8,0:0:0:0:
256,192,124035,1,0,0:0:0:0:
256,192,124209,1,8,0:0:0:0:
256,192,124295,1,8,0:0:0:0:
256,192,124382,1,8,0:0:0:0:
256,192,124469,1,8,0:0:0:0:
256,192,124556,1,0,0:0:0:0:
256,192,124729,1,8,0:0:0:0:
248,184,127677,1,0,0:0:0:0:
248,184,127764,1,0,0:0:0:0:
248,184,127850,1,8,0:0:0:0:
248,184,127937,1,0,0:0:0:0:
248,184,128024,1,0,0:0:0:0:
248,184,128111,1,0,0:0:0:0:
248,184,128197,1,8,0:0:0:0:
248,184,128371,1,0,0:0:0:0:
248,184,128457,1,0,0:0:0:0:
248,184,128544,1,8,0:0:0:0:
248,184,128631,1,0,0:0:0:0:
248,184,128717,1,0,0:0:0:0:
248,184,128804,1,8,0:0:0:0:
248,184,128891,1,8,0:0:0:0:
248,184,129064,1,0,0:0:0:0:
248,184,129151,1,0,0:0:0:0:
248,184,129238,1,8,0:0:0:0:
248,184,129324,1,0,0:0:0:0:
248,184,129411,1,0,0:0:0:0:
248,184,129498,1,8,0:0:0:0:
248,184,129585,1,8,0:0:0:0:
248,184,129671,1,8,0:0:0:0:
248,184,129758,1,0,0:0:0:0:
248,184,129845,1,0,0:0:0:0:
248,184,129932,1,8,0:0:0:0:
248,184,130018,1,0,0:0:0:0:
248,184,130105,1,0,0:0:0:0:
248,184,130192,1,8,0:0:0:0:
248,184,130279,1,8,0:0:0:0:
248,184,133226,1,0,0:0:0:0:
248,184,133313,1,0,0:0:0:0:
248,184,133400,1,8,0:0:0:0:
248,184,133486,1,0,0:0:0:0:
248,184,133573,1,0,0:0:0:0:
248,184,133660,1,8,0:0:0:0:
248,184,133747,1,8,0:0:0:0:
248,184,133833,1,8,0:0:0:0:
248,184,133920,1,0,0:0:0:0:
248,184,134006,1,8,0:0:0:0:
248,184,134093,1,8,0:0:0:0:
248,184,134180,1,8,0:0:0:0:
248,184,134267,1,0,0:0:0:0:
248,184,134353,1,8,0:0:0:0:
248,184,134440,1,8,0:0:0:0:
248,184,134527,1,0,0:0:0:0:
248,184,134613,1,0,0:0:0:0:
248,184,134700,1,0,0:0:0:0:
248,184,134787,1,8,0:0:0:0:
248,184,134873,1,0,0:0:0:0:
248,184,134960,1,0,0:0:0:0:
248,184,135047,1,8,0:0:0:0:
248,184,135134,1,8,0:0:0:0:
248,184,135220,1,8,0:0:0:0:
248,184,135307,1,0,0:0:0:0:
248,184,135393,1,8,0:0:0:0:
248,184,135480,1,8,0:0:0:0:
248,184,135567,1,8,0:0:0:0:
248,184,135654,1,0,0:0:0:0:
248,184,135740,1,8,0:0:0:0:
248,184,135827,1,8,0:0:0:0:
248,184,135914,1,0,0:0:0:0:
248,184,136001,1,0,0:0:0:0:
