osu file format v9

[General]
AudioFilename: alice's emotion - scarlet eyes - 04 - volar.mp3
AudioLeadIn: 0
PreviewTime: 91608
Countdown: 0
SampleSet: Normal
StackLeniency: 0.7
Mode: 0
LetterboxInBreaks: 1

[Editor]
DistanceSpacing: 1
BeatDivisor: 4
GridSize: 4

[Metadata]
Title:Volar
Artist:REDALiCE
Creator:Loctav
Version:Normal
Source:Touhou
Tags:alice emotion margatroid dollmaker of buccuresti darkdunskin broetchen8441 jenny

[Difficulty]
HPDrainRate:3
CircleSize:3
OverallDifficulty:3
ApproachRate:4
SliderMultiplier:0.8
SliderTickRate:1

[Events]
//Background and Video events
0,0,"bg.jpg"
//Break Periods
2,47415,51444
2,114004,123582
2,136201,140230
//Storyboard Layer 0 (Background)
//Storyboard Layer 1 (Fail)
//Storyboard Layer 2 (Pass)
//Storyboard Layer 3 (Foreground)
//Storyboard Sound Samples
//Background Colour Transformations
3,100,163,162,255

[TimingPoints]
2822,346.820809248555,4,1,0,70,1,0
52764,-100,4,2,0,50,0,0
91608,-100,4,1,0,70,0,1
113804,-100,4,1,0,70,0,0
141550,-100,4,2,0,50,0,0
158197,-100,4,1,0,70,0,1
179006,-100,4,1,0,70,0,0
180394,-100,4,1,0,70,0,1
180480,-100,4,1,0,70,0,0

[Colours]
Combo1 : 130,141,62
Combo2 : 177,67,78
Combo3 : 43,78,104

[HitObjects]
40,244,2822,2,0,B|98:205|164:248,3,120,4|0|4|0
238,326,4902,1,8
318,326,5249,1,8
276,256,5596,6,0,B|276:112|396:200|396:64,1,240.000001788139,0|8
315,69,6983,2,0,B|314:199|434:111|434:255,1,240.000001788139,0|8
354,253,8371,6,0,B|298:289|240:250,3,120,4|0|4|0
156,166,10452,1,8
212,109,10798,1,8
268,165,11145,6,0,B|398:166|310:46|454:46,1,240.000001788139,0|8
453,126,12532,2,0,B|309:125|397:5|267:6,1,240.000001788139,0|8
196,42,13920,6,0,B|126:72|159:147,1,120,0|0
193,210,14787,1,8
271,226,15134,1,0
327,169,15480,1,8
271,62,16001,1,8
195,88,16348,1,8
141,147,16694,6,0,B|73:104|11:151|1:219|75:266,1,240,0|8
153,255,18082,2,0,B|220:297|282:250|292:182|218:135,1,240,0|8
286,92,19469,5,0
201,176,19989,2,0,B|251:175|259:218,1,80.0000005960464,0|8
192,262,20683,2,0,B|200:304|252:304,1,80.0000005960464,0|8
335,219,21550,1,8
335,138,21897,1,8
278,81,22243,6,0,B|135:81|223:201|93:200,1,240.000001788139,0|8
256,192,23631,12,4,25018
212,184,25712,5,0
264,124,26058,1,8
344,120,26405,2,0,B|384:168|328:200,1,80.0000005960464,0|8
296,256,27099,2,0,B|256:288|208:248,1,80.0000005960464,0|8
165,201,27793,5,0
51,87,28486,1,0
131,87,28833,1,8
212,92,29180,2,0,B|252:140|196:172,1,80.0000005960464,0|8
210,242,29874,2,0,B|170:290|226:322,1,80.0000005960464,0|8
284,276,30567,5,0
340,219,30914,2,0,B|384:155|340:95,1,120,0|8
267,106,31781,2,0,B|239:142|267:178,1,80,0|8
352,264,32648,2,0,B|380:300|352:336,1,80,0|8
270,337,33342,6,0,B|234:365|198:337,1,80,0|8
144,266,34035,1,0
200,209,34382,1,8
143,152,34729,2,0,B|114:114|142:78,1,80,0|8
222,78,35423,1,0
275,141,35769,1,0
331,84,36116,6,0,B|389:45|455:88,3,120
385,186,38197,1,8
385,265,38543,1,8
304,265,38891,6,0,B|232:313|144:265,3,160.000001192093
152,188,41319,1,8
210,133,41665,5,0
266,76,42012,2,0,B|314:20|374:76,1,120,0|8
426,129,42879,1,0
426,209,43226,1,8
341,293,43746,1,8
284,236,44093,1,8
256,192,44440,12,4,47215
64,80,52764,6,2,B|96:48|96:48|136:48,1,80.0000005960464
212,48,53457,1,2
320,164,54151,2,2,B|352:132|352:132|392:132,2,80.0000005960464
320,324,55538,6,2,B|232:324,2,80.0000005960464
376,267,56579,1,0
319,210,56926,2,2,B|231:210,2,80.0000005960464
375,153,57966,1,0
431,96,58313,5,0
374,39,58660,1,2
317,95,59006,2,0,B|245:47,1,80.0000005960464,0|2
193,107,59700,1,0
136,164,60047,1,2
192,221,60393,2,8,B|147:287,1,80.0000005960464,0|2
212,336,61087,6,0,B|248:360|288:332,3,80,0|2|0|2
343,276,62475,2,8,B|339:290|370:237|346:201,3,80,0|2|0|2
317,130,63862,6,8,B|245:67|173:130,1,160.000001192093,0|2
60,242,65249,2,8,B|132:305|204:242,1,160.000001192093,0|2
363,248,66637,6,0,B|303:181|359:101,2,160.000001192093,0|2|0
370,327,68371,1,0
434,280,68717,1,0
459,203,69064,1,2
400,148,69411,6,0,B|292:64|172:148,1,240,4|0
121,200,70798,1,2
361,200,71839,5,0
306,259,72186,2,0,B|362:295|418:259,2,120,2|2|0
252,200,73573,1,2
252,200,74267,1,0
360,84,74960,6,0,B|252:0|132:84,1,240
136,160,76348,1,10
263,307,77388,5,0
263,226,77735,1,2
319,169,78082,1,2
358,169,78255,2,0,B|379:236|452:226,1,120,0|2
465,147,79122,2,8,B|419:80,1,80.0000005960464,0|2
363,24,79816,2,8,B|317:90,1,80.0000005960464,0|2
261,146,80509,6,0,B|157:246|37:146,1,240
84,84,81897,2,0,B|104:32|192:32|216:84,1,160
214,162,82937,5,0
270,218,83284,1,0
270,298,83631,1,0
298,326,83804,1,2
417,326,84324,6,0,B|446:291|414:251,4,80.0000005960464,0|0|0|0|0
344,288,86058,6,0,B|241:386|129:293,1,240
168,220,87446,2,0,B|188:168|276:168|300:220,1,160
357,166,88486,5,0
292,116,88833,1,2
212,104,89180,1,2
172,112,89353,2,2,B|116:156|116:240|172:292,1,200,2|2
77,197,91608,6,0,B|100:156|152:156,1,80.0000005960464,4|8
198,213,92301,2,0,B|221:254|273:254,1,80.0000005960464,0|8
319,196,92995,2,0,B|341:155|383:156,1,80.0000005960464,0|8
440,212,93689,2,0,B|481:212|504:171,1,80.0000005960464,0|8
447,115,94382,5,0
286,115,95076,1,8
286,274,95769,2,0,B|334:274|334:218,3,80.0000005960464,0|8|0|8
333,142,97157,5,0
446,255,97850,1,8
285,255,98544,2,0,B|245:287|205:247,3,80.0000005960464,0|8|0|8
132,253,99931,6,0,B|132:173,1,80.0000005960464,0|8
188,116,100625,1,0
244,172,100972,1,8
301,229,101319,2,0,B|381:229,1,80.0000005960464,0|8
437,172,102012,1,0
323,58,102706,6,0,B|348:76|348:140,1,80.0000005960464,0|8
267,131,103400,2,0,B|242:148|242:204,1,80.0000005960464,0|8
162,204,104093,1,0
105,260,104440,2,0,B|80:278|80:342,2,80.0000005960464,8|0|8
161,203,105480,6,8,B|152:180|152:180|152:112,1,80.0000005960464,0|8
208,67,106174,1,4
321,180,106868,1,0
207,293,107561,1,12
256,192,108255,12,0,110336
256,172,111030,6,0,B|256:252,3,80.0000005960464,0|8|0|8
200,316,112417,2,0,B|232:344|276:344|312:316,2,120
256,251,113804,1,4
256,192,124902,12,0,126983
96,64,127677,6,0,B|192:64,1,80.0000005960464,0|8
256,64,128371,2,0,B|256:152,1,80.0000005960464,0|8
336,144,129064,2,0,B|424:144,1,80.0000005960464,0|8
496,144,129758,2,0,B|496:232,1,80.0000005960464,0|8
439,280,130452,6,0,B|359:280,1,80.0000005960464,0|8
278,280,131146,2,8,B|278:200,1,80.0000005960464,0|8
278,119,131839,2,0,B|198:119,1,80.0000005960464,0|8
117,119,132532,2,0,B|117:199,1,80.0000005960464,0|8
117,279,133226,5,0
197,279,133573,1,0
225,250,133746,2,0,B|293:182,3,80.0000005960464
364,108,135307,1,8
309,51,135654,1,8
252,107,136001,1,4
80,56,141550,5,0
136,112,141897,2,0,B|176:152,1,40.0000002980232,0|2
244,140,142417,1,2
324,140,142764,1,0
288,212,143111,1,0
344,268,143457,2,0,B|344:308,1,40.0000002980232,0|2
400,364,143978,1,2
456,307,144324,5,0
456,226,144671,1,2
399,169,145018,2,0,B|383:130|399:90,1,80.0000005960464
319,91,145712,1,0
262,147,146058,1,0
262,227,146405,1,4
205,283,146752,1,4
148,226,147099,6,0,B|160:178|208:180,1,80.0000005960464
261,123,147793,2,0,B|249:75|204:77,1,80.0000005960464
124,77,148486,2,0,B|100:117|124:165,1,80.0000005960464
199,153,149180,2,0,B|223:193|199:241,1,80.0000005960464,0|0
203,269,149700,6,0,B|307:304|393:225,1,200
332,172,150914,1,2
388,115,151261,2,2,B|428:91|472:115,3,80
464,191,152648,6,0,B|404:244,1,80.0000005960464,0|2
347,187,153342,2,0,B|287:240,1,80.0000005960464,0|2
230,183,154035,1,0
173,126,154382,1,2
229,69,154729,2,2,B|269:45|309:69,1,80
333,95,155249,6,0,B|374:151|338:207,1,120.00000089407,0|2
271,251,156116,1,0
191,261,156463,1,2
137,201,156810,1,0
192,143,157157,1,2
192,62,157504,2,0,B|220:38|220:38|275:37,1,80.0000005960464,0|2
323,89,158197,5,4
376,148,158544,1,0
320,203,158891,1,2
172,144,159585,5,0
115,200,159931,1,0
171,256,160278,1,8
320,204,160972,5,4
376,147,161319,1,0
319,90,161665,1,2
160,112,162359,5,0
160,192,162706,2,0,B|106:198|100:256,1,80
179,276,163400,1,8
196,356,163746,2,0,B|250:350|256:292,1,80
252,224,164440,1,6
256,192,165134,12,0,166521
256,144,167214,5,6
256,192,167908,12,0,169296
386,192,169988,5,2
247,270,170683,5,0
248,188,171030,2,0,B|206:184|200:130,1,80
284,111,171724,1,8
316,37,172070,2,0,B|357:40|363:94,1,80
364,172,172764,1,6
256,192,173457,12,2,174844
256,192,175538,5,6
256,192,176232,12,0,177619
255,190,178313,1,6
412,233,179006,6,0,B|436:281|404:321,2,80.0000005960464,0|0|0
340,272,180047,1,6
259,272,180394,5,6
