osu file format v9

[General]
AudioFilename: alice's emotion - scarlet eyes - 04 - volar.mp3
AudioLeadIn: 0
PreviewTime: 91608
Countdown: 0
SampleSet: Normal
StackLeniency: 0.7
Mode: 0
LetterboxInBreaks: 1

[Editor]
DistanceSpacing: 1.5
BeatDivisor: 4
GridSize: 4

[Metadata]
Title:Volar
Artist:REDALiCE
Creator:Loctav
Version:Insane
Source:Touhou
Tags:alice emotion margatroid dollmaker of buccuresti darkdunskin broetchen8441 jenny

[Difficulty]
HPDrainRate:7
CircleSize:5
OverallDifficulty:8
ApproachRate:8
SliderMultiplier:1.4
SliderTickRate:1

[Events]
//Background and Video events
0,0,"bg.jpg"
//Break Periods
2,47415,52013
2,136201,151897
//Storyboard Layer 0 (Background)
//Storyboard Layer 1 (Fail)
//Storyboard Layer 2 (Pass)
//Storyboard Layer 3 (Foreground)
//Storyboard Sound Samples
//Background Colour Transformations
3,100,163,162,255

[TimingPoints]
2822,346.820809248555,4,1,0,70,1,0
52764,-100,4,2,0,60,0,0
69324,-133.333333333333,4,2,0,75,0,0
91608,-100,4,1,0,70,0,1
113804,-100,4,1,0,70,0,0
152648,-100,4,2,0,60,0,0
158197,-100,4,1,0,70,0,1
179006,-100,4,1,0,70,0,0
180394,-100,4,1,0,70,0,1
180480,-100,4,1,0,70,0,0

[Colours]
Combo1 : 130,141,62
Combo2 : 177,67,78
Combo3 : 43,78,104

[HitObjects]
225,159,2822,1,4
368,160,3168,2,8,B|432:192,3,70,8|0|8|0
430,191,4035,1,8
437,51,4382,2,8,B|375:20,1,70,0|8
307,38,4728,1,0
256,84,4902,1,8
256,336,5249,1,8
256,200,5595,5,0
184,200,5769,1,0
112,200,5943,1,8
40,200,6116,1,8
112,200,6290,1,0
184,200,6463,1,0
256,200,6637,1,8
328,200,6810,1,8
328,128,6983,5,0
328,200,7157,1,0
328,272,7330,1,8
328,344,7503,1,8
328,272,7677,1,0
328,200,7850,1,0
328,128,8024,1,8
328,56,8197,1,8
256,56,8370,5,4
392,304,8717,1,0
256,304,8890,1,8
96,72,9237,1,8
256,304,9584,1,0
424,72,9931,1,8
256,304,10277,1,0
256,160,10451,1,8
256,160,10798,1,12
144,96,11145,6,0,B|152:136|192:152|192:152|216:168|216:168,1,70,8|0
255,149,11492,2,0,B|263:109|303:93|303:93|327:77|327:77,1,70,8|0
366,95,11839,2,8,B|374:135|414:151|414:151|438:167|438:167,1,70,8|8
440,86,12186,2,0,B|432:46|392:30|392:30|368:14|368:14,1,70,8|0
328,32,12532,2,0,B|320:72|280:88|280:88|256:104|256:104,1,70,8|0
224,136,12879,5,8
264,232,13053,1,0
336,160,13225,1,8
224,136,13399,1,8
264,232,13572,1,8
336,160,13746,1,0
224,136,13920,1,4
108,312,14267,6,0,B|64:321|52:283,3,70,0|8|8|0
52,72,15133,1,8
256,32,15480,1,8
257,211,15827,2,0,B|240:252|200:236,3,70,0|8|8|0
256,142,16694,6,0,B|256:212,1,70,8|0
326,212,17040,2,0,B|256:212,1,70,8|0
256,282,17388,2,0,B|256:212,1,70,8|8
186,212,17735,2,0,B|256:212,1,70,8|0
238,137,18081,6,0,B|196:58,1,70,8|0
299,154,18428,2,0,B|361:122,1,70,8|0
282,216,18775,2,8,B|317:276,1,70,8|8
220,198,19122,2,0,B|143:242,1,70,8|0
256,184,19469,5,4
440,336,19815,1,8
440,336,19989,1,0
440,56,20335,1,0
440,336,20682,1,8
160,336,21029,1,8
256,72,21376,2,0,B|292:52|324:72,1,70,0|8
440,336,21896,1,8
256,192,22243,12,4,23631
416,112,25017,6,0,B|399:152|399:152|352:176,1,70,12|0
304,164,25365,2,0,B|287:124|287:124|240:100,1,70,0|0
193,111,25712,2,0,B|176:151|176:151|129:175,1,70,8|0
82,163,26058,2,0,B|65:123|65:123|18:99,1,70,0|0
39,284,26405,6,0,B|63:272|63:272|80:232,1,70,8|0
149,232,26751,2,0,B|173:245|173:245|190:285,1,70,0|0
259,284,27098,2,0,B|283:272|283:272|300:232,1,70,8|0
370,232,27446,2,0,B|394:245|394:245|411:285,1,70
372,232,27793,6,0,B|352:196|372:164,3,70,0|8|8|8
321,116,28486,2,0,B|285:136|253:116,3,70,0|8|8|8
216,224,29179,5,0
152,248,29353,1,8
112,192,29526,1,8
160,136,29700,1,8
224,104,29873,1,0
280,144,30046,1,8
328,192,30220,1,8
272,240,30393,1,8
216,200,30566,5,4
76,188,30913,2,0,B|132:204|180:172|180:96,1,140,8|0
104,120,31434,1,8
384,120,31781,1,0
104,120,32128,1,8
256,352,32474,1,0
256,352,32648,1,8
104,120,32995,1,8
264,112,33342,6,0,B|232:128|232:128|192:112,1,70,8|0
112,256,33689,2,0,B|144:232|144:232|153:170,1,70,8|0
224,72,34035,2,0,B|192:88|192:88|152:72,1,70,8|8
80,208,34382,2,0,B|112:192|112:192|120:128,1,70,8|0
264,112,34729,6,0,B|296:128|296:128|336:112,1,70,8|0
416,256,35076,2,0,B|384:232|384:232|375:170,1,70,8|0
304,72,35422,2,0,B|336:88|336:88|376:72,1,70,8|8
448,208,35769,2,0,B|416:192|416:192|408:128,1,70,8|0
256,72,36116,5,4
384,320,36462,1,0
384,320,36636,1,8
128,320,36983,1,8
384,320,37329,1,0
256,72,37676,1,8
256,352,38023,1,0
256,352,38197,1,8
256,72,38543,1,8
192,184,38890,6,0,B|232:184|232:184|276:220,1,70,8|0
318,184,39238,2,0,B|278:184|278:184|234:220,1,70,8|0
192,292,39585,2,0,B|232:292|232:292|276:328,1,70,8|8
318,292,39931,2,0,B|278:292|278:292|234:328,1,70,8|0
256,165,40278,6,0,B|233:184|233:184|193:184,1,70,8|0
255,165,40626,2,0,B|279:184|279:184|319:184,1,70,8|0
256,60,40972,2,0,B|232:78|232:78|192:78,1,70,8|8
255,60,41319,2,0,B|278:78|278:78|318:78,1,70,8|0
256,164,41665,5,4
64,304,42012,1,0
64,304,42185,1,8
256,60,42532,1,8
440,312,42879,1,0
256,60,43225,1,8
64,304,43572,1,0
64,304,43746,1,8
256,60,44093,1,8
256,192,44439,12,4,47215
256,128,52763,5,0
256,128,52936,1,2
256,256,53110,1,0
256,256,53283,1,2
192,192,53457,1,0
192,192,53630,1,2
320,192,53803,1,0
320,192,53977,1,2
192,128,54150,5,0
192,128,54324,1,2
320,256,54497,1,0
320,256,54671,1,2
320,128,54844,1,0
320,128,55017,1,2
192,256,55191,1,0
192,256,55365,1,2
256,192,55538,6,0,B|330:163,1,70
256,192,55885,2,2,B|288:119,1,70,2|2
256,192,56232,2,0,B|227:117,1,70,0|0
256,192,56578,2,0,B|176:162,1,70,2|2
256,256,56926,6,0,B|330:284,1,70
256,256,57273,2,2,B|288:328,1,70,2|2
256,256,57620,2,0,B|227:330,1,70,0|0
256,256,57966,2,0,B|176:285,1,70,2|2
184,208,58312,5,6
233,158,58486,1,0
296,184,58659,1,0
345,134,58832,1,0
295,84,59006,1,2
232,56,59179,1,0
182,105,59353,1,0
132,154,59526,1,0
181,203,59699,6,0,B|269:203,3,70,4|0|0|0
251,273,60394,2,2,B|155:273,3,70,2|0|0|0
160,200,61087,5,4
160,130,61260,1,2
220,168,61434,1,2
220,237,61607,1,2
160,276,61780,1,0
104,236,61954,1,2
104,166,62127,1,2
160,200,62301,1,2
220,236,62474,5,4
304,112,62647,1,2
304,240,62821,1,2
224,112,62994,1,2
336,176,63168,1,0
192,176,63341,1,2
264,176,63514,1,2
264,176,63688,1,2
220,236,63862,6,0,B|180:252|180:300,1,70
180,289,64209,1,0
180,289,64382,1,0
304,112,64556,2,0,B|344:96|344:48,1,70
343,58,64902,1,2
343,58,65076,1,2
136,92,65249,6,0,B|96:108|78:131,1,70
80,132,65596,1,2
80,132,65769,1,2
244,264,65943,2,0,B|226:240|186:224,1,70
186,224,66290,1,2
186,224,66463,1,2
368,112,66636,6,0,B|304:168|208:88,1,140
168,96,67157,1,0
136,160,67329,1,2
260,72,67676,1,2
180,184,68024,6,0,B|216:220,7,35
219,230,68717,1,0
221,254,68804,1,0
231,278,68891,1,0
244,297,68978,1,0
264,316,69064,1,8
289,323,69151,1,0
312,324,69237,1,8
364,320,69410,6,0,B|308:104|444:136|356:256|236:40,1,314.999990612269,4|2
148,320,70798,2,0,B|204:104|68:136|156:256|276:40,1,314.999990612269,0|2
255,73,72185,2,0,B|255:185,1,104.999996870756,0|2
255,178,72706,1,2
78,178,73052,1,0
256,315,73400,1,0
432,180,73746,1,0
255,178,74093,1,2
255,178,74267,1,2
408,312,74613,1,2
131,193,74961,5,0
35,73,75307,1,0
35,73,75481,1,2
131,193,75828,1,2
235,313,76174,1,2
339,193,76521,1,0
435,73,76868,1,0
435,73,77041,1,2
339,193,77388,1,2
235,313,77735,5,2
132,192,78082,1,0
132,192,78255,1,0
368,192,78775,1,6
264,192,79122,5,2
264,192,79295,1,0
368,192,79468,1,2
368,192,79642,1,2
200,192,79816,1,6
200,192,79989,1,0
432,192,80163,1,6
432,192,80336,1,0
176,112,80509,6,0,B|28:88|28:300|176:276,1,314.999990612269,2|0
277,276,81897,2,0,B|313:240,1,52.4999984353781
388,164,82416,1,0
388,164,82590,1,2
313,89,82937,1,2
240,228,83284,1,2
188,80,83631,1,2
284,128,83804,6,0,B|284:200|184:200|188:120,1,157.499995306134,2|0
237,41,84671,1,0
237,251,85365,1,0
342,251,85713,5,2
342,251,85885,1,0
390,202,86058,1,2
341,153,86232,1,0
341,153,86405,2,0,B|341:127|293:104,1,52.4999984353781
254,57,86752,5,0
254,57,86926,1,0
160,156,87272,1,0
192,274,87619,1,0
210,274,87706,1,0
228,274,87793,1,2
328,304,88139,1,2
330,212,88486,2,0,B|335:176|286:166,1,52.4999984353781
256,144,88833,6,0,B|256:104,7,26.2499992176891,2|2|0|0|2|2|0|0
256,160,89527,2,2,B|256:187,8,26.2499992176891,2|2|2|2|6|2|2|2|6
256,192,90307,12,0,91261
432,132,91607,6,2,B|432:212,1,70,6|0
368,204,91954,2,0,B|368:132,1,70,2|0
297,134,92301,2,0,B|225:134,1,70,2|2
227,203,92647,2,0,B|307:203,1,70,2|0
368,184,92994,5,8
417,134,93168,1,0
367,84,93341,1,8
349,66,93428,1,0
325,58,93514,1,0
254,58,93688,1,0
254,127,93861,1,0
254,128,94035,2,0,B|190:128|190:192,1,70,8|8
160,264,94382,6,0,B|240:264,1,70,2|0
352,264,94729,2,8,B|272:264,1,70,2|0
128,192,95075,2,2,B|208:192,1,70
384,192,95422,2,8,B|312:192,1,70,2|0
240,192,95769,5,8
264,192,95856,1,0
288,192,95942,1,0
337,241,96116,1,0
287,290,96289,1,0
186,227,96462,1,8
186,156,96636,1,0
289,96,96809,1,0
338,145,96983,1,0
136,72,97156,6,0,B|136:120,2,35,10|0|0
184,104,97504,2,8,B|184:64,2,35,10|0|0
232,72,97850,2,0,B|232:112,2,35,10|0|2
288,88,98197,1,10
288,88,98370,1,8
288,144,98543,6,0,B|312:176|288:216,1,70,0|8
288,320,98891,2,0,B|264:280|288:240,1,70,0|8
288,320,99238,1,0
288,320,99411,1,8
288,144,99585,1,8
288,144,99757,1,12
288,235,99931,5,0
288,235,100018,1,0
288,235,100105,1,8
392,235,100277,1,2
392,150,100452,1,8
392,56,100625,2,0,B|352:56,2,35,2|0|10
288,56,100971,1,10
192,96,101144,1,8
232,200,101318,5,0
232,144,101491,1,8
288,144,101665,1,0
288,200,101839,1,8
256,256,102012,5,0
176,176,102185,1,8
256,88,102358,1,8
344,176,102532,1,8
256,176,102706,5,2
256,176,102879,1,8
176,176,103053,1,2
344,176,103225,1,8
96,176,103400,1,2
427,176,103573,2,10,B|464:152|412:108,2,70,10|10|8
176,176,104092,5,0
176,176,104266,1,8
344,176,104439,1,0
344,176,104613,1,8
256,80,104786,1,0
256,240,104960,2,8,B|256:168,2,70,8|8|8
256,240,105480,6,0,B|216:256|216:256|192:288,1,70,2|8
256,240,105827,2,0,B|273:262|273:262|313:278,1,70,2|8
258,137,106174,6,8,B|275:159|275:159|315:175,1,70,2|10
258,138,106521,2,0,B|219:154|219:154|202:175,1,70,10|8
202,69,106868,6,0,B|232:64|232:64|256:32,1,70,0|8
312,69,107215,2,0,B|273:54|273:54|256:32,1,70,0|8
336,152,107561,5,0
256,152,107734,1,8
256,224,107907,1,8
336,224,108081,1,8
184,224,108254,5,2
184,296,108428,1,8
112,296,108601,1,2
112,224,108775,1,8
144,160,108948,5,10
88,112,109121,1,10
144,64,109295,1,10
192,112,109468,1,0
297,112,109642,5,0
325,49,109815,1,8
393,49,109988,1,0
421,112,110163,1,8
360,132,110336,5,0
360,200,110509,1,8
310,249,110682,1,8
260,298,110856,1,8
312,344,111029,5,2
361,294,111202,1,8
410,343,111376,1,2
459,293,111549,1,8
409,243,111723,5,2
359,193,111897,1,10
309,143,112069,1,10
259,192,112243,1,8
189,192,112416,5,0
139,142,112590,1,8
89,191,112763,1,0
44,136,112936,1,8
93,86,113110,5,0
162,86,113283,1,8
211,36,113457,1,8
260,85,113631,1,8
136,288,113804,6,8,B|264:232|264:232|416:304,1,280,0|0
416,144,114845,1,0
360,104,115017,1,0
304,144,115191,1,0
256,96,115364,1,0
200,144,115538,1,8
168,80,115711,1,0
96,80,115884,1,0
40,128,116058,1,0
128,144,116231,5,8
128,144,116578,2,0,B|200:312|96:296|80:176|288:272,1,280,0|8
331,260,117445,5,8
331,188,117618,1,0
260,188,117793,1,0
260,257,117965,1,8
154,257,118139,1,8
203,207,118312,1,8
153,157,118486,1,0
103,206,118660,1,8
103,206,119006,1,8
103,65,119353,6,8,B|231:121|231:121|383:49,1,280,0|0
456,161,120394,1,0
434,299,120741,2,0,B|266:227|282:331|402:347|306:139,1,280,0|8
184,125,121781,1,0
112,288,122127,5,0
184,320,122301,1,8
256,288,122474,1,0
328,320,122648,1,8
368,256,122821,1,0
328,192,122994,1,8
264,152,123168,1,8
192,184,123342,1,8
120,56,123514,5,0
120,312,123689,1,8
120,120,123861,1,0
120,248,124035,1,8
120,184,124209,2,0,B|208:184,1,70,0|8
192,184,124556,1,8
192,184,124729,1,8
264,184,124902,6,0,B|336:352|232:336|216:216|424:312,1,280,0|8
472,184,125942,1,8
352,256,126289,5,0
352,112,126462,1,0
352,112,126637,1,8
160,192,126983,1,0
340,300,127330,1,8
464,132,127676,1,0
256,96,128024,1,8
256,96,128197,2,0,B|328:216|208:216|256:376,1,280
256,288,129064,5,0
312,256,129237,1,8
344,192,129410,1,0
312,128,129584,1,8
256,96,129757,1,0
200,128,129931,1,8
168,192,130104,1,8
192,256,130277,1,8
128,256,130452,6,8,B|256:312|256:312|408:240,1,280,0|0
112,192,131491,1,8
368,76,131839,1,0
292,328,132185,1,8
184,68,132532,1,0
424,212,132879,1,8
164,312,133226,1,4
332,92,133572,1,12
256,192,133746,12,4,136001
256,72,152647,5,0
200,120,152821,1,0
200,192,152995,1,2
256,232,153168,1,2
320,200,153341,1,0
320,128,153514,2,2,B|256:160,1,70,0|2
257,159,153861,1,0
257,159,154035,5,0
256,296,154381,1,2
256,296,154728,2,0,B|320:248|176:200|283:162,1,140,2|0
256,176,155249,1,2
355,76,155596,6,0,B|374:45|354:9,1,70,0|0
292,44,155943,1,0
236,84,156116,1,0
172,52,156290,2,0,B|152:88|172:120,1,70,0|0
121,168,156637,1,0
170,217,156810,1,0
232,184,156983,2,0,B|252:220|232:250,2,70,0|0|0
281,134,157504,1,0
281,134,157850,1,0
136,88,158197,5,4
136,232,158543,1,4
272,232,158890,1,4
408,80,159411,5,0
400,104,159498,1,0
376,112,159584,1,8
320,152,159757,1,4
264,104,159931,5,8
240,96,160018,1,0
216,104,160105,1,0
200,120,160191,1,0
192,144,160278,2,0,B|156:144,4,35,8|0|0|0|8
228,204,160798,1,8
208,280,160972,5,4
344,280,161319,1,6
344,136,161666,2,0,B|257:135|256:39,1,140,6|0
152,88,162186,5,0
128,88,162272,1,0
108,76,162358,1,8
40,64,162532,1,0
40,136,162706,5,8
48,160,162793,1,0
64,180,162879,1,0
84,192,162966,1,0
108,196,163053,1,8
132,200,163139,1,0
164,200,163226,2,0,B|192:228,2,35,0|0|8
212,148,163573,1,8
212,288,163746,5,4
424,104,164093,1,6
140,105,164440,1,6
340,36,164960,5,0
352,56,165047,1,0
352,80,165134,1,8
284,76,165307,1,0
280,144,165480,5,8
272,168,165567,1,0
272,192,165654,1,0
280,216,165741,1,0
292,236,165827,1,8
308,252,165914,1,0
336,268,166001,2,0,B|320:300,2,35,0|0|8
404,260,166348,1,8
472,260,166521,5,4
273,61,166868,1,6
74,259,167215,1,6
388,256,167735,6,0,B|388:200,2,35,0|0|8
324,172,168082,1,0
236,164,168255,6,0,B|236:108,2,35,8|0|0
216,180,168515,1,0
196,192,168602,1,8
180,212,168689,1,0
168,236,168775,1,0
168,260,168862,1,0
180,284,168949,2,0,B|220:332,2,35,8|0|8
319,284,169295,5,4
464,44,169642,1,6
183,44,169989,1,6
56,212,170509,5,0
76,225,170596,1,0
99,217,170683,1,8
164,184,170856,1,8
228,216,171030,5,8
249,226,171116,1,0
273,226,171203,1,0
297,226,171290,1,0
317,213,171376,1,8
334,195,171463,1,0
334,170,171550,1,0
318,150,171637,1,0
300,132,171723,1,8
282,114,171810,1,0
282,89,171897,1,0
168,132,172070,5,4
366,330,172417,1,6
167,131,172764,1,6
376,120,173284,5,0
360,100,173371,1,0
336,96,173457,1,8
265,96,173631,1,0
215,145,173804,6,0,B|215:185,3,35,8|0|0|0
224,204,174151,1,8
240,224,174238,1,0
256,240,174324,1,0
276,256,174411,1,0
296,264,174498,1,8
320,268,174585,1,0
344,264,174671,1,0
344,123,174845,5,4
64,123,175191,1,6
216,328,175538,1,6
425,328,176058,6,0,B|409:296,2,35,0|0|8
474,278,176405,1,4
424,228,176579,5,8
425,203,176665,1,0
415,179,176752,1,0
395,166,176839,1,0
380,146,176926,1,8
373,122,177012,1,0
374,97,177099,1,0
365,77,177186,1,0
348,58,177272,1,8
323,53,177359,1,0
300,61,177446,1,0
124,112,177619,5,4
322,310,177966,1,14
123,111,178313,1,14
332,111,178833,6,0,B|352:131|352:161,2,35
319,209,179180,1,0
252,176,179353,5,8
244,152,179440,1,0
228,132,179527,1,0
212,116,179613,1,0
192,104,179700,2,0,B|136:76,3,35,8|0|0|0
136,88,180047,2,0,B|102:82|60:132,1,70,8|8
124,232,180394,5,4
