osu file format v9

[General]
AudioFilename: REDALiCE - Thalia.mp3
AudioLeadIn: 1996
PreviewTime: 32128
Countdown: 0
SampleSet: Soft
StackLeniency: 0.7
Mode: 0
LetterboxInBreaks: 1
EpilepsyWarning: 1

[Editor]
Bookmarks: 138104,170895,182755,188337
DistanceSpacing: 0.8
BeatDivisor: 4
GridSize: 8

[Metadata]
Title:Thalia
Artist:REDALiCE
Creator:[Error404]
Version:Normal
Source:Sound Online
Tags:touhou remilia scarlet flandre starry sequence

[Difficulty]
HPDrainRate:2
CircleSize:3
OverallDifficulty:2
ApproachRate:3
SliderMultiplier:1
SliderTickRate:1

[Events]
//Background and Video events
0,0,"Flandre Scarlet Eyes.jpg"
//Break Periods
2,23955,27897
2,46281,55804
2,79769,86501
2,138374,142315
2,160700,168827
//Storyboard Layer 0 (Background)
//Storyboard Layer 1 (Fail)
//Storyboard Layer 2 (Pass)
//Storyboard Layer 3 (Foreground)
//Storyboard Sound Samples
//Background Colour Transformations
3,100,0,0,0

[TimingPoints]
35,348.837209302326,4,1,1,40,1,0
18174,-100,4,1,1,50,0,0
20965,-100,4,1,1,55,0,0
21662,-100,4,1,1,60,0,0
57244,-200,4,2,1,20,0,0
67011,-200,4,1,1,40,0,0
68407,-200,4,2,1,25,0,0
76779,-200,4,1,1,30,0,0
77476,-200,4,1,1,35,0,0
78174,-200,4,1,1,40,0,0
78523,-200,4,1,1,45,0,0
78872,-200,4,1,1,50,0,0
79569,-100,4,2,1,50,0,0
87941,-100,4,1,1,10,0,0
88290,-100,4,1,1,15,0,0
88639,-100,4,1,1,20,0,0
88988,-100,4,1,1,25,0,0
89337,-100,4,1,1,30,0,0
89686,-100,4,1,1,35,0,0
90035,-100,4,1,1,40,0,0
90383,-100,4,1,1,45,0,0
90732,-100,4,1,1,50,0,0
93000,-100,4,1,1,35,0,0
93523,-100,4,1,1,50,0,1
138174,-100,4,1,1,50,0,0
143755,-100,4,1,1,40,0,0
159104,-100,4,2,1,50,0,0
160500,-200,4,2,1,20,0,0
180296,-200,4,2,1,5,0,0

[Colours]
Combo1 : 255,224,151
Combo2 : 255,62,62

[HitObjects]
168,192,1430,2,0,B|168:104|288:104|288:192,1,200,2|0
232,40,2825,6,0,B|232:128|352:128|352:40,1,200,2|0
256,168,4221,6,0,B|256:288,1,100,0|8
256,24,5616,6,0,B|256:128,1,100,0|8
488,192,7011,5,2
24,192,8407,5,2
256,16,9802,5,2
256,376,11197,5,2
248,184,12593,6,0,B|352:184,1,100,2|0
352,104,13290,2,0,B|456:104,1,100,8|0
456,184,13988,2,0,B|456:296,1,100,2|0
376,280,14686,2,0,B|272:280,1,100,8|0
192,280,15383,2,0,B|80:280,1,100,2|0
96,200,16081,1,8
96,120,16430,1,0
176,120,16779,5,2
256,120,17128,2,0,B|456:120,1,200
480,192,18174,6,0,B|376:192,1,100,2|0
376,112,18872,2,0,B|264:112,1,100,8|0
280,192,19569,2,0,B|176:192,1,100,2|0
176,272,20267,2,0,B|288:272,1,100,8|0
360,272,20965,5,2
440,272,21314,2,0,B|440:72,1,200
256,192,22360,12,4,23755
256,328,29337,6,0,B|256:216,1,100,2|0
328,192,30035,1,8
408,192,30383,1,0
408,112,30732,2,0,B|104:112,1,300,2|0
112,192,32128,6,0,B|216:192,1,100,2|0
216,272,32825,2,0,B|320:272,1,100,8|0
256,192,33523,12,2,34918
256,192,35616,5,8
256,352,36314,6,0,B|56:352,1,200,2|8
56,192,37709,6,0,B|160:192,1,100,2|0
240,192,38407,1,8
240,272,38755,1,0
320,272,39104,6,0,B|424:272|424:272|424:176|424:176|320:176,1,300,2|0
256,192,40500,12,2,41895
256,192,42593,1,8
256,192,43290,12,2,44686
256,192,45383,5,8
256,192,46081,1,4
152,192,57244,6,0,B|352:192,1,200,4|0
352,112,59337,1,8
296,112,59860,2,0,B|72:112,1,225
208,192,62825,1,2
288,192,63523,1,8
344,192,64046,2,0,B|344:272|344:272|296:272,1,125
256,192,65616,12,4,67011
256,192,68407,5,2
376,192,69453,2,0,B|376:144,1,50,0|2
376,64,70500,1,8
296,64,71197,1,2
216,64,71895,1,8
216,144,72593,6,0,B|216:200,2,50,2|0|8
296,144,73988,2,0,B|296:248,1,100,2|8
336,240,75035,6,0,B|368:240,10,25,2|0|0|0|0|0|8|0|0|0|2
280,240,77302,2,8,B|248:240,1,25
192,240,78000,2,0,B|160:240,1,25,0|8
128,240,78523,2,0,B|128:184,1,50,0|8
128,152,79221,2,0,B|128:96,1,50,0|4
56,64,87941,6,0,B|256:64|256:64|256:176|256:176|160:176|160:176|160:272|160:272|360:272|360:272|360:176,1,800,0|4
256,56,93000,2,0,B|256:96,6,25,2|0|0|0|0|0|4
336,56,93872,5,0
336,136,94221,2,0,B|336:240,1,100,8|0
256,232,94918,1,2
176,232,95267,2,0,B|72:232,2,100,0|8|0
256,232,96314,5,2
256,152,96662,2,0,B|256:48,1,100,0|8
336,56,97360,1,0
416,56,97709,6,0,B|472:56,2,50,2|0|0
416,136,98407,2,0,B|416:192,2,50,8|0|0
336,136,99104,1,2
256,136,99453,2,0,B|144:136,2,100,0|8|0
256,216,100500,5,2
336,216,100848,2,0,B|336:272|336:272|280:288,1,100,0|8
216,280,101546,1,0
136,280,101895,6,0,B|88:280,4,50,2|0|0|0|8
136,200,102941,1,0
136,120,103290,6,0,B|256:120,1,100,2|0
240,200,103988,2,0,B|344:200,1,100,8|0
336,120,104686,5,2
416,120,105035,1,0
416,200,105383,2,0,B|416:256,3,50,8|0|0|0
416,288,106081,5,2
336,288,106430,1,0
256,288,106779,2,0,B|208:288,4,50,8|0|0|0|2
256,208,107825,5,0
256,128,108174,2,0,B|136:128,1,100,8|0
160,208,108872,5,2
240,208,109221,1,0
320,208,109569,1,8
400,208,109918,2,0,B|400:256,2,50,0|0|2
400,128,110616,5,0
320,128,110965,1,8
240,128,111314,2,0,B|184:128,2,50,0|0|2
240,208,112011,1,0
320,208,112360,2,0,B|424:208,1,100,8|0
256,192,113058,12,4,114453
256,64,115848,6,0,B|256:168,1,100,2|0
336,168,116546,2,0,B|336:272,1,100,8|0
256,272,117244,2,0,B|208:272,2,50,2|0|0
256,192,117941,2,0,B|256:144,4,50,8|0|0|0|2
256,272,118988,5,0
336,272,119337,1,8
336,192,119686,1,0
256,192,120035,6,0,B|208:192,3,50,2|0|0|0
168,192,120732,1,8
168,272,121081,1,0
248,272,121430,6,0,B|360:272,1,100,2|0
432,272,122128,1,8
432,192,122476,2,0,B|384:192,1,50
344,192,122825,5,2
264,192,123174,1,0
184,192,123523,1,8
104,192,123872,2,0,B|104:144,1,50
104,104,124221,5,2
184,104,124569,1,0
264,104,124918,2,0,B|320:104,4,50,8|0|0|0|2
264,184,125965,5,0
264,264,126314,2,0,B|384:264,1,100,8|0
448,264,127011,5,2
448,184,127360,2,0,B|448:80,1,100,0|8
368,80,128058,1,0
288,80,128407,6,0,B|288:128,3,50,2|0|0|0
288,168,129104,1,8
288,248,129453,1,0
208,248,129802,6,0,B|208:144,1,100,2|0
128,152,130500,2,0,B|128:256,1,100,8|0
48,256,131197,2,0,B|48:208,4,50,2|0|0|0|8
48,336,132244,1,0
128,336,132593,6,0,B|176:336,1,50,2|0
216,336,132941,1,0
296,336,133290,1,8
376,336,133639,1,0
456,336,133988,6,0,B|456:136,1,200,2|8
376,136,135035,1,0
296,136,135383,6,0,B|80:136,1,200,2|8
96,216,136430,1,0
256,192,136779,12,4,138174
256,192,143755,5,2
336,192,144104,1,0
416,192,144453,2,0,B|416:136,2,50,8|0|0
416,272,145151,5,2
336,272,145500,2,0,B|224:272,1,100,0|8
240,192,146197,1,0
160,192,146546,6,0,B|160:304,1,100,2|0
80,288,147244,1,8
80,208,147593,1,0
80,128,147941,6,0,B|192:128,1,100,2|0
264,128,148639,2,0,B|264:88,8,25,8|0|0|0|0|0|0|0|2
264,208,149686,5,0
344,208,150035,1,8
424,208,150383,1,0
424,288,150732,6,0,B|208:288,1,200,2|8
144,288,151779,1,0
144,208,152128,6,0,B|144:160,3,50,2|0|0|0
144,120,152825,1,8
224,120,153174,1,0
304,120,153523,6,0,B|304:328,1,200,2|8
384,320,154569,1,0
384,240,154918,6,0,B|384:136|384:136|280:136,1,200,2|8
304,216,155965,1,0
224,200,156314,2,0,B|224:304|224:304|320:304,1,200,2|8
400,304,157360,1,0
400,224,157709,6,0,B|448:224,2,50,2|0|0
400,144,158407,1,8
320,144,158755,1,0
256,192,159104,12,4,160500
256,192,170267,12,0,171662
256,192,172360,5,0
336,192,173058,1,0
336,112,173755,2,0,B|288:112,2,50
416,112,175151,1,0
416,192,175848,6,0,B|416:296,1,100
336,288,177244,2,0,B|336:184,1,100
256,192,178639,1,0
176,192,179337,2,0,B|136:192,2,37.5
200,192,180035,1,0
360,192,181430,6,0,B|360:144|360:144|304:144|304:144|304:192|304:192|256:192,1,200,4|4
256,192,183523,12,0,188407
