osu file format v9

[General]
AudioFilename: REDALiCE - Thalia.mp3
AudioLeadIn: 1996
PreviewTime: 32128
Countdown: 0
SampleSet: Normal
StackLeniency: 0.7
Mode: 0
LetterboxInBreaks: 1
EpilepsyWarning: 1

[Editor]
Bookmarks: 138104,170895,182755,188337
DistanceSpacing: 0.8
BeatDivisor: 4
GridSize: 8

[Metadata]
Title:Thalia
Artist:REDALiCE
Creator:[Error404]
Version:Hard
Source:Sound Online
Tags:touhou remilia scarlet flandre starry sequence

[Difficulty]
HPDrainRate:7
CircleSize:4
OverallDifficulty:6
ApproachRate:8
SliderMultiplier:1.6
SliderTickRate:1

[Events]
//Background and Video events
0,0,"Flandre Scarlet Eyes.jpg"
//Break Periods
2,23955,28587
2,46281,56494
2,79769,87191
2,138373,143005
//Storyboard Layer 0 (Background)
//Storyboard Layer 1 (Fail)
//Storyboard Layer 2 (Pass)
//Storyboard Layer 3 (Foreground)
//Storyboard Sound Samples
//Background Colour Transformations
3,100,0,0,0

[TimingPoints]
35,348.837209302326,4,1,1,40,1,0
18174,-100,4,1,1,50,0,0
20965,-100,4,1,1,55,0,0
21662,-100,4,1,1,60,0,0
57244,-200,4,2,1,20,0,0
65616,-200,4,1,1,20,0,0
65965,-200,4,1,1,29,0,0
66314,-200,4,1,1,38,0,0
66662,-200,4,1,1,47,0,0
67011,-200,4,2,1,56,0,0
68407,-200,4,2,1,25,0,0
76779,-200,4,1,1,30,0,0
77476,-200,4,1,1,35,0,0
78174,-200,4,1,1,40,0,0
78523,-200,4,1,1,45,0,0
78872,-200,4,1,1,50,0,0
79569,-100,4,2,1,50,0,0
87941,-100,4,1,1,10,0,0
88290,-100,4,1,1,16,0,0
88639,-100,4,1,1,22,0,0
88988,-100,4,1,1,28,0,0
89337,-100,4,1,1,34,0,0
89686,-100,4,1,1,39,0,0
90035,-100,4,1,1,46,0,0
90383,-100,4,1,1,52,0,0
90732,-100,4,1,1,58,0,0
93000,-100,4,1,1,35,0,0
93523,-100,4,1,1,50,0,1
138174,-100,4,1,1,50,0,0
143755,-100,4,1,1,40,0,0
159104,-100,4,2,1,50,0,0
160500,-200,4,2,1,20,0,0
180296,-200,4,2,1,5,0,0

[Colours]
Combo1 : 255,224,151
Combo2 : 255,62,62

[HitObjects]
88,72,1430,2,0,B|168:112,1,80,0|0
224,112,1779,1,8
352,112,2128,2,0,B|432:152,1,80,0|0
464,200,2476,1,8
344,232,2825,2,0,B|304:272|256:272,2,80,0|0|8
256,136,3523,2,0,B|216:136|176:96,2,80,0|0|8
384,136,4221,6,0,B|400:128|400:128|384:128|384:128|400:120|400:120|384:120|384:120|400:112,1,80
384,48,4569,1,8
320,48,4744,1,0
224,128,5093,2,0,B|160:192,1,80,0|8
296,192,5616,6,0,B|280:208|280:208|304:200|304:200|288:216|288:216|312:208,1,80
352,240,5965,1,8
440,200,6226,2,0,B|440:160,1,40
472,104,6488,1,0
408,104,6662,1,8
280,104,7011,5,0
192,192,7360,1,8
384,192,7883,2,0,B|384:272,1,80,0|8
256,296,8407,5,0
256,296,8581,2,0,B|256:208,1,80,0|8
64,192,9279,1,0
64,192,9453,1,8
192,192,9802,6,0,B|176:176|176:176|192:176|192:176|176:168|176:168|192:168|192:168|176:160,1,80
152,104,10151,1,8
216,104,10325,1,0
344,104,10674,2,0,B|272:176,1,80,0|8
408,192,11197,6,0,B|392:200|392:200|408:200|408:200|392:208|392:208|408:208|408:208|392:216,1,80
408,280,11546,1,8
320,312,11808,2,0,B|288:280,1,40
240,240,12069,1,0
176,240,12244,1,0
424,192,12593,6,0,B|360:256,1,80,8|0
424,128,12941,2,0,B|352:176,1,80,8|0
424,64,13290,2,8,B|344:96,1,80,8|0
256,192,13639,1,8
256,192,13814,1,0
224,248,13988,6,0,B|160:312,1,80,8|0
104,304,14337,1,8
72,248,14511,1,0
88,192,14686,2,0,B|152:128,1,80,8|0
144,72,15035,2,0,B|216:144,1,80,8|0
264,128,15383,5,8
312,88,15558,1,0
360,128,15732,1,8
408,88,15907,1,0
408,216,16081,5,8
360,256,16255,1,0
312,216,16430,1,8
264,256,16604,1,0
216,216,16779,6,0,B|160:272,3,80,8|0|8|0
112,232,17476,2,0,B|168:176,3,80,8|0|8|0
216,136,18174,5,8
256,184,18348,1,0
296,136,18523,1,8
336,184,18697,1,0
376,136,18872,1,8
416,184,19046,1,0
456,136,19221,1,8
496,184,19395,1,0
496,248,19569,6,0,B|440:304,1,80,8|0
439,304,19918,2,0,B|368:232,1,80,8|0
383,247,20267,2,0,B|320:312,1,80,8|0
327,304,20616,2,0,B|264:240,1,80,8|0
256,184,20965,5,8
256,184,21139,1,0
256,184,21314,1,8
256,184,21488,1,0
256,184,21662,1,8
256,184,21837,1,0
256,184,22011,1,8
256,184,22186,1,0
256,192,22360,12,4,23755
56,192,29337,6,0,B|136:152,1,80,2|0
160,216,29686,2,0,B|240:176,1,80
264,240,30035,2,0,B|344:200,1,80,8|0
360,272,30383,2,0,B|440:232,1,80
432,168,30732,5,8
360,64,30907,1,0
256,136,31081,1,0
144,64,31255,1,0
64,168,31430,1,8
144,272,31604,1,0
256,192,31779,1,0
360,272,31953,1,0
456,200,32128,6,0,B|376:160,1,80,2|0
352,224,32477,2,0,B|272:184,1,80
248,248,32826,2,0,B|168:208,1,80,8|0
144,272,33174,2,0,B|64:232,1,80
72,176,33523,5,8
72,40,33697,1,0
136,176,33872,1,0
136,40,34046,1,0
200,40,34221,2,0,B|240:56,3,40,8|0|0|0
240,88,34569,2,0,B|208:112,3,40
216,144,34918,6,0,B|256:224,1,80,2|0
312,216,35267,2,0,B|352:296,1,80
280,288,35616,2,0,B|248:368,1,80,8|0
184,360,35965,2,0,B|144:280,1,80
144,224,36314,5,8
256,160,36488,1,0
144,96,36662,1,0
256,40,36837,1,0
368,96,37011,1,8
256,160,37186,1,0
368,224,37360,1,0
256,288,37535,1,0
256,352,37709,6,0,B|176:352,1,80,2|0
176,352,38058,2,0,B|120:296,1,80
120,296,38407,2,0,B|177:241,1,80,8|0
176,240,38755,2,0,B|256:241,1,80
288,240,39017,1,0
320,240,39104,1,0
376,208,39279,2,0,B|432:152,2,80,8|0|0
432,240,39802,2,0,B|448:248|448:248|432:248|432:248|448:256|448:256|432:256|432:256|448:264,2,80
256,288,40500,5,2
256,224,40674,1,0
256,160,40848,2,0,B|192:96,1,80
256,80,41197,2,0,B|256:160,1,80,8|0
256,160,41546,2,0,B|312:104,1,80
368,64,41895,6,0,B|400:32,3,40,8|0|0|0
416,64,42244,2,0,B|448:96,3,40
416,112,42593,2,0,B|384:144,3,40,8|0|0|0
416,160,42941,2,0,B|448:192,3,40
416,208,43290,6,0,B|360:264,1,80,2|0
359,264,43639,2,0,B|296:200,1,80
303,207,43988,2,0,B|240:272,1,80,8|0
247,264,44337,2,0,B|184:208,1,80
144,160,44686,5,8
168,96,44860,1,0
232,96,45035,1,0
256,160,45209,1,0
280,224,45383,5,8
304,288,45558,1,0
368,288,45732,1,0
408,232,45907,2,0,B|424:224|424:224|408:224|408:224|424:216|424:216|408:216|408:216|424:208,1,80,0|4
192,192,57244,6,0,B|208:256|288:256|304:192,1,160
240,120,58465,2,0,B|168:120|168:32|328:32|328:120|256:120,1,220
256,192,59860,12,0,62825
176,192,63523,6,0,B|176:144|256:144|256:192,1,120
416,192,64918,1,0
416,256,65267,1,0
352,256,65616,6,0,B|336:272,16,20
104,192,68407,6,0,B|104:88|256:88|256:192,1,240,4|0
320,192,69802,2,0,B|352:224,1,40
440,192,70500,1,0
384,80,71197,6,0,B|384:32|256:32|256:88,1,160,8|0
256,82,72244,1,0
160,80,72767,2,0,B|160:112|136:128|136:144|160:160|160:200,1,120
256,272,73988,5,0
256,144,74686,1,0
256,80,75035,5,0
256,144,75383,2,0,B|256:192,1,40,8|0
352,184,76081,2,0,B|352:136,1,40,0|0
416,144,76604,1,0
416,112,76779,5,8
320,112,77302,2,0,B|272:112,1,40,0|8
184,112,78000,2,0,B|144:112,1,40,0|8
112,168,78523,1,8
144,224,78872,1,8
112,280,79221,2,0,B|96:304,4,20,0|0|0|0|4
256,72,87941,6,0,B|256:24,32,40,0|0|0|0|0|0|0|0|0|0|0|0|0|0|0|0|0|0|0|0|0|0|0|0|0|0|0|0|0|0|0|0|4
256,336,93000,5,8
264,304,93087,1,0
256,272,93174,1,0
264,240,93261,1,0
256,208,93348,1,0
264,176,93436,1,0
256,144,93523,6,0,B|176:144,1,80,2|0
176,80,93872,2,0,B|88:80,1,80
256,144,94221,2,0,B|336:144,1,80,8|0
336,80,94569,2,0,B|416:80,1,80
288,80,94918,2,0,B|208:80,1,80,8|0
152,104,95267,2,0,B|192:184,1,80
248,176,95616,1,8
312,176,95790,1,0
376,176,95965,2,0,B|408:208,3,40
376,176,96314,5,2
376,112,96488,1,0
312,112,96662,2,0,B|248:48,1,80
200,112,97011,2,0,B|264:48,1,80,8|0
256,144,97360,2,0,B|256:224,1,80
296,280,97709,6,0,B|328:312,2,40
360,256,98058,1,0
416,280,98232,1,0
408,216,98407,1,8
408,120,98668,1,0
312,120,98930,1,0
128,120,99104,6,0,B|104:208,1,80,2|0
144,248,99453,1,0
192,288,99628,2,0,B|272:304,1,80
296,280,99889,1,0
320,256,99976,1,0
328,224,100064,1,0
320,192,100151,1,8
296,168,100238,1,0
304,136,100325,1,0
336,120,100412,1,0
368,120,100500,6,0,B|448:120,1,80,2|0
480,176,100848,2,0,B|400:176,1,80
368,232,101197,2,0,B|448:232,1,80,8|0
480,288,101546,1,0
416,288,101721,1,0
288,288,101895,6,0,B|256:320,1,40,8|0
200,288,102157,2,0,B|168:320,1,40
200,192,102418,2,0,B|176:160,1,40
288,192,102680,2,0,B|256:160,1,40
256,96,102941,1,0
320,96,103116,1,0
384,96,103290,6,0,B|416:128,1,40,8|0
448,216,103639,1,0
448,280,103814,1,0
408,328,103988,2,0,B|376:360,3,40,8|0|0|0
344,352,104337,2,0,B|312:320,3,40,8|0|0|0
280,328,104686,6,0,B|200:328,1,80,2|0
280,224,105035,2,0,B|192:240,1,80
280,136,105383,2,0,B|360:136,1,80,8|0
456,224,105732,2,0,B|368:240,1,80
280,320,106081,2,0,B|200:320,1,80,8|0
168,320,106343,1,0
136,320,106430,1,0
256,272,106604,5,0
256,144,106779,1,8
376,192,106953,1,0
312,80,107128,1,0
192,80,107302,1,0
256,192,107476,6,0,B|256:272,1,80,2|0
320,272,107825,2,0,B|320:352,1,80
384,352,108174,2,0,B|384:272,1,80,8|0
448,272,108523,1,0
384,272,108697,1,0
320,272,108872,6,0,B|288:304,1,40,8|0
200,336,109221,1,0
136,336,109395,1,0
72,336,109569,1,8
72,240,109831,2,0,B|104:208,1,40
96,144,110093,1,0
224,144,110267,6,0,B|256:176,1,40,2|0
320,168,110529,2,0,B|352:136,1,40
408,168,110790,2,0,B|440:200,1,40
440,296,111052,2,0,B|408:328,6,40,0|0|0|8|0|0|0
440,296,111662,5,0
344,296,111924,2,0,B|312:264,1,40
248,264,112186,1,0
216,280,112273,1,0
184,264,112360,1,8
184,176,112593,1,0
184,72,112883,1,0
312,72,113058,6,0,B|392:72,1,80,2|0
448,104,113407,2,0,B|360:104,1,80
312,136,113755,2,0,B|400:136,1,80,8|0
448,168,114104,2,0,B|368:168,1,80
320,208,114453,6,0,B|320:288|192:288,1,160,0|0
168,288,114889,1,0
136,288,114976,1,0
72,288,115151,2,0,B|88:304|88:304|72:304|72:304|88:312|88:312|72:312|72:312|88:320,1,80,8|0
256,232,115848,6,0,B|288:144,1,80,2|0
352,160,116197,2,0,B|384:64,1,80
440,88,116546,2,0,B|408:184,1,80,8|0
480,168,116895,2,0,B|448:256,1,80
400,288,117244,5,2
352,248,117418,1,0
400,208,117593,1,0
352,168,117767,1,0
400,128,117941,1,8
352,88,118116,2,0,B|352:40,2,40
288,88,118465,1,0
256,144,118639,5,2
232,200,118814,2,0,B|200:288,1,80
256,304,119162,1,0
312,272,119337,2,0,B|280:192,1,80,8|0
256,144,119686,2,0,B|256:96,2,40
192,144,120035,6,0,B|160:176,1,40,8|0
160,264,120383,1,0
104,296,120558,1,0
104,232,120732,1,0
104,168,120907,2,0,B|136:136,1,40
192,64,121255,1,0
256,64,121430,6,0,B|336:64,1,80,2|0
336,64,121779,2,0,B|400:128,1,80
392,120,122128,2,0,B|328:184,1,80,8|0
304,176,122389,1,0
272,168,122476,1,0
240,176,122564,1,0
208,168,122651,1,0
144,176,122825,6,0,B|112:256,1,80,2|0
114,250,123174,2,0,B|80:176,1,80
80,177,123523,2,0,B|112:96,1,80,8|0
109,102,123872,2,0,B|152:192,1,80
208,176,124221,6,0,B|240:144,1,40,8|0
300,148,124482,2,0,B|332:180,1,40
328,240,124744,2,0,B|296:272,1,40
244,300,125005,2,0,B|212:268,1,40
160,272,125267,1,0
96,272,125441,1,0
96,208,125616,6,0,B|160:144,1,80,2|0
216,152,125965,2,0,B|280:216,1,80
336,208,126314,2,0,B|368:176,3,40,8|0|0|0
360,144,126662,2,0,B|328:112,3,40,0|8|0|0
328,80,127011,6,0,B|248:56,1,80,2|0
251,57,127360,2,0,B|160:88,1,80
176,144,127709,2,0,B|136:224,1,80,8|0
140,215,128058,2,0,B|184:304,1,80
240,288,128407,5,2
368,288,128581,1,0
256,232,128755,1,0
384,232,128930,1,0
496,176,129104,5,8
368,176,129279,1,0
480,120,129453,1,0
352,120,129628,1,0
224,120,129802,6,0,B|144:120,1,80,2|0
112,176,130151,1,0
144,232,130325,1,0
208,232,130500,1,8
272,232,130674,1,0
336,232,130848,2,0,B|400:296,1,80
456,288,131197,6,0,B|496:248,1,40,8|0
480,160,131546,1,0
432,120,131721,1,0
384,80,131895,1,8
288,80,132157,1,0
256,168,132418,1,0
192,168,132593,6,0,B|160:200,1,40,2|0
160,264,132854,2,0,B|200:304,1,40
256,288,133116,2,0,B|288:256,1,40
312,280,133290,1,0
344,280,133378,1,0
368,264,133465,1,0
384,240,133552,1,0
392,208,133639,1,8
384,176,133726,1,0
360,160,133814,1,0
328,152,133901,1,0
296,152,133988,6,0,B|264:184,1,40,2|0
208,152,134250,2,0,B|240:184,1,40
256,240,134511,1,0
256,304,134686,1,0
168,344,134947,1,0
80,304,135209,1,0
80,240,135383,6,0,B|48:208,3,40,8|0|0|0
80,192,135732,2,0,B|112:160,3,40,8|0|0|0
144,160,136081,2,0,B|176:192,3,40,8|0|0|0
208,184,136430,2,0,B|240:152,3,40,8|0|0|0
272,152,136779,5,8
304,160,136866,1,0
336,152,136953,1,0
400,152,137128,1,8
416,184,137215,1,0
400,216,137302,1,0
336,216,137476,1,8
304,232,137564,1,0
272,216,137651,1,0
208,216,137825,2,0,B|176:248|136:248|136:176|160:152|208:176,1,160,0|4
256,192,143755,5,2
256,192,143930,1,0
192,192,144104,2,0,B|104:192,1,80
112,128,144453,2,0,B|200:128,1,80,8|0
192,192,144802,2,0,B|96:192,1,80
192,296,145151,5,2
192,296,145325,1,0
256,344,145500,1,0
256,344,145674,1,0
320,296,145848,1,8
320,296,146023,1,0
256,344,146197,1,0
256,344,146372,1,0
256,344,146546,6,0,B|256:264,1,80,2|0
192,264,146895,2,0,B|208:184,1,80
320,264,147244,2,0,B|304:184,1,80,8|0
256,144,147593,2,0,B|256:232,1,80
256,256,147854,1,0
256,288,147941,5,8
288,344,148116,1,0
352,344,148290,1,0
416,344,148465,1,0
416,280,148639,1,8
408,248,148726,1,0
416,216,148814,1,0
408,184,148901,1,0
416,152,148988,1,0
408,120,149075,1,0
416,88,149162,1,0
352,88,149337,6,0,B|280:160,1,80,2|0
264,88,149686,2,0,B|200:152,1,80
176,88,150035,2,0,B|112:152,1,80,8|0
88,88,150383,2,0,B|24:152,1,80
160,192,150732,5,8
256,280,150907,1,0
352,192,151081,1,0
256,104,151255,1,0
320,128,151430,5,8
192,128,151604,1,0
192,256,151779,1,0
320,256,151953,1,0
432,192,152128,6,0,B|432:112,3,80,2|0|0|0
368,112,152825,2,0,B|368:192,3,80,8|0|0|0
304,192,153523,2,0,B|224:192,1,80,8|0
160,192,153872,2,0,B|128:224,1,40
128,320,154221,2,0,B|136:304|136:304|136:320|136:320|144:304|144:304|144:320|144:320|152:304,1,80
344,320,154918,5,2
408,320,155093,1,0
376,264,155267,1,0
440,264,155441,1,0
472,208,155616,1,8
408,208,155790,1,0
440,152,155965,1,0
376,152,156139,1,0
312,152,156314,6,0,B|256:208,1,80,8|0
192,208,156662,2,0,B|160:240,1,40
96,240,156924,2,0,B|64:208,1,40
64,144,157186,2,0,B|96:112,1,40
192,120,157535,1,0
224,120,157622,1,0
256,120,157709,6,0,B|352:144,1,80,2|0
384,176,158058,2,0,B|288:224,1,80
256,248,158407,2,0,B|352:296,1,80,8|0
384,320,158755,2,0,B|304:360,1,80
248,360,159104,5,2
184,360,159279,1,0
120,360,159453,2,0,B|88:328,1,40
88,232,159802,2,0,B|104:224|104:224|88:224|88:224|104:216|104:216|88:216|88:216|104:208|104:208|88:208|88:208|104:200|104:200|88:200|88:200|104:192|104:192|88:192|88:192|104:184|104:184|88:184|88:184|104:176|104:176|88:176|88:176|104:168|104:168|88:168,1,240,2|0
88,112,160500,6,0,B|144:56|280:56,1,200,4|0
336,56,161721,1,0
368,56,161895,2,0,B|432:120|432:208,1,160
256,192,163290,12,4,164685
256,192,165383,5,0
256,128,165732,1,0
288,72,166081,2,0,B|376:72|376:288,1,240,0|0
344,288,167302,1,0
312,288,167476,1,0
280,288,167651,1,0
248,288,167825,1,0
216,288,168000,1,0
184,288,168174,1,0
152,288,168348,1,0
120,288,168523,1,0
88,288,168697,1,0
64,264,168872,6,0,B|64:216|96:176,1,80
104,160,169395,2,0,B|144:120|144:48|256:48|256:120|288:152|376:152|416:192,1,360,0|4
408,248,171314,2,0,B|408:304,1,40
408,320,171662,6,0,B|280:320|280:200|200:200,1,240,4|0
144,200,173058,2,0,B|144:288|80:352,1,160
88,280,174104,1,0
88,216,174453,2,0,B|88:128|136:128|184:80|232:128|312:128,1,280
256,192,175848,12,0,177244
256,192,177941,5,0
256,192,178639,1,0
384,192,179337,2,0,B|432:232,2,60
352,192,180035,1,0
256,192,180383,12,4,182825
256,192,182912,12,0,188407
