osu file format v7

[General]
AudioFilename: Tag.ogg
AudioLeadIn: 0
PreviewTime: 59598
Countdown: 0
SampleSet: Soft
StackLeniency: 0.7
Mode: 0
LetterboxInBreaks: 1

[Editor]
Bookmarks: 19874,33115,46356,59598,72839,87735
DistanceSpacing: 0.800000011920929
BeatDivisor: 4
GridSize: 8

[Metadata]
Title:Tag
Artist:REDALiCE
Creator:Pokie
Version:Hatsunoob
Source:Touhou
Tags:no-7 hatsunowind angelhoney c75 alice's emotion trois rouge misato satori 3rd eye maiden

[Difficulty]
HPDrainRate:2
CircleSize:3
OverallDifficulty:4
SliderMultiplier:1
SliderTickRate:0.5

[Events]
//Background and Video events
0,0,"BG.jpg"
//Break Periods
//Storyboard Layer 0 (Background)
//Storyboard Layer 1 (Fail)
//Storyboard Layer 2 (Pass)
//Storyboard Layer 3 (Foreground)
//Storyboard Sound Samples
//Background Colour Transformations
3,100,0,0,0

[TimingPoints]
5030,413.793103448276,4,2,1,70,1,0
57995,-100,4,2,1,20,0,0
59650,-100,4,2,1,60,0,0
71236,-200,4,2,1,60,0,0
72064,-100,4,2,1,60,0,0
86029,-100,4,2,1,100,0,0
87685,-100,4,2,1,70,0,0
98857,-100,4,2,1,39,0,0
100926,-100,4,2,1,70,0,0
155547,-100,4,2,1,60,0,0
182133,-100,4,2,1,70,0,1
194547,-100,4,2,1,70,0,0
195374,-100,4,2,1,70,0,1
209857,-100,4,2,1,100,0,0

[Colours]
Combo1 : 255,0,128
Combo2 : 255,0,255
Combo3 : 128,0,128
Combo4 : 176,0,88

[HitObjects]
48,104,6684,2,0,B|104:72|168:104,1,100,2|0
200,152,7512,1,2
256,208,7926,1,0
312,152,8340,1,2
376,104,8753,2,0,B|424:72|488:88,2,100,0|2|0
296,88,9995,5,2
216,88,10409,1,0
136,88,10822,2,0,B|72:96|80:160,3,100,2|0|2|0
80,232,12478,1,2
80,312,12891,1,0
160,312,13305,5,2
240,312,13719,2,0,B|288:296|312:320|352:304,1,100,0|2
416,312,14547,1,0
416,312,14960,1,2
416,312,15374,1,0
416,312,15788,2,0,B|448:200|416:104,1,200,2|2
344,88,17029,6,0,B|344:120|304:136,1,50
280,120,17443,2,0,B|248:136|256:176,1,50
270,196,17857,2,2,B|254:228|222:244,1,50
256,192,18271,12,8,19512
112,80,19926,5,2
192,80,20340,1,0
272,80,20753,2,0,B|320:64|320:96|376:80,3,100,2|0|2|0
448,80,22409,2,0,B|472:120|448:192,1,100,2|0
440,256,23236,5,2
360,256,23650,1,0
280,256,24064,2,0,B|240:288|192:272,2,75,2|0|0
313,234,24891,2,0,B|369:226|409:170,1,100,2|0
438,116,25719,1,2
431,36,26133,1,0
352,40,26547,5,2
272,40,26960,1,0
192,40,27374,1,2
112,40,27788,1,0
112,120,28202,2,2,B|216:96|336:128,1,200,2|2
384,160,29443,1,0
440,216,29857,6,0,B|440:288|376:312,1,100,6|0
328,256,30684,2,0,B|288:312|232:304,1,100,6|0
256,192,31512,12,4,32753
432,72,33167,5,2
272,72,33995,1,2
232,136,34409,1,0
192,72,34822,1,2
152,144,35236,2,0,B|96:136|112:64,1,100,0|2
32,80,36064,1,0
32,160,36478,5,2
72,224,36891,1,0
144,256,37305,2,0,B|184:280|240:272,2,75,2|0|0
148,216,38133,2,0,B|172:184|260:216,1,100,2|0
317,236,38960,1,2
396,247,39374,1,0
440,176,39788,5,2
392,112,40202,1,0
344,48,40616,1,2
264,56,41029,1,0
192,96,41443,2,0,B|152:104|160:136,1,50,2|0
176,160,41857,2,0,B|184:200|144:208,1,50
128,224,42271,2,0,B|80:272|104:336,1,100,2|0
176,328,43098,5,2
256,328,43512,1,4
336,328,43926,1,2
416,328,44340,1,6
256,192,44753,12,0,46409
256,192,47236,1,0
256,112,47650,1,2
192,64,48064,1,0
128,112,48478,2,0,B|120:152|144:200|128:224,1,100,2|0
136,288,49305,5,2
208,328,49719,2,0,B|248:304|288:336|328:304,1,100,0|2
384,304,50547,1,0
432,256,50960,6,0,B|464:232|440:200,1,50,2|0
408,200,51374,2,0,B|432:168|400:136,1,50,0|0
376,144,51788,2,0,B|392:88|376:40,1,100,2|0
304,72,52616,5,2
232,112,53029,2,0,B|192:88|152:120|112:88,1,100,0|2
56,104,53857,1,0
43,183,54271,6,0,B|28:213|41:240,1,50,2|0
44,270,54685,2,0,B|35:303|57:334,1,50
75,348,55098,2,0,B|116:361|191:346,1,100,2|0
248,319,55926,5,2
319,284,56340,1,0
273,218,56753,1,2
348,190,57167,1,0
307,120,57581,1,2
256,192,57995,12,8,59236
80,84,59650,5,8
239,82,60478,1,8
319,82,60891,1,8
398,86,61305,2,2,B|461:79|474:154,1,100,2|0
485,217,62133,2,2,B|454:277|384:237,1,100,2|0
322,223,62960,5,8
241,223,63374,2,0,B|180:224,2,50
245,302,64202,1,8
245,302,64616,2,0,B|144:326|40:299,1,200,2|0
44,221,65857,1,8
102,166,66271,5,8
158,109,66685,2,0,B|117:75,2,50,2|0|0
238,111,67512,1,8
317,111,67926,1,8
397,111,68340,2,0,B|431:66,2,50,2|0|0
347,173,69167,1,8
414,215,69581,1,8
365,278,69995,2,0,B|316:307|251:287,1,100,2|0
192,280,70822,1,0
128,232,71236,2,0,B|80:208|56:160,1,100
79,82,72478,5,2
158,84,72891,1,8
318,87,73719,1,8
364,152,74133,1,8
446,155,74547,2,0,B|438:106|392:66,1,100,2|0
319,43,75374,1,8
239,40,75788,6,0,B|187:40,2,50,2|0|0
240,120,76616,2,0,B|303:122,2,50,2|0|0
161,117,77443,1,8
80,117,77857,2,0,B|50:159|99:189|74:224,1,100,2|0
76,295,78685,1,2
155,296,79098,1,8
235,295,79512,5,8
315,293,79926,2,0,B|377:296|417:252,1,100,2|0
416,182,80753,1,8
415,102,81167,1,8
411,22,81581,2,0,B|357:35|338:108,1,100,2|0
304,159,82409,5,8
259,225,82822,1,8
212,289,83236,2,0,B|156:243|176:180,1,100,2|0
161,122,84064,1,8
80,119,84478,1,8
77,199,84891,1,2
73,278,85305,2,0,B|112:291|101:331|62:343|44:315|66:293,1,100
256,192,86133,12,2,87374
408,100,87788,5,2
327,99,88202,2,0,B|330:41,2,50
246,100,89029,2,0,B|219:105|224:144,1,50,2|0
184,152,89443,2,0,B|171:176|128:178,1,50,2|2
152,216,89857,2,0,B|176:248|152:272,1,50
160,312,90271,2,0,B|232:312|264:288,1,100
325,254,91098,5,2
387,203,91512,1,2
446,150,91926,2,0,B|409:112|369:94,2,75
460,187,92753,2,0,B|483:243|438:296,1,100,2|0
370,297,93581,1,2
288,295,93995,2,0,B|288:360,2,50
208,296,94822,1,2
171,225,95236,1,0
130,293,95650,1,2
50,293,96064,6,0,B|36:261|60:260|46:234,1,50
49,204,96478,2,0,B|35:172|59:171|45:145,1,50
49,115,96891,2,0,B|119:126|166:93,1,100,2|0
213,59,97719,2,0,B|275:59,1,50,2|0
264,99,98133,2,2,B|281:125|326:106,1,50
334,81,98547,2,0,B|399:82,1,50
383,121,98960,2,0,B|426:132,4,25
400,304,101029,5,2
320,304,101443,1,0
240,304,101857,2,0,B|192:320|192:288|136:304,3,100,2|0|2|0
56,296,103512,2,0,B|32:256|56:184,1,100,2|0
56,120,104340,5,2
136,120,104753,1,0
216,120,105167,2,0,B|256:88|304:104,2,75
176,128,105995,2,0,B|120:136|80:192,1,100
80,256,106822,1,2
80,336,107236,1,0
160,336,107650,5,2
240,336,108064,1,0
320,336,108478,1,2
400,336,108891,1,0
400,256,109305,2,0,B|296:280|176:248,1,200,2|2
128,224,110547,1,0
72,160,110960,6,0,B|72:88|136:64,1,100,0|4
184,112,111788,2,0,B|224:56|280:64,1,100,0|4
256,192,112616,12,0,114271
256,192,115098,5,2
256,272,115512,1,0
320,320,115926,1,2
384,272,116340,2,0,B|392:232|368:184|384:160,1,100
384,96,117167,5,2
312,56,117581,2,0,B|272:80|232:48|192:80,1,100
136,72,118409,1,2
80,128,118822,6,0,B|48:152|72:184,1,50
104,184,119236,2,0,B|80:216|112:248,1,50
136,240,119650,2,0,B|120:296|136:344,1,100,2|0
208,312,120478,5,2
280,272,120891,2,0,B|320:296|360:264|400:296,1,100
456,280,121719,1,2
469,201,122133,6,0,B|484:171|471:144,1,50
468,114,122547,2,0,B|477:81|455:50,1,50
437,36,122960,2,0,B|396:23|321:38,1,100,2|0
264,65,123788,5,2
193,100,124202,1,4
239,166,124616,1,2
164,194,125029,1,4
205,264,125443,1,2
256,192,125857,12,4,127098
432,300,127512,5,8
273,302,128340,1,8
193,302,128753,1,8
114,298,129167,2,2,B|51:305|38:230,1,100,2|0
27,167,129995,2,2,B|58:107|128:147,1,100,2|0
190,161,130822,5,8
271,161,131236,2,0,B|332:160,2,50,2|0|0
267,82,132064,1,8
267,82,132478,2,0,B|368:58|472:85,1,200,2|0
468,163,133719,1,8
410,218,134133,5,8
354,275,134547,2,0,B|395:309,2,50,2|0|0
274,273,135374,1,8
195,273,135788,1,8
115,273,136202,2,0,B|81:318,2,50,2|0|0
165,211,137029,1,8
98,169,137443,1,8
147,106,137857,2,0,B|196:77|261:97,1,100,2|0
256,192,138685,12,0,139926
79,82,140340,5,2
158,84,140753,1,8
318,87,141581,1,8
364,152,141995,1,8
446,155,142409,2,0,B|438:106|392:66,1,100,2|0
319,43,143236,1,8
239,40,143650,6,0,B|187:40,2,50,2|0|0
240,120,144478,2,0,B|303:122,2,50,2|0|0
161,117,145305,1,8
80,117,145719,2,0,B|50:159|99:189|74:224,1,100,2|0
76,295,146547,1,2
155,296,146960,1,8
235,295,147374,5,8
315,293,147788,2,0,B|377:296|417:252,1,100,2|0
416,182,148616,1,8
415,102,149029,1,8
411,22,149443,2,0,B|357:35|338:108,1,100,2|0
304,159,150271,1,8
259,225,150685,1,8
212,289,151098,2,0,B|156:243|176:180,1,100,2|0
161,122,151926,5,8
80,119,152340,1,2
77,199,152753,1,8
132,255,153167,1,2
192,307,153581,1,2
256,192,153995,12,2,155236
96,80,155650,6,0,B|312:80,1,200,0|2
416,192,157305,2,0,B|192:192,1,200,0|2
104,304,158960,2,0,B|104:88,1,200,0|2
256,56,160616,2,0,B|256:272,1,200,0|2
392,336,162271,6,0,B|480:256|472:136,1,200,0|2
344,64,163926,2,0,B|208:64|144:144,1,200,0|2
40,240,165581,2,0,B|96:336|216:344,1,200,0|2
360,336,167236,2,0,B|416:240|280:176,1,200,0|2
144,104,168891,6,0,B|232:40|336:32,1,200,0|2
448,136,170547,2,0,B|456:288|352:296,1,200,0|2
200,312,172202,2,0,B|104:320|56:192,1,200,0|2
168,80,173857,2,0,B|328:72|256:208,1,200,0|2
256,192,175512,12,2,176753
256,192,177167,12,2,178409
256,192,178822,12,2,180064
256,192,180478,12,2,181719
432,300,182133,5,8
273,302,182960,1,8
193,302,183374,1,8
114,298,183788,2,2,B|51:305|38:230,1,100,2|0
112,208,184616,2,2,B|49:215|36:140,1,100,2|0
112,120,185443,5,8
192,120,185857,2,0,B|253:119,2,50,2|0|0
192,40,186684,1,8
272,40,187098,2,0,B|373:16|477:43,1,200,2|0
464,120,188340,1,8
432,192,188753,5,8
392,264,189167,2,0,B|433:298,2,50,2|0|0
336,320,189995,1,8
288,256,190409,1,8
240,192,190822,2,0,B|240:136,2,50,2|0|0
184,248,191650,1,8
128,304,192064,1,8
48,320,192478,2,0,B|24:248|72:208,1,100,2|0
256,192,193305,12,0,194547
79,82,194960,5,2
80,160,195374,1,8
96,320,196202,1,8
168,280,196616,1,8
240,248,197029,2,0,B|296:232|312:168,1,100,2|0
328,104,197857,1,8
408,104,198271,6,0,B|408:32,2,50,2|0|0
408,184,199098,2,0,B|408:248,2,50,2|0|0
328,184,199926,1,8
248,184,200340,2,0,B|192:152|144:192,1,100
88,232,201167,1,2
155,296,201581,1,8
224,344,201995,5,8
296,304,202409,2,0,B|358:307|398:263,1,100,2|0
456,224,203236,1,8
456,144,203650,1,8
456,64,204064,2,0,B|402:77|352:32,1,100,2|0
280,40,204891,1,8
200,40,205305,1,8
120,40,205719,2,0,B|48:40|40:104,1,100
32,168,206547,5,8
112,168,206960,1,2
112,248,207374,1,8
192,248,207788,1,2
272,248,208202,1,2
256,192,208616,12,2,210271
