osu file format v7

[General]
AudioFilename: Tag.ogg
AudioLeadIn: 0
PreviewTime: 59598
Countdown: 0
SampleSet: Normal
StackLeniency: 0.7
Mode: 0
LetterboxInBreaks: 1

[Editor]
Bookmarks: 19874,33115,46356,49667,59598,72839,87735,101028
DistanceSpacing: 1
BeatDivisor: 4
GridSize: 8

[Metadata]
Title:Tag
Artist:REDALiCE
Creator:Pokie
Version:Hard
Source:Touhou
Tags:no-7 hatsunowind angelhoney c75 alice's emotion trois rouge misato satori 3rd eye maiden

[Difficulty]
HPDrainRate:3
CircleSize:4
OverallDifficulty:6
SliderMultiplier:1.6
SliderTickRate:2

[Events]
//Background and Video events
0,0,"BG.jpg"
//Break Periods
2,87988,96669
2,169091,174462
//Storyboard Layer 0 (Background)
//Storyboard Layer 1 (Fail)
//Storyboard Layer 2 (Pass)
//Storyboard Layer 3 (Foreground)
//Storyboard Sound Samples
//Background Colour Transformations
3,100,0,0,0

[TimingPoints]
5030,413.793103448276,4,1,1,50,1,0
44857,-100,4,2,1,0,0,0
45891,-100,4,2,1,60,0,0
47960,-200,4,2,1,60,0,0
48891,-100,4,2,1,60,0,0
49615,-200,4,2,1,60,0,0
50546,-100,4,2,1,60,0,0
52926,-200,4,2,1,60,0,0
53857,-100,4,2,1,60,0,0
59546,-100,4,1,1,50,0,0
85719,-100,4,1,1,40,0,0
85926,-100,4,1,1,30,0,0
86029,-100,4,1,1,20,0,0
86132,-100,4,1,1,0,0,0
87789,-100,4,1,1,50,0,0
97615,-100,4,2,1,30,0,0
100098,-100,4,2,1,50,0,0
100926,-100,4,1,1,50,0,0
112720,-100,4,2,1,0,0,0
113755,-100,4,2,1,60,0,0
115824,-200,4,2,1,60,0,0
116755,-100,4,2,1,60,0,0
117479,-200,4,2,1,60,0,0
118410,-100,4,2,1,60,0,0
120789,-200,4,2,1,60,0,0
121720,-100,4,2,1,60,0,0
127410,-100,4,1,1,50,0,0
153582,-100,4,1,1,40,0,0
153788,-100,4,1,1,30,0,0
153893,-100,4,1,1,10,0,0
153996,-100,4,1,1,0,0,0
155134,-100,4,1,1,50,0,0
155962,-200,4,2,1,40,0,0
162168,-200,4,2,1,50,0,0
162996,-100,4,2,1,40,0,0
163824,-200,4,2,1,40,0,0
164651,-100,4,2,1,30,0,0
165479,-200,4,2,1,35,0,0
166305,-100,4,2,1,25,0,0
167133,-200,4,2,1,25,0,0
168065,-100,4,2,1,10,0,0
168788,-100,4,2,1,30,0,0
175410,-100,4,1,1,0,0,0
180375,-100,4,1,1,50,0,0
182134,-100,4,1,1,50,0,1
194548,-100,4,1,1,50,0,0
195375,-100,4,1,1,50,0,1
208617,-100,4,1,1,0,0,0
210272,-100,4,1,1,50,0,0

[Colours]
Combo1 : 255,0,128
Combo2 : 255,0,255
Combo3 : 128,0,128
Combo4 : 176,0,88

[HitObjects]
256,192,19926,1,4
128,72,20340,5,0
56,112,20547,1,0
88,184,20753,2,0,B|36:259|41:350,1,160,8|0
120,336,21374,1,0
200,336,21581,2,0,B|251:260|246:169,1,160,8|0
256,104,22202,1,0
256,24,22409,2,0,B|337:17|424:59,1,160,8|0
488,88,23029,1,0
464,120,23133,1,0
440,152,23236,6,0,B|480:224|416:336,1,160,8|0
360,336,23857,1,0
296,288,24064,2,0,B|248:288|208:344,1,80,8|0
168,264,24478,2,0,B|120:248|88:216,1,80,0|0
48,168,24891,1,8
48,168,25305,1,0
80,88,25512,6,0,B|32:40,2,40,0|0|8
160,80,25926,1,0
160,80,26029,1,0
160,80,26133,1,8
216,136,26340,1,0
280,184,26547,6,8,B|344:248|440:256,1,160,8|0
472,192,27167,1,0
472,192,27271,1,0
472,192,27374,1,8
472,112,27581,1,0
416,56,27788,1,0
344,88,27995,1,0
272,112,28202,2,0,B|184:120|88:56,1,160,8|0
118,74,28822,1,0
64,136,29029,1,8
104,288,29443,5,0
160,344,29650,1,0
240,328,29857,2,0,B|280:352|344:328,1,80,8|0
392,304,30271,1,8
448,232,30478,1,0
424,136,30684,1,8
344,104,30891,1,0
256,136,31098,2,0,B|200:160,4,40,8|0|0|0|4
256,192,31616,12,0,33167
256,32,33581,6,0,B|272:80|320:104,1,80
376,136,33995,1,8
456,152,34202,1,0
456,168,34305,1,0
456,184,34409,1,0
456,264,34616,1,0
368,304,34822,2,0,B|292:349|224:336,1,120,8|0
216,344,35236,2,0,B|168:352|136:376,1,80
184,248,35650,2,0,B|256:240|328:192,1,120,8|0
328,192,36064,1,0
392,144,36271,5,0
392,144,36374,1,0
392,144,36478,1,8
360,72,36685,1,0
280,56,36891,2,0,B|232:48|184:96,1,80
144,128,37305,1,8
104,200,37512,1,0
96,216,37616,1,0
88,232,37719,1,0
56,304,37926,1,0
56,304,38133,6,0,B|112:376|208:376,1,160,8|0
272,368,38753,2,0,B|376:352,1,80,0|8
432,336,39167,2,0,B|472:376,2,40,0|0|8
440,256,39581,1,0
448,176,39788,6,0,B|376:104|280:88,1,160,8|0
232,88,40409,1,0
232,88,40512,1,0
232,88,40616,2,8,B|160:163|60:176,1,160,8|0
24,208,41236,1,0
88,256,41443,6,0,B|112:344,1,80,8|0
200,256,41857,2,8,B|216:176,1,80,0|0
304,288,42271,1,8
384,312,42478,2,0,B|416:368,2,40,0|0|0
424,240,42891,1,0
408,160,43098,5,8
352,80,43305,1,0
352,80,43409,1,0
352,80,43512,1,8
264,120,43719,1,0
264,120,43926,1,8
176,80,44133,1,0
176,80,44236,1,0
176,80,44340,2,0,B|136:24,4,40,0|0|0|0|4
256,192,44857,12,0,45581
256,64,45995,6,0,B|256:160,1,80,4|0
256,288,46409,1,4
256,288,46822,1,0
256,288,47236,1,2
96,200,47547,5,0
96,200,47650,1,2
72,120,47857,1,0
136,64,48064,2,0,B|167:32|231:23,2,80,2|0|2
256,176,49098,5,0
256,176,49202,1,0
256,176,49305,1,2
320,128,49512,1,0
384,176,49719,2,0,B|416:208|424:272,2,80,4|0|2
296,288,50857,1,0
296,288,50960,6,0,B|304:392,1,80,2|0
208,312,51374,6,0,B|200:208,1,80,2|0
120,232,51788,1,2
72,168,51995,1,0
112,96,52202,1,2
112,96,52305,1,0
112,96,52409,1,0
248,136,52616,5,2
296,72,52822,1,0
376,72,53029,2,0,B|432:104|416:168,2,80,4|0|2
344,144,54064,1,0
344,144,54167,1,0
344,144,54271,1,0
360,224,54478,1,0
344,304,54685,6,0,B|320:360|272:360,1,80,2|0
248,288,55098,2,0,B|192:272|168:216,1,80
128,184,55512,1,2
128,184,55616,1,0
128,184,55719,1,0
128,184,55822,1,0
128,184,55926,1,0
184,128,56133,1,0
184,128,56340,1,2
256,64,56547,6,0,B|304:16,2,40,0|0|2
256,64,56960,1,0
312,120,57167,1,2
360,184,57374,2,0,B|400:224,2,40,0|0|2
360,184,57788,1,2
320,256,57995,6,0,B|264:352,1,80,4|0
168,168,58409,2,0,B|224:264,1,80,4|0
88,64,58822,2,0,B|32:160,1,80,4|0
0,200,59236,2,0,B|64:264,1,80,6|0
120,304,59650,6,0,B|192:359|302:337,1,160,8|0
271,342,60271,1,0
271,342,60478,2,0,B|448:344,1,160,8|0
480,192,61305,1,8
400,192,61512,1,0
400,192,61616,1,0
400,192,61719,1,0
328,232,61926,1,0
328,232,62133,2,0,B|160:232,1,160,8|0
88,208,62753,5,0
88,208,62960,2,0,B|40:152|88:88,1,120,8|0
81,97,63374,1,0
144,48,63581,1,0
216,80,63788,2,0,B|360:80,1,120,8|0
336,80,64202,1,0
408,40,64409,1,0
464,96,64616,6,0,B|448:192|376:256,1,160,8|0
344,296,65236,1,0
344,296,65340,1,0
344,296,65443,1,8
280,248,65650,1,0
216,296,65857,1,8
152,344,66064,1,0
88,288,66271,6,0,B|40:224|88:112,1,160,8|0
80,56,66891,2,0,B|136:32|184:72,1,80,0|8
168,136,67305,2,0,B|224:160|264:128,1,80
320,112,67719,1,0
320,112,67926,6,0,B|404:174|404:276,1,160,8|0
400,328,68547,1,0
336,280,68753,1,8
256,272,68960,1,0
184,312,69167,5,0
136,248,69374,1,0
136,248,69581,5,8
240,128,69995,1,0
296,72,70202,1,0
296,72,70409,5,8
400,192,70822,1,0
400,192,71029,1,0
400,192,71236,6,0,B|416:248|488:296,1,120,8|0
472,285,71650,2,0,B|456:328|408:344,1,80,8|0
336,336,72064,5,8
328,328,72167,1,0
320,320,72271,1,0
312,312,72374,1,0
304,304,72478,5,8
248,248,72685,1,0
176,200,72891,6,0,B|104:144|104:32,1,160,8|0
184,64,73512,1,0
184,64,73719,2,0,B|360:64,1,160,8|0
472,160,74547,1,8
392,160,74753,1,0
392,160,74857,1,0
392,160,74960,1,0
360,232,75167,1,0
360,232,75374,2,0,B|400:296,4,40,8|0|0|0|0
280,216,75995,5,0
280,216,76202,2,0,B|200:272|104:208,1,160,8|0
64,176,76822,1,0
136,136,77029,2,0,B|288:80,1,160,8|0
360,48,77650,1,0
440,48,77857,6,0,B|464:128|432:232,1,160,8|0
360,192,78478,1,0
360,192,78581,1,0
360,192,78685,2,0,B|320:240|272:232,1,80,8|0
232,184,79098,2,0,B|184:200|160:240,1,80,8|0
96,272,79512,6,0,B|48:208|96:96,2,160,8|0|8
176,272,80547,1,0
208,272,80650,1,0
240,272,80753,1,8
320,272,80960,1,0
320,272,81167,6,0,B|400:248|440:144,1,160,8|0
464,88,81788,1,0
400,40,81995,2,0,B|360:48|336:104,1,80,8|0
272,72,82409,2,0,B|256:120|200:128,1,80,8|0
144,160,82822,5,4
56,288,83236,1,8
120,336,83443,1,0
184,288,83650,5,4
344,288,84064,1,0
392,224,84271,1,0
344,160,84478,6,0,B|384:120,4,40,4|0|0|0|0
256,72,85098,5,0
168,160,85305,6,0,B|128:120,7,40,4|0|0|0|0|0|0|0
256,192,86133,12,0,87788
256,192,97719,12,0,99374
208,48,100202,6,0,B|208:152,1,80,2|0
304,136,100616,2,0,B|304:232,1,80,2|0
240,328,101029,5,4
160,336,101236,2,0,B|128:384,2,40,0|0|0
104,272,101650,1,0
88,192,101857,6,0,B|112:128|176:112,1,120,8|0
171,113,102271,2,0,B|232:96|264:112,1,80,0|0
248,216,102685,6,0,B|310:244|366:210,1,120,8|0
363,212,103098,2,0,B|408:192|428:147,1,80,0|0
456,88,103512,1,8
456,88,103616,1,0
456,88,103719,1,0
376,64,103926,1,0
296,40,104133,1,0
296,40,104340,6,0,B|240:104|184:104,1,120,8|0
196,103,104753,1,0
120,120,104960,1,0
32,200,105167,2,0,B|88:264|144:264,1,120,8|0
131,263,105581,1,0
208,288,105788,1,0
288,288,105995,5,8
288,288,106098,1,0
288,288,106202,1,0
368,272,106409,1,0
368,272,106616,1,0
432,224,106822,2,0,B|456:184|448:128,1,80,8|0
376,168,107236,2,0,B|352:128|360:72,1,80,8|0
336,16,107650,6,8,B|272:80|176:88,1,160,8|0
112,96,108271,1,0
112,96,108374,1,0
112,96,108478,1,8
56,152,108685,1,0
112,208,108891,1,0
56,264,109098,1,0
56,264,109305,6,0,B|128:314|243:307,1,160,8|0
288,304,109926,1,0
368,296,110133,1,8
440,264,110340,2,0,B|480:304,2,40,0|0|0
472,192,110753,5,0
432,120,110960,2,0,B|320:120,1,80,8|0
192,56,111374,2,0,B|304:56,1,80,8|0
160,144,111788,2,0,B|48:144,1,80,8|0
256,192,112202,1,8
256,192,112305,1,0
256,192,112409,1,0
256,192,112512,1,0
256,192,112616,1,4
256,192,112719,12,0,113650
256,272,113857,6,0,B|256:176,1,80,4|0
256,112,114271,1,4
256,112,114685,1,0
256,112,115098,1,2
144,64,115409,5,0
144,64,115512,1,2
88,120,115719,1,0
32,176,115926,2,0,B|8:224|40:288,2,80,2|0|2
200,216,116960,5,0
200,216,117064,1,0
200,216,117167,1,2
272,248,117374,1,0
344,280,117581,2,0,B|368:328|336:392,2,80,4|0|2
440,232,118616,6,0,B|472:272,2,40,0|0|2
472,160,119029,1,0
448,80,119236,2,0,B|416:64|360:88,1,80,2|0
320,144,119650,2,0,B|264:128|248:72,1,80
192,48,120064,1,2
186,56,120167,1,0
182,64,120271,1,0
136,128,120478,5,0
72,176,120685,1,0
80,256,120891,2,0,B|56:312|72:368,2,80,4|0|2
184,256,121926,5,0
184,256,122029,1,0
184,256,122133,2,0,B|199:304|259:327,1,80,2|0
304,352,122547,2,0,B|352:336|368:264,1,80,2|0
304,240,122960,2,0,B|352:208|392:232,1,80,2|0
456,232,123374,6,0,B|488:272,4,40,2|0|0|0|0
424,160,123995,1,0
384,88,124202,1,2
384,88,124409,1,0
384,88,124512,1,0
384,88,124616,1,2
304,80,124822,1,0
256,144,125029,1,2
256,144,125236,1,0
256,144,125340,1,0
256,144,125443,1,2
256,144,125650,1,2
135,248,125857,6,6,B|192:192,1,80,4|0
256,232,126271,2,6,B|256:312,1,80,4|0
376,248,126685,2,6,B|296:168,1,80,4|0
256,144,127098,5,6
256,144,127305,1,0
256,56,127512,6,0,B|184:24|96:32,1,160,8|0
24,64,128133,1,0
24,64,128340,2,0,B|88:128|104:224,1,160,8|0
120,360,129167,1,8
192,328,129374,1,0
192,328,129478,1,0
192,328,129581,1,0
272,328,129788,1,0
272,328,129995,2,0,B|376:360|456:312,1,160,8|0
472,256,130616,5,0
440,184,130822,1,8
384,80,131133,1,0
384,80,131236,2,0,B|352:112|280:112,1,80
232,112,131650,1,8
112,96,131960,1,0
112,96,132064,2,0,B|80:128|80:200,1,80
72,248,132478,6,0,B|128:320|232:312,1,160,8|0
288,312,133098,2,0,B|304:352,2,40,0|0|8
344,256,133512,1,0
312,184,133719,1,8
232,200,133926,1,0
232,200,134133,6,0,B|200:112|104:80,1,160,8|0
48,56,134753,2,0,B|8:88|0:152,1,80,0|8
72,160,135167,2,0,B|112:192|120:256,1,80,0|0
136,304,135581,1,0
136,304,135788,6,0,B|217:369|316:342,1,160,8|0
360,336,136409,1,0
360,336,136616,1,8
424,288,136822,1,0
392,216,137029,5,0
360,144,137236,1,0
288,184,137443,1,8
184,64,137857,5,0
112,24,138064,1,0
56,88,138271,1,8
64,248,138685,1,0
64,248,138891,1,0
64,248,139098,6,0,B|128:272|184:272,1,120,8|0
224,272,139512,2,0,B|271:267|304:289,1,80,8|0
376,312,139926,5,8
408,288,140029,1,0
400,248,140133,1,0
432,224,140236,1,0
416,184,140340,1,8
432,104,140547,1,0
392,32,140753,6,0,B|312:32|216:80,1,160,8|0
264,144,141374,1,0
264,144,141581,2,0,B|296:232|280:320,1,160,8|0
120,304,142409,1,8
56,256,142616,1,0
56,256,142719,1,0
56,256,142822,1,0
72,176,143029,1,0
72,176,143236,2,0,B|8:136,4,40,8|0|0|0|0
152,152,143857,5,0
152,152,144064,2,0,B|240:160|336:120,1,160,8|0
384,104,144685,1,0
360,24,144891,2,0,B|272:16|176:56,1,160,8|0
128,72,145512,1,0
64,120,145719,6,0,B|40:200|72:304,1,160,8|0
128,328,146340,1,0
128,328,146443,1,0
128,328,146547,2,0,B|168:376|216:368,1,80,8|0
264,328,146960,2,0,B|312:304|336:264,1,80,8|0
384,224,147374,6,0,B|432:144|424:56,2,160,8|0|8
312,192,148409,1,0
280,176,148512,1,0
248,160,148616,1,8
168,128,148822,1,0
168,128,149029,2,0,B|120:208|128:296,1,160,8|0
128,360,149650,1,0
208,336,149857,2,0,B|312:288,1,80,8|0
256,224,150271,2,0,B|352:184,1,80,8|0
400,160,150685,5,4
312,24,151098,1,8
240,48,151305,1,0
168,72,151512,5,4
96,216,151926,1,0
168,248,152133,1,0
240,280,152340,6,0,B|216:336,4,40,4|0|0|0|0
368,200,152960,5,0
304,72,153167,6,0,B|328:16,6,40,4|0|0|0|0|0|0
256,192,153995,12,0,154822
256,80,155236,6,0,B|256:0,4,40
256,80,156064,5,2
200,136,156478,1,0
232,208,156891,1,2
312,232,157305,5,0
360,296,157719,1,2
312,360,158133,1,0
240,336,158547,1,2
240,256,158960,6,0,B|160:200,1,80,0|2
112,160,159788,2,0,B|184:120,1,80,0|2
256,80,160616,5,0
336,64,161029,1,2
408,104,161443,1,0
416,184,161857,1,2
360,240,162271,6,0,B|296:296,1,80,0|2
216,288,163098,1,0
216,288,163305,1,0
216,288,163512,1,2
200,208,163926,6,0,B|264:152,1,80,0|2
260,72,164753,1,0
260,72,164960,1,0
260,72,165167,1,2
180,60,165581,6,0,B|116:116,1,80,0|2
120,192,166409,1,0
120,192,166616,1,0
120,192,166822,1,2
256,272,167236,6,0,L|256:320,6,40,4|0|2|0|0|0|2
256,200,168891,5,4
256,192,175512,12,0,180064
256,80,180478,5,4
256,80,180891,1,4
256,80,181305,1,4
256,80,181719,5,4
256,160,181926,1,0
256,256,182133,6,0,B|208:256|152:304,2,80,8|0|0
336,288,182753,1,0
416,320,182960,2,0,B|472:248|456:136,1,160,8|0
376,40,183788,1,8
376,40,183995,1,0
304,88,184202,1,0
216,64,184409,1,0
216,64,184512,1,0
216,64,184616,2,0,B|128:32,2,80,8|0|0
192,152,185236,5,0
160,232,185443,2,0,B|200:272|256:288,2,80,8|0|0
80,192,186064,1,0
80,192,186271,2,0,B|8:256|32:368,1,160,8|0
112,320,186891,1,0
112,320,186995,1,0
112,320,187098,6,0,B|184:368|296:352,1,160,8|0
352,336,187719,1,0
352,336,187822,1,0
352,336,187926,1,8
424,288,188133,1,0
368,224,188340,1,8
440,176,188547,1,0
464,88,188753,6,0,B|360:40|280:56,1,160,8|0
309,52,189374,1,0
224,64,189581,2,0,B|264:160,1,80,8|0
168,144,189995,2,0,B|208:248,1,80,8|0
216,304,190409,6,0,B|112:352|32:336,1,160,8|0
61,339,191029,1,0
72,256,191236,2,0,B|152:216,1,80,8|0
96,144,191650,2,0,B|176:104,1,80,8|0
248,72,192064,6,0,B|328:152|416:136,1,160,8|8
464,192,192684,1,0
432,272,192891,2,0,B|352:352|264:336,1,160,8|8
208,328,193512,1,0
120,312,193719,6,0,B|88:344,4,40,8|0|0|0|8
88,232,194340,1,0
88,232,194547,2,0,B|32:248,4,40,8|0|0|0|8
112,144,195167,1,8
184,88,195374,6,0,B|256:16|360:32,1,160,4|0
416,40,195995,1,0
480,96,196202,2,0,B|512:136|504:208,2,80,8|0|0
416,160,196822,1,0
336,192,197029,1,8
304,272,197236,1,0
224,240,197443,1,0
168,312,197650,1,0
168,312,197753,1,0
168,312,197857,2,0,B|80:280,2,80,8|0|0
224,240,198478,5,0
256,160,198684,2,0,B|296:120|352:104,2,80,8|0|0
200,96,199305,1,0
200,96,199409,1,0
200,96,199512,2,0,B|190:40|153:-4,2,80,8|0|0
144,168,200133,1,0
56,152,200340,2,0,B|8:224|24:336,1,160,8|0
96,352,200960,1,0
96,352,201064,1,0
96,352,201167,1,8
160,288,201374,5,0
232,344,201581,1,8
296,288,201788,1,0
360,232,201995,5,8
360,232,202409,1,0
408,64,202822,2,0,B|472:120,1,80,8|0
384,144,203236,2,0,B|304:176,1,80,8|0
232,208,203650,5,8
232,208,204064,1,0
64,264,204478,2,0,B|116:324,1,80,8|0
144,239,204892,2,0,B|173:164,1,80,8|0
200,80,205305,5,4
200,80,205512,1,0
280,48,205719,1,8
280,48,205926,1,0
368,72,206133,1,4
368,72,206340,1,0
408,152,206547,1,0
408,152,206753,1,0
384,240,206960,6,0,B|440:264,4,40,4|0|0|0|0
256,136,207581,5,0
128,240,207788,6,0,B|72:264,7,40,4|0|0|0|0|0|0|0
256,192,208616,12,4,210271
