osu file format v7

[General]
AudioFilename: Tag.ogg
AudioLeadIn: 0
PreviewTime: 59598
Countdown: 0
SampleSet: Normal
StackLeniency: 0.4
Mode: 0
LetterboxInBreaks: 1

[Editor]
Bookmarks: 19874,33115,44701,57943,86081,87736,100977,114219,127460,140701,153943,155598,182081,208564
DistanceSpacing: 1.20000004768372
BeatDivisor: 4
GridSize: 8

[Metadata]
Title:Tag
Artist:REDALiCE
Creator:Pokie
Version:AngelHoney
Source:Touhou
Tags:no-7 hatsunowind angelhoney c75 alice's emotion trois rouge misato satori 3rd eye maiden

[Difficulty]
HPDrainRate:5
CircleSize:4
OverallDifficulty:8
SliderMultiplier:1.6
SliderTickRate:0.5

[Events]
//Background and Video events
0,0,"BG.jpg"
//Break Periods
//Storyboard Layer 0 (Background)
//Storyboard Layer 1 (Fail)
//Storyboard Layer 2 (Pass)
//Storyboard Layer 3 (Foreground)
//Storyboard Sound Samples
//Background Colour Transformations
3,100,0,0,0

[TimingPoints]
5030,413.793103448276,4,1,0,20,1,0
5236,-100,4,1,0,10,0,0
5650,-100,4,1,0,0,0,0
6064,-100,4,1,0,30,0,0
6685,-100,4,1,0,50,0,1
6735,-100,4,1,0,50,0,0
18373,-100,4,1,0,0,0,0
18684,-100,4,1,0,10,0,0
18890,-100,4,1,0,20,0,0
19097,-100,4,1,0,30,0,0
19304,-100,4,1,0,40,0,0
19718,-100,4,1,0,50,0,0
30994,-100,4,1,0,40,0,0
31459,-100,4,1,0,50,0,0
31615,-100,4,1,0,45,0,0
31821,-100,4,1,0,40,0,0
32028,-100,4,1,0,35,0,0
32235,-100,4,1,0,35,0,0
32442,-100,4,1,0,26,0,0
32649,-100,4,1,0,30,0,0
32856,-100,4,1,0,15,0,0
33063,-100,4,1,0,50,0,0
44701,-100,4,1,0,40,0,0
46304,-100,4,1,0,50,0,0
46408,-100,4,1,0,50,0,1
46459,-100,4,1,0,50,0,0
56235,-100,4,1,0,30,0,0
56442,-100,4,1,0,35,0,0
56649,-100,4,1,0,40,0,0
56856,-100,4,1,0,45,0,0
57063,-100,4,1,0,50,0,0
57270,-100,4,1,0,55,0,0
57477,-100,4,1,0,60,0,0
57684,-100,4,1,0,64,0,0
57890,-100,4,1,0,50,0,0
59649,-100,4,1,0,50,0,1
59701,-100,4,1,0,50,0,0
72890,-100,4,1,0,50,0,1
72942,-100,4,1,0,50,0,0
85925,-100,4,1,0,40,0,0
86132,-100,4,1,0,30,0,0
86339,-100,4,1,0,20,0,0
86546,-100,4,1,0,10,0,0
86752,-100,4,1,0,0,0,0
87166,-100,4,1,0,30,0,0
87735,-100,4,1,0,50,0,0
87787,-100,4,1,0,50,0,1
87839,-100,4,1,0,50,0,0
97615,-100,4,1,0,20,0,0
97821,-100,4,1,0,25,0,0
98028,-100,4,1,0,30,0,0
98235,-100,4,1,0,35,0,0
98442,-100,4,1,0,40,0,0
98649,-100,4,1,0,45,0,0
98856,-100,4,1,0,50,0,0
101028,-100,4,1,0,50,0,1
101080,-100,4,1,0,50,0,0
112511,-100,4,1,0,40,0,0
114166,-100,4,1,0,50,0,0
114270,-100,4,1,0,50,0,1
114321,-100,4,1,0,50,0,0
123684,-100,4,1,0,20,0,0
123890,-100,4,1,0,25,0,0
124097,-100,4,1,0,30,0,0
124304,-100,4,1,0,36,0,0
124511,-100,4,1,0,40,0,0
124718,-100,4,1,0,45,0,0
124925,-100,4,1,0,50,0,0
125132,-100,4,1,0,55,0,0
125339,-100,4,1,0,60,0,0
125546,-100,4,1,0,65,0,0
125752,-100,4,1,0,60,0,0
125959,-100,4,1,0,40,0,0
126166,-100,4,1,0,60,0,0
126373,-100,4,1,0,40,0,0
126580,-100,4,1,0,60,0,0
126787,-100,4,1,0,40,0,0
126994,-100,4,1,0,40,0,0
127408,-100,4,1,0,50,0,0
127511,-100,4,1,0,50,0,1
127563,-100,4,1,0,50,0,0
153890,-100,4,1,0,26,0,0
154201,-100,4,1,0,20,0,0
154408,-100,4,1,0,16,0,0
154615,-100,4,1,0,10,0,0
155028,-100,4,1,0,30,0,0
155597,-100,4,1,0,50,0,0
155649,-100,4,1,0,50,0,1
155701,-100,4,1,0,50,0,0
175409,-100,4,1,0,30,0,0
176961,-100,4,1,0,40,0,0
178616,-100,4,1,0,50,0,0
180270,-100,4,1,0,40,0,0
180787,-100,4,1,0,50,0,0
180994,-100,4,1,0,40,0,0
181201,-100,4,1,0,60,0,0
181408,-100,4,1,0,40,0,0
181615,-100,4,1,0,70,0,0
181821,-100,4,1,0,40,0,0
182028,-100,4,1,0,50,0,0
182132,-100,4,1,0,50,0,1
182184,-100,4,1,0,50,0,0
195373,-100,4,1,0,50,0,1
195425,-100,4,1,0,50,0,0
208511,-100,4,1,0,30,0,0
208823,-100,4,1,0,25,0,0
209030,-100,4,1,0,20,0,0
209236,-100,4,1,0,10,0,0
209649,-100,4,1,0,30,0,0
210270,-100,4,1,0,30,0,1
210321,-100,4,1,0,30,0,0

[Colours]
Combo1 : 255,0,128
Combo2 : 255,0,255
Combo3 : 128,0,128
Combo4 : 176,0,88

[HitObjects]
256,192,5030,12,0,5857
232,72,6271,5,8
232,72,6374,1,8
232,72,6478,1,8
232,72,6581,1,8
232,72,6685,6,0,B|272:80|312:112,1,80,4|0
384,152,7098,2,0,B|352:184|296:208,1,80,8|0
280,224,7409,1,0
240,248,7512,2,0,B|200:248|128:232,1,80
64,240,7926,2,0,B|64:192|112:136,1,80,8|0
216,56,8340,5,0
312,80,8547,1,0
256,160,8754,1,8
352,184,8961,1,0
288,256,9167,2,0,B|312:296|360:320,2,80,0|0|8
80,208,9788,6,0,B|88:256|112:296,1,80
168,208,10202,1,0
216,128,10409,2,0,B|264:200,1,80,8|0
320,120,10823,1,0
368,40,11029,2,0,B|408:56|448:112,2,80,0|8|0
456,232,11650,6,0,B|440:280|384:296,1,80
328,224,12064,2,0,B|288:248|272:296,1,80,8|0
264,328,12374,1,0
232,360,12478,1,0
128,264,12685,1,0
104,224,12788,1,0
88,176,12892,2,0,B|72:128|104:80,1,80,8|0
264,88,13305,6,0,B|296:64|344:56,1,80
320,152,13719,1,8
408,184,13926,1,0
400,232,14029,1,0
392,280,14133,2,0,B|368:320|304:320,1,80
280,304,14443,1,0
232,288,14547,2,0,B|200:328|136:320,1,80,8|0
152,224,14961,5,0
80,160,15167,1,0
128,72,15374,1,8
224,72,15581,2,0,B|240:184,2,80
320,48,16202,1,8
384,120,16409,6,0,B|336:200,1,80
376,280,16823,1,0
304,344,17029,2,0,B|200:304,1,80,8|0
136,328,17443,1,0
64,264,17650,2,0,B|96:232|160:232,1,80,0|8
184,224,17961,1,0
232,216,18064,1,0
280,208,18167,1,0
328,200,18271,1,4
256,192,18478,12,0,19512
184,168,19926,5,4
168,264,20133,1,0
240,200,20340,1,8
320,256,20547,2,0,B|376:224,1,40
400,216,20754,2,0,B|432:184|432:136,1,80
424,48,21167,2,0,B|384:48|344:88,1,80,8|0
168,72,21581,5,0
104,144,21788,1,0
104,240,21995,1,8
192,208,22202,1,0
280,176,22409,2,0,B|320:160|360:176,2,80,0|0|8
304,328,23029,6,0,B|344:344|392:344,1,80
376,248,23443,2,0,B|416:240|464:200,1,80,0|8
368,152,23857,2,0,B|368:112|328:48,1,80
264,136,24271,2,0,B|232:104|168:96,2,80,0|8|0
96,288,24892,6,0,B|128:312|184:320,1,80
264,336,25305,1,8
360,312,25512,1,0
368,264,25616,1,0
376,216,25719,1,0
304,96,25926,1,0
264,120,26029,1,0
224,144,26133,1,8
96,96,26340,1,0
32,240,26547,6,0,B|32:288|64:328,1,80
128,248,26961,1,8
224,256,27167,1,0
256,168,27374,2,0,B|296:152|352:152,1,80
384,152,27685,1,0
432,152,27788,2,0,B|456:112|448:64,1,80,8|0
288,40,28202,5,0
192,64,28409,1,0
112,120,28616,1,8
64,208,28823,1,0
120,288,29029,2,0,B|152:264|200:248,1,80
288,256,29443,2,0,B|280:296|216:344,1,80,8|0
312,120,29857,5,0
408,112,30064,1,0
456,200,30271,2,0,B|461:237|440:280,1,80,8|0
376,344,30685,2,0,B|344:320|344:264,1,80
208,168,31098,5,8
208,168,31202,1,0
208,168,31305,1,0
208,168,31409,1,0
208,168,31512,2,0,B|216:112|264:64,1,80,4|0
336,88,31926,2,0,B|336:136|296:184,1,80,8|0
368,240,32340,2,0,B|400:216|416:168,1,80
480,240,32754,2,0,B|480:296|441:337,1,80,8|0
168,312,33167,5,4
248,256,33374,2,0,B|264:296|264:336,1,80,0|8
344,280,33788,1,0
344,280,33892,1,0
344,280,33995,2,0,B|344:216|304:184,1,80
240,152,34409,1,8
144,128,34616,1,0
280,88,34823,6,0,B|280:136|224:160,1,80
312,272,35236,2,0,B|312:224|256:200,1,80,8|0
176,240,35650,2,0,B|145:276|72:296,1,80
80,192,36064,1,8
88,64,36271,6,0,B|123:45|184:56,1,80
248,96,36685,1,0
320,160,36892,2,0,B|304:208|248:240,1,80,8|0
192,272,37305,1,0
96,296,37512,2,0,B|96:256|128:192,2,80,0|8|0
160,96,38133,5,0
216,168,38340,1,0
304,120,38547,2,0,B|336:152|344:216,1,80,8|0
360,232,38857,1,0
336,272,38961,2,0,B|336:312|296:352,1,80
264,352,39271,1,0
224,328,39374,2,0,B|200:304|144:296,1,80,8|0
48,128,39788,6,0,B|80:72|136:56|216:88,1,160,0|8
216,176,40409,2,0,B|184:200|160:240,1,80
120,320,40823,2,0,B|160:328|200:352,1,80,0|8
256,272,41236,2,0,B|288:248|336:232,1,80
424,256,41650,2,0,B|400:304|352:336,2,80,0|8|0
440,160,42271,2,0,B|400:88|296:80,1,160,0|8
96,144,42892,5,0
192,128,43098,1,0
152,216,43305,1,0
248,224,43512,2,0,B|240:272|208:312,1,80,8|0
312,304,43926,1,0
312,304,44030,1,0
312,304,44133,1,0
400,264,44340,1,8
400,264,44443,1,0
400,264,44547,1,0
400,264,44650,1,0
400,264,44754,6,4,B|400:296,16,20
232,104,45995,5,8
232,104,46202,1,0
144,136,46409,2,0,B|120:176|112:240,1,80,4|0
120,304,46823,1,8
208,264,47030,1,0
296,224,47236,2,0,B|336:200|400:208,1,80
448,264,47650,6,0,B|447:319|424:360,1,80,8|0
336,328,48064,2,0,B|304:352|240:360,2,80,0|0|8
264,264,48685,2,0,B|248:224|200:200,2,80
96,144,49305,5,8
152,64,49512,1,0
208,144,49719,2,0,B|248:144|296:176,1,80
328,80,50133,2,0,B|384:88|416:144,1,80,8|0
368,216,50547,2,0,B|416:216|456:264,1,80
432,96,50961,5,8
472,184,51167,1,0
416,264,51374,1,0
336,208,51581,1,0
240,184,51788,1,8
144,160,51995,2,0,B|144:112|192:72,2,80
32,232,52616,5,8
72,320,52823,1,0
128,240,53030,2,0,B|144:200|200:184,1,80
272,144,53443,2,0,B|288:96,2,40,8|0|0
296,240,53857,2,0,B|304:280|344:328,1,80
416,208,54271,5,8
392,112,54478,1,0
320,48,54685,2,0,B|272:48|240:80,1,80
152,72,55098,1,8
112,160,55305,2,0,B|112:208|160:248,2,80
96,328,55926,6,0,B|144:336|184:320,1,80,8|0
272,304,56340,1,0
368,280,56547,1,0
456,240,56754,1,8
496,152,56961,1,0
472,56,57167,1,0
384,16,57374,1,0
288,0,57581,1,8
200,32,57788,1,0
256,192,57995,12,0,58823
184,232,59650,5,4
264,176,59857,1,0
104,168,60064,1,8
160,320,60271,1,0
184,232,60478,2,0,B|232:256|288:248,1,80
352,224,60892,2,0,B|360:264|336:312,1,80,8|0
432,264,61305,2,0,B|448:208,2,40
384,344,61719,2,0,B|352:368|304:368,1,80,8|0
216,344,62133,1,0
136,288,62340,1,0
40,176,62547,6,0,B|64:144|136:136,1,80,8|0
160,56,62961,2,0,B|208:48|240:88,1,80
256,176,63374,1,8
320,248,63581,1,0
400,192,63788,2,0,B|448:192|496:248,1,80
408,296,64202,2,0,B|440:328|424:384,1,80,8|0
320,248,64616,6,0,B|237:217|165:265,1,160,0|8
96,336,65236,1,0
56,248,65443,2,0,B|-8:184|56:72,1,160,0|8
152,48,66064,6,0,B|200:48|248:72,1,80
320,104,66478,1,0
264,184,66685,1,8
288,280,66892,1,0
360,344,67098,2,0,B|400:336|448:296,1,80
448,216,67512,2,0,B|400:216|352:256,1,80,8|0
320,104,67926,6,0,B|320:48,2,40
224,128,68340,1,8
136,160,68547,2,0,B|136:208|168:256,2,80
280,240,69167,6,0,B|320:240|376:256,1,80,8|0
384,160,69581,2,0,B|432:168|464:208,1,80
464,296,69995,1,8
384,352,70202,2,0,B|352:368|288:368,1,80
224,312,70616,1,0
72,272,70823,2,0,B|88:320|144:336,1,80,8|0
72,112,71236,6,0,B|136:56|256:72,1,160,0|8
208,168,71857,1,0
184,264,72064,2,0,B|224:248|296:256,1,80
352,208,72478,2,0,B|368:248|360:312,1,80,8|0
120,128,72892,6,0,B|200:104|288:112,1,160,0|8
240,200,73512,1,0
200,288,73719,2,0,B|288:264|384:280,1,160,0|8
312,360,74340,1,0
408,136,74547,6,0,B|448:152|488:208,1,80
384,224,74961,2,0,B|336:224|296:200,1,80,8|0
272,120,75374,2,0,B|312:72,2,40
192,264,75788,5,8
128,200,75995,1,0
120,104,76202,2,0,B|80:96|24:104,1,80
208,48,76616,1,8
304,48,76823,1,0
384,104,77030,2,0,B|424:96|480:104,1,80
424,192,77443,2,0,B|472:208|488:272,1,80,8|0
224,256,77857,6,0,B|184:248|128:200,1,80
80,152,78271,2,0,B|64:96,2,40,8|0|0
40,240,78685,2,0,B|48:288|88:344,2,80,0|0|8
168,152,79305,5,0
264,136,79512,1,0
312,216,79719,1,0
248,288,79926,1,8
160,248,80133,2,0,B|112:256|72:240,1,80
48,152,80547,2,0,B|32:112|40:64,1,80,0|8
120,24,80961,1,0
216,48,81167,2,0,B|304:32|392:64,1,160,0|8
328,144,81788,1,0
280,232,81995,2,0,B|200:224|112:248,1,160,0|8
96,112,82616,6,0,B|96:160|112:200,1,80
200,152,83030,2,0,B|184:192|184:240,1,80,0|8
280,208,83443,2,0,B|256:240|240:312,1,80
344,288,83857,2,0,B|312:312|288:368,2,80,0|8|0
480,160,84478,5,0
432,72,84685,1,0
352,128,84892,1,8
272,72,85098,1,0
184,104,85305,2,0,B|112:64|0:72,1,160,0|8
256,192,86133,12,0,86961
256,200,87374,5,8
256,200,87478,1,8
256,200,87581,1,8
256,200,87685,1,8
256,200,87788,6,0,B|288:168|352:168,1,80,4|0
336,264,88202,2,0,B|376:272|408:312,1,80,8|0
424,352,88512,1,0
384,376,88616,1,0
288,352,88823,1,0
192,352,89030,1,8
168,256,89236,1,0
72,272,89443,2,0,B|32:240|32:176,1,80
128,200,89857,2,0,B|160:176|232:168,1,80,8|0
296,152,90271,2,0,B|312:192|312:256,2,80,0|0|8
144,64,90892,5,0
232,24,91098,1,0
320,64,91305,1,0
360,152,91512,1,8
312,240,91719,1,0
232,296,91926,2,0,B|184:304|136:272,1,80
88,216,92340,1,8
56,128,92547,2,0,B|96:104|152:104,1,80
224,96,92961,1,0
312,64,93167,1,8
400,104,93374,5,0
432,136,93478,1,0
432,184,93581,1,0
336,208,93788,1,0
320,256,93892,1,0
336,304,93995,1,8
424,336,94202,1,0
208,344,94409,6,0,B|192:304|200:232,1,80
160,176,94823,2,0,B|200:152|256:152,1,80,8|0
280,136,95133,1,0
320,160,95236,2,0,B|368:160|424:184,1,80
440,200,95547,1,0
448,248,95650,2,0,B|456:288|432:344,1,80,8|0
256,328,96064,5,0
168,288,96271,1,0
240,224,96478,1,8
152,184,96685,1,0
80,120,96892,1,0
80,120,96995,1,0
80,120,97098,1,0
160,64,97305,2,0,B|200:40|256:48,1,80,8|0
312,240,97719,5,0
240,304,97926,1,0
144,296,98133,1,8
64,240,98340,1,0
48,144,98547,1,0
96,64,98754,1,0
192,48,98961,1,8
192,48,99064,1,0
192,48,99167,1,0
192,48,99271,1,0
192,48,99374,2,0,B|264:104|296:176|264:272|152:336,1,320,4|0
256,184,101030,6,0,B|256:232|312:280,1,80,4|0
360,192,101443,1,8
320,104,101650,1,0
224,96,101857,1,0
152,160,102064,1,0
160,256,102271,2,0,B|192:288|200:336,1,80,8|0
56,192,102685,6,0,B|40:152|48:104,1,80
128,64,103098,2,0,B|152:96|160:152,1,80,8|0
240,96,103512,2,0,B|280:80|328:80,2,80,0|0|8
264,264,104133,5,0
360,240,104340,1,0
376,144,104547,1,0
288,104,104754,1,8
216,168,104961,1,0
160,248,105167,2,0,B|160:296|192:344,1,80
88,288,105581,2,0,B|72:248|72:200,1,80,8|0
104,64,105995,6,0,B|144:40,2,40
208,112,106409,1,8
304,96,106616,1,0
304,96,106719,1,0
304,96,106823,1,0
384,152,107030,1,0
384,152,107133,1,0
384,152,107236,2,0,B|384:200|360:256,1,80,8|0
208,288,107650,5,0
128,240,107857,1,0
200,184,108064,2,0,B|184:144|136:120,1,80,8|0
80,56,108478,2,0,B|120:32|184:32,1,80
248,64,108892,1,8
304,144,109098,1,0
312,304,109305,6,0,B|352:312|408:312,1,80
456,240,109719,1,8
440,144,109926,1,0
384,64,110133,2,0,B|344:56|296:72,2,80,0|0|8
200,128,110754,5,0
144,200,110961,1,0
232,240,111167,1,0
208,336,111374,1,8
304,320,111581,1,0
400,296,111788,2,0,B|440:320|512:328,1,80
480,224,112202,2,0,B|496:184|504:128,1,80,8|0
400,56,112616,6,4,B|376:56,20,20
232,72,113857,5,8
168,144,114064,1,0
152,240,114271,2,0,B|184:272|248:280,1,80,4|0
272,360,114685,2,0,B|320:344|336:296,1,80,8|0
400,240,115098,2,0,B|368:208|312:208,1,80
96,96,115512,5,8
88,192,115719,1,0
168,144,115926,1,0
72,280,116133,1,0
216,232,116340,1,8
56,368,116547,1,0
256,328,116754,6,0,B|288:360|360:344,1,80
392,272,117167,1,8
344,192,117374,1,0
264,144,117581,1,0
168,144,117788,2,0,B|200:224,1,80,0|8
104,232,118202,2,0,B|200:280,1,80
104,336,118616,2,0,B|208:320,1,80,0|8
272,296,119030,5,0
368,280,119236,1,0
432,208,119443,1,0
456,112,119650,1,8
376,56,119857,2,0,B|320:56|272:96,1,80
280,176,120271,2,0,B|328:168|368:128,1,80,0|8
104,168,120685,5,0
136,256,120892,1,0
224,224,121098,2,0,B|224:176|264:136,1,80,0|8
336,112,121512,1,0
336,208,121719,2,0,B|344:256|392:272,1,80
464,128,122133,6,0,B|464:216,1,80,8|0
416,88,122547,2,0,B|328:88,1,80
392,208,122961,2,0,B|376:304,1,80,8|0
352,160,123374,2,0,B|256:176,1,80
104,272,123788,5,8
192,304,123995,1,0
288,296,124202,1,0
376,256,124409,1,0
416,168,124616,1,8
400,72,124823,1,0
312,24,125030,1,0
216,32,125236,1,0
128,64,125443,1,8
80,144,125650,1,0
96,240,125857,6,0,B|176:320,1,80,4|0
288,160,126271,2,0,B|264:256,1,80,4|0
432,256,126685,2,0,B|336:320,1,80,4|0
256,344,127098,6,6,B|256:312,4,20
120,160,127512,6,0,B|112:200|120:248,1,80,4|0
208,184,127926,1,8
256,112,128133,2,0,B|296:96|360:96,1,80
352,192,128547,2,0,B|384:176|432:176,1,80,0|8
400,272,128961,1,0
264,312,129167,6,0,B|208:232|104:232,1,160,0|8
64,168,129788,1,0
144,112,129995,2,0,B|240:136|312:40,1,160,0|8
384,72,130616,1,0
376,168,130823,2,0,B|296:216|312:328,1,160,0|8
240,376,131443,1,0
160,320,131650,2,0,B|144:232|40:192,1,160,0|8
24,112,132271,1,0
104,56,132478,6,0,B|192:64,1,80
160,152,132892,2,0,B|248:160,1,80,8|0
288,80,133305,2,0,B|384:88,2,80,0|0|8
352,248,133926,5,0
272,304,134133,1,0
184,272,134340,1,0
104,224,134547,2,0,B|64:256,2,40,8|0|0
64,136,134961,2,0,B|64:96|88:56,1,80
176,16,135374,2,0,B|216:16|264:48,1,80,8|0
336,80,135788,6,0,B|296:112|272:168,1,80
376,168,136202,1,8
432,248,136409,2,0,B|432:304|392:352,1,80
312,320,136823,1,0
216,328,137030,2,0,B|176:320|136:288,1,80,8|0
80,224,137443,2,0,B|128:200|176:208,1,80
208,128,137857,2,0,B|168:104|104:96,1,80,8|0
200,24,138271,2,0,B|256:16|312:40,1,80
352,96,138685,2,0,B|360:136|352:192,1,80,8|0
256,192,139098,12,0,139926
136,136,140340,6,0,B|144:184|120:240,1,80
224,200,140754,1,4
240,104,140961,1,0
336,80,141167,1,8
344,176,141374,2,0,B|344:232|320:280,1,80
272,336,141788,2,0,B|232:312|176:312,1,80,0|8
96,320,142202,1,0
48,128,142409,6,0,B|112:80|208:88,1,160,0|8
200,184,143030,2,0,B|280:136|392:160,1,160
384,248,143650,1,8
312,312,143857,1,0
216,336,144064,2,0,B|136:280|160:168,1,160,0|8
216,120,144685,1,0
304,152,144892,2,0,B|312:248|224:296,1,160,0|8
208,192,145512,1,0
128,144,145719,2,0,B|88:128|48:72,1,80
152,48,146133,2,0,B|184:16|248:8,1,80,8|0
296,72,146547,2,0,B|312:112|304:168,2,80,0|0|8
400,208,147167,5,0
344,288,147374,1,0
248,312,147581,1,0
152,296,147788,2,0,B|128:360,2,40,8|0|0
80,232,148202,1,0
48,144,148409,1,0
104,64,148616,2,0,B|176:144,1,80,8|0
224,48,149030,2,0,B|232:152,1,80
328,112,149443,2,0,B|348:77,2,40,8|0|0
376,200,149857,1,0
312,272,150064,1,0
128,160,150271,6,0,B|112:192|120:248,1,80,8|0
208,208,150685,2,0,B|248:200|288:160,1,80
344,104,151098,1,8
416,40,151305,1,0
384,128,151512,1,0
392,224,151719,1,0
440,312,151926,2,0,B|400:312|368:347,1,80,8|0
288,304,152340,2,0,B|264:264|224:240,1,80
152,200,152754,1,8
56,176,152961,1,0
104,88,153167,2,0,B|144:104|200:80,1,80
360,88,153581,2,0,B|320:103|282:86,1,80,8|0
256,192,153995,12,0,154823
256,192,155236,5,8
256,192,155340,1,8
256,192,155443,1,8
256,192,155547,1,8
256,192,155650,5,4
352,216,155857,1,0
352,216,155961,1,0
352,216,156064,1,8
312,304,156271,1,0
312,304,156374,1,0
312,304,156478,1,0
216,320,156685,1,0
216,320,156788,1,0
216,320,156892,1,8
128,280,157098,1,0
128,280,157202,1,0
128,280,157305,5,0
72,200,157512,1,0
72,200,157616,1,0
72,200,157719,1,8
88,104,157926,1,0
88,104,158030,1,0
88,104,158133,1,0
160,40,158340,1,0
160,40,158443,1,0
160,40,158547,1,8
256,48,158754,1,0
256,48,158857,1,0
256,48,158961,6,0,B|336:96,1,80,4|0
376,176,159374,2,0,B|272:216,1,80,8|0
224,264,159788,2,0,B|136:200,1,80
104,136,160202,2,0,B|16:200,1,80,8|0
24,280,160616,2,0,B|112:248,1,80
192,224,161030,2,0,B|232:120,1,80,8|0
288,80,161443,2,0,B|384:88,1,80
464,112,161857,2,0,B|448:0,2,80,8|0|0
296,208,162478,5,0
208,168,162685,2,0,B|216:120|288:104,1,80,8|0
368,88,163098,1,0
464,112,163305,1,0
440,208,163512,2,0,B|424:256|464:304,1,80,8|0
352,296,163926,1,0
256,272,164133,1,0
160,248,164340,2,0,B|184:208|184:144,1,80,8|0
168,80,164754,1,0
264,56,164961,1,0
352,104,165167,2,0,B|392:104|440:144,1,80,8|0
280,224,165581,6,0,B|328:256,2,40
440,256,165995,2,0,B|488:248,2,40,8|0|0
432,112,166409,2,0,B|408:64,2,40
288,48,166823,2,0,B|240:40,2,40,8|0|0
80,152,167236,6,0,B|80:192|112:256,1,80,4|0
176,168,167650,2,0,B|208:144|224:96,1,80,8|0
376,128,168064,2,0,B|392:168|448:216,1,80
480,272,168478,2,0,B|448:304|392:312,1,80,8|0
232,160,168892,6,0,B|248:200|256:248,1,80,4|0
272,328,169305,1,8
176,304,169512,1,0
176,304,169616,1,0
176,304,169719,1,0
104,240,169926,1,0
80,152,170133,1,8
120,64,170340,1,0
296,88,170547,6,0,B|360:88,2,40
344,168,170961,2,0,B|392:168,2,40,8|0|0
392,256,171374,1,0
304,296,171581,1,0
216,264,171788,1,8
216,264,171892,1,0
216,264,171995,1,0
64,208,172202,5,0
64,208,172305,1,0
64,208,172409,2,0,B|80:168|112:128,1,80,0|8
184,88,172823,1,0
184,88,172926,1,0
184,88,173029,2,0,B|224:72|280:80,1,80
360,96,173443,1,8
312,176,173650,1,0
192,320,173857,6,0,B|296:344,1,80
328,264,174271,2,0,B|250:246,1,80,8|0
312,176,174685,2,0,B|416:200,1,80
448,120,175098,2,0,B|370:102,1,80,8|0
256,192,175512,12,8,176754
256,192,177167,12,8,178409
256,192,178823,12,0,180064
88,80,180478,6,0,B|192:112,1,80,4|0
424,144,180892,2,0,B|320:176,1,80,4|0
88,208,181305,2,0,B|192:240,1,80,4|0
432,272,181719,2,0,B|328:304,1,80,4|0
256,200,182133,5,4
216,112,182340,1,0
312,120,182547,1,8
352,208,182754,1,0
296,288,182961,2,0,B|240:288|200:272,1,80
160,144,183374,2,0,B|144:184|152:232,1,80,8|0
112,72,183788,2,0,B|152:56|200:64,2,80,0|0|8
272,56,184409,2,0,B|304:80|320:128,1,80
240,176,184823,2,0,B|272:208|328:208,1,80,0|8
400,168,185236,5,0
416,264,185443,2,0,B|376:288|360:344,1,80
280,288,185857,1,8
208,352,186064,2,0,B|168:336|144:288,1,80
96,224,186478,2,0,B|128:200|192:208,2,80,0|8|0
112,80,187098,6,0,B|224:56|288:72,1,160,0|8
216,144,187719,2,0,B|304:144|384:184,1,160
296,232,188340,2,0,B|384:272|424:352,1,160,8|0
320,336,188961,1,0
224,312,189167,1,8
144,264,189374,2,0,B|112:240|104:184,1,80
88,104,189788,1,0
168,48,189995,2,0,B|216:56|240:96,1,80,8|0
288,200,190409,5,0
352,128,190616,1,0
376,224,190823,1,8
448,168,191029,2,0,B|504:248|408:336,1,160
336,320,191650,1,8
240,304,191857,1,0
152,256,192064,2,0,B|136:160|208:88,1,160,0|8
264,176,192685,2,0,B|320:104|424:112,1,160
400,208,193305,2,0,B|360:232|336:296,1,80,8|0
208,328,193719,6,0,B|184:288|208:224,1,80,0|0
104,272,194133,2,0,B|128:232|192:216,1,80,8|0
80,176,194547,2,0,B|120:160|168:176,1,80,0|0
112,88,194961,2,0,B|160:96|200:152,1,80,8|0
88,72,195374,6,0,B|168:56|280:64,1,160,4|8
328,112,195995,1,0
304,208,196202,2,0,B|256:272|168:320,1,160,0|8
104,264,196823,1,0
88,168,197029,2,0,B|184:176|256:112,2,160,0|8|0
136,80,198064,1,0
184,160,198271,5,8
272,200,198478,1,0
368,224,198685,2,0,B|400:192|424:120,1,80
416,64,199098,1,8
320,88,199305,1,0
224,96,199512,2,0,B|216:144|168:168,1,80
88,192,199926,2,0,B|104:240|160:264,1,80,8|0
224,288,200340,2,0,B|248:272|304:272|328:256,3,80,0|0|8|0
392,296,201167,2,0,B|448:240|408:120,1,160,0|8
240,64,201788,6,0,B|232:112|208:144,1,80
112,136,202202,1,0
136,232,202409,2,0,B|160:256|208:280,1,80,8|0
288,232,202823,2,0,B|328:256|344:320,1,80
400,232,203236,2,0,B|496:200|480:72,1,160,8|0
384,128,203857,1,0
288,136,204064,2,0,B|192:160,1,80,8|0
352,224,204478,2,0,B|288:320,1,80
216,256,204892,2,0,B|128:328,1,80,8|0
136,120,205305,5,0
200,48,205512,1,0
296,72,205719,1,8
288,168,205926,1,0
272,264,206133,1,0
336,336,206340,2,0,B|376:336|416:304,1,80,0|8
472,232,206754,2,0,B|432:216|408:176,3,80,0|0|0|8
408,88,207581,2,0,B|424:40|488:40,3,80,0|0|0|8
480,136,208409,1,0
256,192,208616,12,0,209443
208,120,209857,6,0,B|208:184,4,40,8|8|8|8|8
