osu file format v9

[General]
AudioFilename: 02. REDALiCE - Selfish.mp3
AudioLeadIn: 0
PreviewTime: 56458
Countdown: 0
SampleSet: Normal
StackLeniency: 0.7
Mode: 0
LetterboxInBreaks: 1

[Editor]
Bookmarks: 22483,33954,45248,56542,67660,87601,98895,108954,110189,121483,132777,144071,163836,175130,186424,197719,217483
DistanceSpacing: 1.2
BeatDivisor: 4
GridSize: 8

[Metadata]
Title:Selfish
Artist:REDALiCE
Creator:happy30
Version:Lunatic
Source:Touhou
Tags:hakurei reimu gladiool maiden's capriccio dream battle ALiCE'S EMOTiON Ayumi Nomiya Third Ensemble Rouge

[Difficulty]
HPDrainRate:7
CircleSize:4
OverallDifficulty:7
ApproachRate:8
SliderMultiplier:1.9
SliderTickRate:1

[Events]
//Background and Video events
0,0,"reimu guitar.jpg"
//Break Periods
2,87801,98498
2,164036,174380
//Storyboard Layer 0 (Background)
//Storyboard Layer 1 (Fail)
//Storyboard Layer 2 (Pass)
//Storyboard Layer 3 (Foreground)
//Storyboard Sound Samples
//Background Colour Transformations
3,100,163,162,255

[TimingPoints]
72,352.941176470588,4,1,2,70,1,0
11370,-100,4,1,2,70,0,0
21782,-133.333333333333,4,1,1,70,0,0
42866,-133.333333333333,4,2,1,70,0,0
43395,-133.333333333333,4,1,1,70,0,0
45248,-133.333333333333,4,1,2,70,0,0
55836,-200,4,1,2,70,0,0
56542,-100,4,1,2,84,0,1
79130,-200,4,1,2,84,0,0
80895,-200,4,2,2,84,0,0
83101,-200,4,1,2,84,0,0
83542,-200,4,2,2,84,0,0
84513,-200,4,1,2,84,0,0
98189,-133.333333333333,4,2,2,84,0,0
103042,-133.333333333333,4,1,1,84,0,0
104983,-133.333333333333,4,2,2,84,0,0
107101,-133.333333333333,4,1,1,84,0,0
119101,-133.333333333333,4,2,1,84,0,0
119630,-133.333333333333,4,1,2,84,0,0
132071,-200,4,1,2,84,0,0
132777,-100,4,1,2,84,0,1
155366,-200,4,1,2,84,0,1
156777,-200,4,1,2,84,0,0
157130,-200,4,2,2,84,0,0
159336,-200,4,1,2,84,0,0
160130,-200,4,2,2,84,0,0
160748,-200,4,1,2,84,0,0
163130,-133.333333333333,4,1,2,84,0,0
174777,-133.333333333333,4,2,2,84,0,0
185366,-133.333333333333,4,1,2,70,0,0
186424,-100,4,1,2,91,0,1
209013,-200,4,1,2,84,0,0
210777,-200,4,2,2,84,0,0
212983,-200,4,1,2,84,0,0
213777,-200,4,2,2,84,0,0
214660,-100,4,1,2,84,0,0

[Colours]
Combo1 : 150,150,184
Combo2 : 75,6,189
Combo3 : 222,22,22

[HitObjects]
256,192,8542,12,4,9954
376,336,10659,5,0
384,312,10748,1,0
392,288,10836,1,0
400,264,10924,1,0
408,240,11013,1,0
200,368,11366,5,4
80,176,11542,1,0
80,176,11630,1,0
80,176,11719,2,0,B|48:224|56:288,1,95,8|0
104,344,12071,1,0
176,280,12248,2,0,B|272:232|368:320,1,190
352,306,12689,1,0
352,306,12777,1,0
504,192,12954,5,0
432,248,13130,1,8
264,160,13307,1,0
344,208,13483,1,0
472,80,13660,1,0
400,136,13836,1,8
320,88,14013,1,0
376,16,14189,6,0,B|456:88|392:208,1,190,4|8
312,224,14719,2,0,B|232:152|120:176,1,190
88,256,15248,1,8
88,256,15424,1,0
424,320,15778,1,0
424,320,15954,1,8
224,32,16307,6,0,B|144:104|208:224,1,190,4|12
432,176,17189,5,0
432,176,17277,1,0
432,176,17366,2,0,B|464:224|456:288,1,95,8|0
408,344,17718,1,0
336,280,17895,2,0,B|240:232|144:320,1,190
160,306,18336,1,0
160,306,18424,1,0
8,192,18601,5,0
80,248,18777,1,8
248,160,18954,1,0
168,208,19130,1,0
40,80,19307,1,0
112,136,19483,1,8
192,88,19660,1,0
136,16,19836,6,0,B|56:88|120:208,1,190,4|8
200,152,20366,2,0,B|280:80|392:104,1,190
496,248,21071,1,0
344,360,21425,1,0
288,296,21601,2,0,B|264:248|288:200,1,95,12|0
368,152,21954,5,0
152,344,22219,1,0
24,88,22483,1,0
24,88,22571,1,0
24,88,22660,6,0,B|96:112|176:88,1,142.499995753169,4|0
296,40,23366,1,0
264,128,23542,2,0,B|336:104|416:128,1,142.499995753169,0|0
421,131,23983,1,0
437,139,24071,6,0,B|413:211|437:291,1,142.499995753169,0|0
312,360,24777,2,0,B|336:288|312:208,1,142.499995753169,0|0
240,256,25307,1,0
168,296,25483,6,0,B|144:224|168:144,1,142.499995753169,0|0
448,184,26189,1,0
480,96,26365,2,0,B|408:120|328:96,1,142.499995753169,0|0
320,88,26807,1,0
304,80,26895,6,0,B|232:56|152:80,1,142.499995753169,0|0
72,216,27601,1,0
144,264,27778,1,0
224,232,27954,1,0
240,152,28130,1,0
240,152,28307,5,0
48,344,28660,1,0
48,344,28836,1,0
128,368,29013,2,0,B|200:336|280:368,1,142.499995753169
352,368,29542,5,0
32,200,29895,1,0
432,64,30248,1,0
472,136,30424,2,0,B|448:216,1,71.2499978765846
368,192,30777,2,0,B|296:160|216:192,1,142.499995753169
96,296,31483,5,0
96,296,31660,1,0
320,48,32013,1,0
320,48,32190,1,0
392,88,32366,2,0,B|448:144|432:240,2,142.499995753169
320,136,33248,5,0
304,144,33336,1,0
288,152,33424,1,0
272,160,33513,1,0
256,168,33601,1,0
184,120,33777,1,0
88,264,33954,6,0,B|160:296|240:264,1,142.499995753169,4|0
392,240,34660,1,0
360,328,34836,2,0,B|432:304|512:328,1,142.499995753169,0|0
216,368,35366,6,0,B|176:384|128:368,1,71.2499978765846,0|0
24,256,35895,1,0
88,96,36248,1,0
160,136,36424,1,0
216,72,36601,1,0
288,112,36777,6,0,B|360:80|440:112,1,142.499995753169
280,200,37483,1,0
312,288,37659,2,0,B|240:264|160:288,1,142.499995753169,0|0
16,352,38189,6,0,B|56:368|104:352,1,71.2499978765846
208,200,38542,2,0,B|168:184|120:200,1,71.2499978765846
400,352,39072,1,0
480,176,39248,2,0,B|440:160|392:176,1,71.2499978765846
176,296,39601,6,0,B|248:320|328:296,1,142.499995753169,0|0
384,240,40130,1,0
384,240,40307,1,0
144,64,40660,5,0
144,64,40836,2,0,B|144:152|80:208,1,142.499995753169
264,160,41542,2,0,B|352:160|408:96,1,142.499995753169
480,128,42072,1,0
472,216,42248,1,0
392,240,42424,6,0,B|312:240|264:312,1,142.499995753169
224,376,42954,1,2
64,312,43307,1,2
56,224,43483,5,0
72,216,43572,1,0
88,208,43660,1,0
104,200,43748,1,0
120,192,43836,2,0,B|96:120,1,71.2499978765846,4|0
128,40,44189,1,0
208,80,44366,2,0,B|272:87|314:43,1,106.874996814877,4|0
307,50,44719,5,0
320,136,44895,1,4
272,208,45072,1,0
280,296,45248,6,0,B|360:408|496:320,1,213.749993629754,4|0
424,120,45954,2,0,B|448:200|384:264,1,142.499995753169,8|0
168,136,46483,6,0,B|144:56|208:-8,1,142.499995753169
304,208,47013,1,0
368,152,47189,2,0,B|392:72|328:8,1,142.499995753169,8|8
192,136,47719,1,4
240,208,47896,1,0
232,296,48072,6,0,B|152:408|16:320,1,213.749993629754
88,120,48777,2,0,B|64:200|128:264,1,142.499995753169,8|0
344,136,49306,6,0,B|368:56|304:-8,1,142.499995753169
224,120,49836,1,0
176,208,50012,2,0,B|152:288|216:352,1,142.499995753169,8|8
288,360,50542,1,4
440,280,50895,5,4
88,376,51248,1,8
16,224,51601,1,4
16,224,51777,1,0
392,368,52130,1,0
336,24,52483,5,0
384,96,52660,2,0,B|384:176|320:224,1,142.499995753169,12|0
160,272,53277,1,0
72,120,53542,1,0
128,56,53719,6,0,B|168:128|264:120,1,142.499995753169,4|8
488,312,54424,1,0
312,232,54689,1,8
208,376,54954,1,0
43,200,55130,5,4
272,304,55395,1,8
408,115,55660,1,8
408,115,55836,2,0,B|352:128|312:104,1,95,0|0
112,256,56542,5,4
224,224,56719,1,0
224,224,56807,1,8
88,128,57071,1,8
24,352,57248,2,0,B|112:312|216:376,1,190,4|8
400,168,57954,5,4
288,136,58131,1,0
288,136,58219,1,8
424,40,58483,1,8
488,264,58660,2,0,B|448:312|384:288,1,95,4|0
296,264,59013,1,8
88,360,59366,5,4
24,200,59630,1,8
120,56,59895,1,8
208,128,60071,2,0,B|304:168|400:96,1,190,4|8
456,168,60601,1,0
416,256,60777,5,4
272,312,60954,1,0
40,168,61307,1,0
176,224,61483,1,12
256,168,61660,1,0
336,224,61836,1,8
344,248,61924,1,0
352,272,62013,1,0
360,296,62101,1,0
368,320,62189,1,4
464,256,62366,5,0
464,256,62454,1,8
368,120,62719,1,8
448,40,62895,2,0,B|472:88|456:136,1,95,4|0
320,240,63248,2,0,B|272:216|224:232,1,95,8|0
144,320,63601,1,4
48,256,63778,5,0
48,256,63866,1,8
144,120,64131,1,8
64,40,64307,2,0,B|40:88|56:136,1,95,4|0
240,216,64660,2,0,B|264:168|248:120,1,95,8|0
152,72,65013,5,4
104,232,65277,1,8
240,336,65542,1,8
456,184,65719,2,0,B|472:296|392:352,1,190,4|8
176,176,66248,5,0
176,176,66336,1,0
176,176,66424,2,0,B|232:288|368:224,1,190,4|8
408,152,66954,1,0
256,80,67130,2,0,B|200:-32|64:32,1,190,0|8
32,112,67660,5,0
32,112,67748,1,0
32,112,67836,1,4
96,208,68013,1,0
96,208,68101,2,0,B|80:272,1,47.5,8|0
152,344,68366,1,8
304,256,68542,2,0,B|320:200|288:152,1,95,4|0
360,0,68895,2,0,B|344:56|376:104,1,95,8|0
480,112,69247,5,4
416,208,69424,1,0
416,208,69512,2,0,B|432:272,1,47.5,8|0
360,344,69777,1,8
208,256,69953,2,0,B|192:200|224:152,1,95,4|0
360,48,70306,2,0,B|376:104|344:152,1,95,8|0
88,360,70660,5,4
24,200,70924,1,8
120,56,71189,1,8
208,128,71365,2,0,B|304:168|400:96,1,190,4|8
456,168,71895,1,0
232,352,72071,5,4
376,296,72248,2,0,B|320:304|280:280,1,95,0|8
192,208,72601,1,0
256,112,72777,2,0,B|312:120|352:96,1,95,4|0
136,24,73130,5,8
128,48,73219,1,0
120,72,73307,1,0
112,96,73395,1,0
104,120,73483,1,4
16,200,73660,1,0
16,200,73748,2,0,B|32:264,1,47.5,8|0
120,312,74013,1,8
192,208,74189,2,0,B|240:192|296:208,1,95,4|0
400,344,74542,2,0,B|352:360|296:344,1,95,8|0
408,56,74895,5,4
496,136,75072,1,0
496,136,75160,2,0,B|480:200,1,47.5,8|0
392,248,75425,1,8
320,144,75601,2,0,B|272:128|216:144,1,95
80,352,75954,2,0,B|128:368|184:352,1,95,8|0
264,288,76307,5,4
136,232,76483,1,0
328,24,76836,1,0
456,280,77189,1,0
184,360,77542,1,0
280,232,77719,6,0,B|320:128|272:40,1,190,4|8
72,136,78248,2,0,B|32:240|80:328,1,190
184,360,78777,1,8
288,320,78954,1,0
496,192,79131,6,0,B|352:104|328:296|176:184,1,332.5,4|0
185,190,80454,1,0
185,190,80542,1,4
185,190,81248,5,0
304,312,81513,1,2
424,192,81777,1,2
305,70,81954,2,0,B|328:176|248:256,1,190,4|0
112,296,83013,1,2
32,240,83189,1,0
32,240,83277,1,0
32,240,83366,1,4
32,240,84071,5,0
152,160,84336,1,2
272,240,84601,1,0
352,192,84777,2,0,B|456:224,1,95,4|0
296,344,85483,2,0,B|192:312,1,95,4|0
64,272,86101,5,0
64,272,86189,1,0
152,232,86366,1,0
176,144,86542,1,0
256,200,86719,1,0
344,168,86895,1,0
400,240,87071,1,0
400,240,87160,1,0
400,240,87248,1,0
376,336,87424,1,0
288,360,87601,1,4
416,240,99248,5,4
280,344,99601,1,0
224,280,99777,2,0,B|168:224|80:216,2,142.499995753169,0|0|2
80,120,100836,5,2
312,128,101189,1,2
248,72,101366,1,0
320,24,101542,2,0,B|400:0|472:40,1,142.499995753169,2|0
458,33,102071,5,0
264,224,102424,1,0
200,288,102601,2,0,B|120:312|48:272,1,142.499995753169,2|2
24,200,103130,1,4
160,32,103307,5,0
164,48,103395,1,0
164,64,103483,1,0
236,180,103660,1,0
232,164,103748,1,0
232,148,103836,1,0
284,80,104013,1,0
412,172,104189,1,0
416,188,104277,1,0
420,204,104365,1,0
416,220,104454,1,0
408,236,104542,6,0,B|328:228|272:276,1,142.499995753169,4|0
208,328,105071,1,2
76,220,105424,1,2
144,64,105777,5,2
284,164,106130,1,2
420,60,106483,2,0,B|460:120|444:208,1,142.499995753169,2|2
408,276,107013,1,0
328,244,107189,1,0
280,316,107366,6,0,B|228:332|180:320,1,71.2499978765846,4|0
72,136,107895,1,0
140,84,108071,2,0,B|192:100|240:88,1,71.2499978765846
368,256,108601,5,0
300,204,108777,2,0,B|248:220|200:208,1,71.2499978765846
360,64,109130,2,0,B|412:48|460:60,1,71.2499978765846
472,136,109483,1,0
464,152,109571,1,0
456,168,109660,1,0
448,184,109748,1,0
440,200,109836,1,0
472,280,110013,1,0
424,352,110189,6,0,B|328:376|264:312,1,142.499995753169,4|0
200,184,110895,1,0
136,240,111071,2,0,B|40:216|-24:280,1,142.499995753169
96,32,111601,5,0
168,72,111777,2,0,B|176:112|176:152,1,71.2499978765846,0|0
264,152,112130,2,0,B|272:192|272:232,1,71.2499978765846
240,304,112483,1,0
296,368,112660,1,0
432,264,112836,2,0,B|456:168|392:104,1,142.499995753169
360,64,113366,5,0
72,208,113719,1,0
136,264,113895,2,0,B|232:240|296:304,1,142.499995753169
336,344,114424,1,0
464,216,114601,6,0,B|472:176|472:136,1,71.2499978765846
392,128,114954,2,0,B|296:104|232:168,1,142.499995753169
176,112,115483,2,0,B|168:72|168:32,1,71.2499978765846
376,216,115836,6,0,B|400:312|336:376,1,142.499995753169,4|0
168,224,116366,1,0
96,176,116542,2,0,B|72:272|136:336,1,142.499995753169
184,360,117071,5,0
280,224,117424,1,0
184,80,117777,1,0
256,128,117954,1,0
344,128,118130,1,0
400,64,118307,1,0
400,64,118395,1,0
400,64,118483,1,0
472,112,118660,6,0,B|504:192|456:264,1,142.499995753169
408,312,119189,1,2
248,248,119542,1,2
200,320,119719,5,0
184,328,119807,1,0
168,336,119895,1,0
152,344,119983,1,0
136,352,120071,2,0,B|48:320,1,71.2499978765846
16,208,120424,2,0,B|104:240,1,71.2499978765846
352,160,120866,1,0
352,160,120954,2,0,B|264:192,1,71.2499978765846
352,264,121307,1,0
432,80,121483,6,0,B|544:160|456:296,1,213.749993629754,4|0
424,336,122189,1,0
352,288,122366,2,0,B|264:272|200:352,1,142.499995753169,0|8
96,176,123071,5,0
128,96,123248,1,0
200,56,123424,2,0,B|288:40|352:120,1,142.499995753169,8|8
384,168,123954,1,0
104,336,124307,6,0,B|56:272|96:184,1,142.499995753169,4|0
256,256,124836,1,0
336,280,125013,2,0,B|384:216|344:128,1,142.499995753169
312,72,125542,5,8
176,304,125895,1,0
232,368,126071,1,0
312,336,126248,2,0,B|376:288|464:328,1,142.499995753169,8|8
216,200,126777,2,0,B|152:248|64:208,1,142.499995753169,0|4
8,56,127483,5,0
176,104,127836,1,8
248,56,128013,2,0,B|312:104|400:64,1,142.499995753169,0|4
480,216,128719,5,0
408,176,128895,2,0,B|328:216|320:304,1,142.499995753169,8|4
216,360,129513,1,0
120,280,129777,1,0
176,208,129954,2,0,B|192:128|144:56,1,142.499995753169,4|8
320,32,130660,5,0
272,208,130924,1,8
392,344,131189,1,0
464,248,131366,5,4
176,336,131630,1,8
8,80,131895,1,8
72,160,132071,6,0,B|216:192,1,142.5,4|0
304,208,132777,5,4
272,96,132954,1,0
272,96,133042,1,8
112,280,133307,1,8
192,360,133483,2,0,B|248:384|304:360,1,95,4|0
488,264,133836,2,0,B|432:288|376:264,1,95,8|0
184,112,134189,5,4
256,24,134366,1,0
256,24,134454,1,8
368,160,134719,1,8
224,280,134895,1,4
144,200,135071,1,0
40,240,135248,2,0,B|24:296|56:368,1,95,8|0
280,200,135601,6,0,B|300:129|259:39,1,142.5,4|8
144,184,136130,1,8
48,128,136307,2,0,B|20:223|75:347,1,190,4|8
160,376,136836,1,0
256,320,137013,6,0,B|304:288|384:304,1,95,4|0
232,200,137366,2,0,B|184:232|104:216,1,95,8|0
272,64,137719,2,0,B|320:56|362:84,1,95,4|0
424,184,138071,1,8
416,208,138160,1,0
408,232,138248,1,0
400,256,138336,1,0
392,280,138424,5,4
480,360,138601,1,0
480,360,138689,1,8
304,208,138954,1,8
216,280,139130,2,0,B|168:304|112:288,1,95,4|0
8,96,139483,2,0,B|56:72|112:88,1,95,8|0
176,176,139836,5,4
264,96,140013,1,0
264,96,140101,1,8
408,336,140366,1,8
312,272,140542,2,0,B|344:171|398:237|421:94,1,190,4|8
160,264,141248,5,4
304,352,141513,1,8
440,248,141777,1,8
264,72,141954,2,0,B|216:176|296:264,1,190,4|8
184,352,142483,5,0
184,352,142571,1,0
184,352,142659,2,0,B|128:240|-8:304,1,190,4|8
80,192,143189,1,0
256,272,143365,2,0,B|312:384|448:320,1,190,0|8
480,240,143895,5,0
480,240,143983,1,0
480,240,144071,1,4
416,144,144248,1,0
416,144,144336,2,0,B|432:80,1,47.5,8|0
336,32,144601,1,8
224,168,144777,2,0,B|208:224|224:272,1,95,4|0
320,344,145130,2,0,B|336:288|320:240,1,95,8|0
32,144,145483,5,4
96,240,145660,1,0
96,240,145748,2,0,B|80:304,1,47.5,8|0
176,352,146013,1,8
352,240,146189,2,0,B|368:184|352:136,1,95,4|0
168,56,146542,2,0,B|152:112|168:160,1,95,8|0
240,232,146895,5,4
440,56,147160,1,8
504,216,147424,1,8
456,320,147601,2,0,B|360:384|272:320,1,190,4|8
176,368,148130,1,0
48,176,148307,6,0,B|152:216,1,95,4|0
232,144,148660,1,8
232,144,148748,1,0
232,144,148836,1,0
320,216,149013,2,0,B|336:272|320:320,1,95
160,240,149366,1,8
152,216,149454,1,0
144,192,149542,1,0
136,168,149630,1,0
128,144,149719,5,4
32,240,149895,1,0
32,240,149983,2,0,B|0:296,1,47.5,8|0
88,360,150248,1,8
256,208,150424,2,0,B|304:184|352:208,1,95,4|0
464,360,150777,2,0,B|416:384|368:360,1,95,8|0
272,304,151130,5,4
448,168,151307,1,0
448,168,151395,2,0,B|480:112,1,47.5,8|0
416,32,151660,1,8
168,112,151836,2,0,B|152:160|168:208,1,95,4|0
368,344,152189,2,0,B|384:296|368:248,1,95,8|0
288,168,152542,5,4
176,312,152719,2,0,B|56:352|-8:248,2,190
424,88,153777,1,0
424,88,153866,1,0
424,88,153954,2,0,B|440:144|424:184,1,95,4|0
328,240,154307,1,8
240,168,154483,6,0,B|192:264|240:360,1,190
352,376,155013,1,8
432,296,155189,1,0
368,200,155366,6,0,B|224:112|200:304|48:192,1,332.5,4|0
57,198,156689,1,0
57,198,156777,1,0
56,200,157483,5,0
144,88,157748,1,2
256,176,158013,1,2
344,144,158189,2,0,B|408:224|344:328,1,190,4|0
168,240,159248,5,2
80,280,159424,1,0
80,280,159513,1,0
80,280,159601,2,0,B|16:200|80:96,1,190
208,160,160571,1,2
344,96,160836,1,0
416,160,161013,6,0,B|432:256,1,95
360,360,161719,2,0,B|344:264,1,95
208,232,162336,1,0
208,232,162424,1,4
136,168,162601,1,0
48,200,162777,1,0
24,296,162954,1,0
88,360,163130,6,0,B|144:336|224:376,1,106.874996814877
192,362,163483,1,0
128,248,163660,1,0
208,152,163836,1,4
224,24,175130,5,4
296,72,175307,1,0
312,64,175395,1,2
424,0,175660,1,2
488,56,175836,1,0
488,144,176013,1,0
416,184,176189,2,0,B|328:232|264:160,1,142.499995753169,2|4
216,232,176719,5,0
200,224,176807,1,2
88,160,177072,1,2
24,216,177248,1,0
24,304,177425,1,0
96,344,177601,2,0,B|184:392|248:320,1,142.499995753169,2|4
288,176,178307,5,2
136,88,178660,1,0
24,216,179013,1,2
144,336,179366,5,0
160,328,179454,1,0
176,320,179542,1,0
192,316,179630,1,0
208,316,179719,1,2
224,320,179807,1,0
240,328,179895,1,0
256,340,179983,1,0
272,344,180071,1,0
288,344,180160,1,0
304,340,180248,2,0,B|376:304|380:212,1,142.499995753169,2|2
456,264,180777,5,4
492,184,180954,1,0
492,184,181042,1,2
448,36,181307,1,2
372,76,181483,1,0
300,32,181660,1,0
220,64,181836,2,0,B|172:132|212:212,1,142.499995753169,2|4
292,196,182366,5,0
292,196,182454,1,2
248,344,182719,1,2
172,304,182895,1,0
100,348,183072,1,0
20,316,183248,2,0,B|-28:248|12:168,1,142.499995753169,2|4
48,108,183777,5,0
48,108,183866,1,0
48,108,183954,1,2
132,104,184130,1,0
144,120,184219,1,0
152,136,184307,1,0
160,152,184395,1,0
164,168,184483,1,0
164,184,184571,1,0
164,200,184660,1,2
160,216,184748,1,0
152,232,184836,1,0
144,248,184924,1,0
132,260,185013,1,4
344,344,185719,5,4
336,328,185807,1,0
332,312,185895,1,0
332,296,185983,1,0
332,280,186072,1,0
336,264,186160,1,0
344,248,186248,1,0
352,232,186336,1,0
364,220,186425,5,4
456,288,186601,1,0
456,288,186689,1,8
288,136,186954,1,8
400,16,187130,2,0,B|416:64|392:128,1,95,4|0
176,192,187483,2,0,B|160:144|184:80,1,95,8|0
248,248,187836,5,4
156,316,188012,1,0
156,316,188100,1,8
24,200,188366,1,8
224,16,188542,1,4
168,120,188719,1,0
248,200,188895,2,0,B|352:232|368:344,1,190,8|4
480,48,189513,6,0,B|504:120|472:200,1,142.5,8|8
368,152,189954,2,0,B|264:184|248:296,1,190,4|8
168,368,190483,1,0
64,320,190660,5,4
48,208,190836,1,0
48,208,190924,1,0
48,208,191013,1,8
120,120,191189,1,0
120,120,191277,1,0
120,120,191366,2,0,B|168:152|240:144,1,95,4|0
272,240,191719,1,8
288,224,191807,1,0
312,208,191895,1,0
336,200,191983,1,0
360,200,192071,5,4
440,120,192248,1,0
440,120,192336,1,8
352,312,192601,1,8
168,192,192777,2,0,B|144:144|160:88,1,95,4|0
240,24,193130,2,0,B|264:72|248:128,1,95,8|0
80,232,193483,5,4
0,152,193660,1,0
0,152,193748,1,8
88,344,194013,1,8
328,160,194189,2,0,B|352:112|336:56,1,95,4|0
168,152,194542,2,0,B|144:200|160:256,1,95,8|0
232,328,194895,5,4
464,112,195160,1,8
496,280,195424,1,8
400,344,195601,2,0,B|352:248|248:224,1,190,4|0
240,64,196130,5,0
240,64,196219,1,0
240,64,196307,2,0,B|288:160|392:184,1,190,4|8
472,112,196836,1,0
488,224,197013,2,0,B|444:323|334:349,1,190,4|8
320,352,197454,1,0
296,352,197542,1,0
272,352,197630,1,0
248,344,197719,5,4
184,248,197895,1,0
184,248,197983,2,0,B|200:192,1,47.5,8|0
152,96,198248,1,8
32,224,198424,2,0,B|16:280|40:328,1,95,4|0
296,144,198777,2,0,B|312:88|288:40,1,95,8|0
384,120,199130,6,0,B|368:176|392:224,1,95,4|0
400,232,199395,1,8
416,248,199483,1,0
352,344,199660,1,8
200,184,199836,2,0,B|176:232|192:296,1,95,4|0
64,368,200189,2,0,B|88:320|72:256,1,95,8|0
24,176,200542,5,4
232,24,200807,1,8
320,168,201071,1,8
320,168,201160,1,0
320,168,201248,2,0,B|432:200|496:128,1,190,4|0
432,32,201777,1,0
184,176,201954,6,0,B|168:232|184:280,1,95,4|0
272,336,202307,1,8
360,264,202483,2,0,B|376:208|360:160,1,95,0|4
160,64,202836,1,0
68,128,203013,1,8
57,151,203101,1,0
55,174,203189,1,0
53,197,203277,1,0
59,220,203366,5,4
112,320,203542,1,0
112,320,203630,2,0,B|168:304,1,47.5,8|8
256,360,203895,1,8
360,168,204071,2,0,B|408:152|464:176,1,95,4|0
368,280,204424,2,0,B|320:296|264:272,1,95,8|0
216,184,204777,5,4
104,216,204954,1,0
104,216,205042,2,0,B|48:200,1,47.5,8|0
16,96,205307,1,8
104,24,205483,2,0,B|160:120|224:0|280:112,1,190,4|8
328,192,206013,1,0
432,152,206189,5,4
456,264,206366,2,0,B|440:352|360:376|304:352,1,190
112,248,207071,1,8
192,32,207424,1,0
288,88,207601,5,0
296,112,207689,1,0
304,136,207777,1,0
312,160,207866,1,0
320,184,207954,1,8
272,288,208130,1,0
184,360,208307,1,0
176,336,208395,1,0
168,312,208483,1,0
160,288,208572,1,0
152,264,208660,1,8
208,160,208836,1,0
432,120,209013,6,0,B|488:200|464:360|296:360,1,332.5,4|0
308,359,210336,1,0
308,359,210424,1,0
308,359,211130,5,0
240,232,211395,1,2
144,336,211660,1,2
56,296,211836,2,0,B|-8:224|32:104,1,190,4|0
248,272,212895,5,2
202,359,213071,1,0
202,359,213160,1,0
202,359,213248,1,4
204,359,213954,1,0
272,232,214219,1,2
368,336,214484,1,2
456,296,214660,6,0,B|520:224|496:104,1,190,4|8
120,48,215366,2,0,B|56:120|80:240,1,190,4|8
360,240,215983,1,0
360,240,216071,1,0
424,144,216248,1,0
384,40,216424,1,8
272,24,216601,1,0
200,112,216777,5,4
248,216,216954,1,0
248,216,217042,1,0
248,216,217130,1,8
192,312,217307,1,0
88,304,217483,1,4
