osu file format v6

[General]
AudioFilename: 205 Open the Door!.mp3
AudioLeadIn: 0
PreviewTime: 76616
Countdown: 1
SampleSet: Normal
StackLeniency: 0.7
Mode: 0
LetterboxInBreaks: 1

[Editor]
DistanceSpacing: 1
BeatDivisor: 4
GridSize: 8

[Metadata]
Title:Open the Door!
Artist:REDALiCE
Creator:K-S-O
Version:Wes
Source:Mother 3
Tags:earthbound mother 3 nintendo

[Difficulty]
HPDrainRate:3
CircleSize:3
OverallDifficulty:3
SliderMultiplier:1
SliderTickRate:1

[Events]
//Background and Video events
0,0,"mother 3.jpg"
//Break Periods
2,33101,42433
2,65330,75347
2,98245,108261
2,131844,141176
2,196301,198776
//Storyboard Layer 0 (Background)
//Storyboard Layer 1 (Fail)
//Storyboard Layer 2 (Pass)
//Storyboard Layer 3 (Foreground)
//Storyboard Sound Samples
//Background Colour Transformations
3,100,163,162,255

[TimingPoints]
10959,342.857142857143,4,1,0,100,1,0
76787,-100,4,1,0,100,0,1
98044,-100,4,1,0,100,0,0
176901,-100,4,1,0,100,0,1
187530,-100,4,1,0,100,0,0

[Colours]
Combo1 : 128,255,128
Combo2 : 0,128,255

[HitObjects]
176,80,10958,1,0
256,80,11301,1,0
336,80,11644,1,0
416,80,11987,1,0
416,160,12330,2,0,L|112:160,1,300
112,240,13701,5,0
192,240,14044,1,0
272,240,14387,1,0
352,240,14730,1,0
352,320,15073,2,0,L|32:320,1,300
48,240,16444,5,0
48,160,16787,1,0
48,80,17130,1,0
128,80,17473,1,0
208,80,17816,2,0,L|208:208,3,100
288,176,19187,5,0
288,96,19530,1,0
368,96,19873,1,0
368,176,20216,1,0
368,256,20559,2,0,L|224:256,3,100
208,208,21930,6,2,L|0:208,1,200
48,144,22959,2,2,L|288:144,1,200
320,128,23987,1,2
320,128,24330,1,2
400,128,24673,6,2,L|400:336,1,200
320,320,25701,2,2,L|112:320,1,200
80,256,26730,1,2
80,256,27073,1,2
160,240,27416,6,2,L|288:240,2,100
128,160,28444,2,2,L|256:160,2,100
144,80,29473,1,2
144,80,29816,1,2
224,80,30159,6,2,L|352:80,2,100
224,160,31187,2,2,L|352:160,2,100
224,240,32216,1,2
224,240,32559,1,2
304,240,32901,5,6
144,272,43873,5,0
224,272,44216,1,0
224,272,44387,2,0,L|224:128,1,100
224,96,45073,1,0
224,96,45244,2,0,L|368:96,2,100
352,192,46616,5,0
432,192,46959,1,0
432,192,47130,2,0,L|432:304,1,100
352,288,47816,1,0
352,288,47987,2,0,L|240:288,2,100
208,208,49359,6,0,L|64:208,2,100
304,80,50730,6,0,L|416:80,2,100
224,80,51759,5,0
224,80,51930,1,0
224,80,52101,2,0,B|224:176|176:208|144:224|112:240,2,200
352,128,54844,5,0
272,128,55187,1,0
272,128,55359,2,0,B|160:128,1,100
128,192,56044,1,0
128,192,56216,2,4,B|272:192,2,100
272,128,57587,5,0
352,128,57930,1,0
352,128,58101,2,0,B|352:256,1,100
272,224,58787,1,0
272,224,58959,2,4,B|160:224,2,100
192,80,60330,6,4,B|192:192,2,100
80,208,61701,6,4,B|80:96,2,100
128,272,62730,5,0
128,272,62901,1,0
128,272,63073,2,4,B|224:256|256:240|336:176,3,200
80,112,76787,5,0
160,112,77130,1,0
160,112,77301,2,0,B|224:64|288:96,1,100
336,112,77987,1,0
336,112,78159,2,2,B|432:144|432:288,1,200
272,320,79530,5,0
192,320,79873,1,0
192,320,80044,2,0,B|96:304|80:256,1,100
96,208,80730,1,0
96,208,80901,2,2,B|192:224|240:192|272:160|272:128,1,200
416,96,82273,5,4
477,141,82616,1,4
416,176,82959,1,4
272,256,83644,5,4
208,288,83987,1,4
272,320,84330,1,4
352,320,84673,5,0
352,320,84844,1,0
352,320,85016,2,6,B|352:208|272:128,3,200
128,192,87759,5,0
208,224,88102,1,0
208,224,88273,2,0,B|272:176|336:208,1,100
336,128,88959,1,0
336,128,89131,2,2,B|432:160|432:304,1,200
288,224,90502,5,0
288,304,90845,1,0
288,304,91016,2,0,B|192:288|176:240,1,100
112,272,91702,1,0
112,272,91873,2,2,B|108:200|172:156|236:148|288:192,1,200
128,64,93245,5,4
203,79,93588,1,4
278,96,93931,1,4
272,256,94616,5,4
208,288,94959,1,4
144,320,95302,1,4
112,240,95645,5,0
112,240,95816,1,0
112,240,95988,2,6,B|112:128|240:48,3,200
144,112,109701,5,0
144,192,110044,1,0
144,272,110387,1,0
144,352,110730,1,0
224,352,111073,2,0,L|224:48,1,300
304,48,112444,5,0
304,128,112787,1,0
304,208,113130,1,0
304,288,113473,1,0
384,304,113816,2,0,L|384:-16,1,300
304,0,115187,5,0
224,0,115530,1,0
144,0,115873,1,0
144,80,116216,1,0
144,160,116559,2,0,L|272:160,3,100
240,240,117930,5,0
160,240,118273,1,0
160,320,118616,1,0
240,320,118959,1,0
320,320,119302,2,0,L|320:176,3,100
240,208,120673,6,2,L|240:0,1,200
160,32,121702,2,2,L|160:272,1,200
160,304,122730,1,2
160,304,123073,1,2
240,304,123416,6,2,L|448:304,1,200
432,224,124444,2,2,L|432:16,1,200
352,32,125473,1,2
352,32,125816,1,2
304,96,126159,6,2,L|304:224,2,100
224,64,127187,2,2,L|224:192,2,100
144,80,128216,1,2
144,80,128559,1,2
144,160,128902,6,2,L|144:288,2,100
224,160,129930,2,2,L|224:288,2,100
304,160,130959,1,2
304,160,131302,1,2
304,240,131644,5,6
176,80,142616,5,0
176,160,142959,1,0
176,160,143130,2,0,L|320:160,1,100
352,160,143816,1,0
352,160,143987,2,0,L|352:304,2,100
256,288,145359,5,0
256,368,145702,1,0
256,368,145873,2,0,L|144:368,1,100
160,288,146559,1,0
160,288,146730,2,0,L|160:176,2,100
240,144,148102,6,0,L|240:0,2,100
368,240,149473,6,0,L|368:352,2,100
368,160,150502,5,0
368,160,150673,1,0
368,160,150844,2,0,B|272:160|240:112|224:80|208:48,2,200
80,288,153587,5,0
80,288,153930,1,0
80,208,154273,1,0
80,208,154616,1,0
160,208,154959,1,0
160,208,155301,1,4
384,304,156330,5,0
384,304,156673,1,0
384,224,157016,1,0
384,224,157359,1,0
384,144,157701,1,0
384,144,158044,1,4
160,48,159073,5,0
160,48,159416,1,0
240,48,159759,1,0
240,48,160101,1,0
304,96,160444,1,0
304,96,160787,1,4
240,320,161816,5,0
240,320,162159,1,0
288,256,162501,1,0
288,256,162844,1,0
224,208,163187,1,0
224,208,163530,1,4
96,96,165930,5,0
176,96,166273,1,2
224,160,166616,2,4,B|176:224|128:224,2,100
288,112,167644,1,2
352,160,167987,2,4,B|400:224|432:240,2,100
288,208,169016,5,2
336,272,169359,2,4,B|384:320|432:320,2,100
256,272,170387,2,2,B|160:336|48:288,1,200
112,224,171416,5,0
64,160,171759,1,2
128,128,172101,2,4,B|208:160|208:192,1,100
256,128,172787,5,0
320,80,173130,1,2
320,160,173473,2,4,B|400:112|416:64,1,100
432,176,174159,5,0
480,240,174501,1,2
400,240,174844,2,6,B|352:288|352:336,1,100
272,304,175530,2,2,B|208:336|144:336|112:320|80:288,1,200
96,128,176901,6,0,B|176:64|288:64|384:96,1,300
383,173,178273,2,0,B|289:142|177:142|97:206,1,300
97,282,179644,2,0,B|177:218|289:218|385:250,1,300
383,326,181016,1,0
304,336,181359,1,0
224,336,181701,1,0
144,336,182044,1,0
112,256,182387,6,0,B|224:256|288:240|352:208|384:192|400:160,1,300
82,185,183759,2,0,B|194:185|258:169|322:137|354:121|370:89,1,300
52,113,185130,2,0,B|164:113|228:97|292:65|324:49|340:17,1,300
384,80,186501,1,0
432,144,186844,1,0
368,192,187187,1,0
415,254,187530,1,0
349,293,187873,5,0
192,336,188559,1,0
256,192,189244,1,0
96,224,189930,1,0
160,80,190616,1,2
240,80,190959,1,2
304,112,191301,1,2
368,160,191644,1,2
304,208,191987,2,2,B|384:288,3,100
256,192,193359,12,4,196101
144,272,200216,5,0
224,272,200559,1,0
224,272,200730,2,0,L|224:128,1,100
224,96,201416,1,0
224,96,201587,2,2,L|368:96,2,100
352,192,202959,5,0
432,192,203302,1,0
432,192,203473,2,0,L|432:304,1,100
352,288,204159,1,0
352,288,204330,2,2,L|240:288,2,100
288,208,205359,5,0
288,208,205530,1,0
288,208,205702,2,2,L|144:208,2,100
288,128,206730,5,0
288,128,206901,1,0
288,128,207073,2,2,L|400:128,2,100
224,80,208102,5,0
224,80,208273,1,0
224,80,208444,2,4,B|224:176|176:208|144:224|112:240,2,200
352,128,211187,5,0
272,128,211530,1,0
272,128,211702,2,0,B|160:128,1,100
128,192,212387,1,0
128,192,212559,2,4,B|272:192,2,100
272,128,213930,5,0
352,128,214273,1,0
352,128,214444,2,0,B|352:256,1,100
272,224,215130,1,0
272,224,215302,2,4,B|160:224,2,100
352,224,216330,5,4
352,224,216501,1,4
352,224,216673,2,4,B|352:336,2,100
432,208,217701,5,4
432,208,217873,1,4
432,208,218044,2,4,B|432:96,2,100
368,144,219073,5,0
368,144,219244,1,0
368,144,219416,2,4,B|276:123|192:109|128:144,4,200
