osu file format v6

[General]
AudioFilename: 205 Open the Door!.mp3
AudioLeadIn: 0
PreviewTime: 76616
Countdown: 1
SampleSet: Normal
StackLeniency: 0.7
Mode: 0
LetterboxInBreaks: 1

[Editor]
DistanceSpacing: 1
BeatDivisor: 4
GridSize: 8

[Metadata]
Title:Open the Door!
Artist:REDALiCE
Creator:K-S-O
Version:Kumatora
Source:Mother 3
Tags:earthbound mother 3 nintendo

[Difficulty]
HPDrainRate:7
CircleSize:6
OverallDifficulty:7
SliderMultiplier:2
SliderTickRate:1

[Events]
//Background and Video events
0,0,"mother 3.jpg"
//Break Periods
2,33101,42973
2,66016,75887
2,98930,108801
2,131844,141716
2,187901,199316
//Storyboard Layer 0 (Background)
//Storyboard Layer 1 (Fail)
//Storyboard Layer 2 (Pass)
//Storyboard Layer 3 (Foreground)
//Storyboard Sound Samples
//Background Colour Transformations
3,100,163,162,255

[TimingPoints]
10959,342.857142857143,4,1,0,100,1,0
76787,-100,4,1,0,100,0,1
98730,-100,4,1,0,100,0,0
176901,-100,4,1,0,100,0,1
187701,-100,4,1,0,100,0,0

[Colours]
Combo1 : 128,255,128
Combo2 : 0,128,255

[HitObjects]
208,256,10958,2,2,B|81:169|208:64,1,200
217,174,11473,1,2
290,119,11644,2,2,B|424:221|286:307,1,200
234,316,12158,1,0
142,321,12330,1,2
50,318,12501,1,0
110,249,12672,1,2
18,240,12844,1,0
87,179,13016,2,2,B|40:51|197:35,1,200
352,81,13701,6,2,B|364:214|221:173,1,200
268,92,14216,1,2
178,107,14387,2,2,B|117:230|284:261,1,200
286,168,14901,1,0
376,156,15073,1,2
314,223,15244,1,0
404,235,15416,1,2
339,299,15587,1,0
247,299,15758,2,2,B|212:379|130:378|72:357,1,200
53,176,16444,5,2
113,244,16616,1,0
125,153,16787,1,2
188,219,16959,1,0
198,128,17130,2,2,B|148:93|129:44|171:-1|256:81,1,200
284,158,17644,1,2
359,209,17816,2,2,B|360:269|320:371|288:270|294:207,1,200
361,152,18330,1,0
385,64,18501,1,2
404,153,18673,1,0
438,68,18844,1,2
260,111,19187,5,2
189,170,19359,1,0
241,244,19530,1,2
153,269,19701,1,0
241,339,19873,2,2,B|172:371|95:336|76:263,1,200
109,184,20387,1,2
28,231,20559,2,2,B|24:137|72:81|147:81,1,200
190,150,21073,1,0
210,61,21244,1,2
258,138,21416,1,0
277,48,21587,1,2
428,149,21930,5,0
366,216,22101,1,0
437,273,22273,1,2
484,195,22444,1,2
406,243,22616,2,2,B|376:281|310:283,1,100
403,315,22959,2,2,B|326:341|279:331,1,100
226,287,23301,1,2
300,233,23473,1,0
208,233,23644,1,2
277,172,23816,1,0
186,178,23987,2,2,B|129:194|101:238,1,100
152,310,24330,1,2
72,145,24673,5,0
99,58,24844,1,0
190,47,25016,1,2
164,134,25187,1,2
248,98,25359,2,2,B|301:132|317:172,1,100
225,162,25701,2,2,B|260:210|252:269,1,100
324,197,26044,1,2
415,186,26216,1,0
343,242,26387,1,2
434,230,26559,1,0
392,149,26730,2,2,B|337:132|320:79,1,100
411,66,27073,1,2
247,147,27416,5,0
164,186,27587,1,0
79,222,27759,2,2,B|71:262|89:276,2,50
87,131,28101,1,0
172,98,28273,2,2,B|170:69|199:49,2,50
262,83,28616,1,2
352,71,28787,1,2
362,162,28959,2,2,B|396:146|436:154,2,50
301,230,29301,1,0
392,240,29473,1,2
316,291,29644,1,0
360,210,29816,1,2
185,265,30159,5,0
202,175,30330,1,0
110,180,30502,2,2,B|102:220|120:234,2,50
73,263,30844,1,0
121,341,31016,2,2,B|119:312|148:292,2,50
211,326,31359,1,2
242,240,31530,1,2
243,148,31702,2,2,B|277:132|317:140,2,50
323,191,32044,1,0
315,282,32216,1,2
363,204,32387,1,0
271,210,32559,1,2
352,251,32730,1,0
443,256,32901,1,4
286,179,43873,5,0
176,321,44216,1,0
226,246,44387,2,0,B|217:297|109:303|99:258|155:182|100:164,1,200
111,56,45073,1,0
46,118,45244,1,0
190,225,45587,1,0
262,59,45930,1,0
411,132,46616,5,0
344,30,46959,1,0
344,119,47130,2,0,B|346:66|287:37|212:71|271:166,1,200
160,297,47816,1,0
242,259,47987,1,0
62,247,48330,1,0
216,155,48673,1,0
296,54,49359,5,0
289,233,49701,1,0
456,166,50044,1,0
437,325,50730,5,0
256,328,51073,1,0
224,150,51416,1,0
109,288,51759,5,0
109,288,51930,1,0
111,195,52101,2,0,B|123:67|257:132,1,200
430,183,52787,1,0
430,183,52959,2,0,B|398:273|342:291|272:281,1,200
229,200,53644,1,4
51,231,53987,1,2
140,217,54159,1,4
79,150,54330,1,4
161,112,54501,1,4
252,115,54673,1,4
287,199,54844,5,0
399,339,55187,1,0
315,337,55358,2,2,B|306:388|198:394|188:349|244:273|189:255,1,200
24,271,56044,1,0
106,306,56215,1,2
53,133,56558,1,2
165,273,56901,1,4
49,178,57587,5,0
199,79,57930,1,0
114,74,58101,2,2,B|116:21|57:-8|-18:26|41:121,1,200
194,200,58787,1,0
265,256,58958,1,2
246,76,59301,1,2
123,207,59644,1,4
161,46,60330,5,2
305,152,60672,1,2
124,156,61015,1,4
284,290,61701,5,2
410,162,62044,1,2
239,219,62387,1,4
403,292,62730,5,0
403,292,62901,1,0
369,229,63072,2,2,B|381:101|515:166,1,200
440,107,63587,1,2
348,104,63758,1,2
348,104,63930,2,0,B|316:194|260:212|190:202,1,200
105,187,64444,2,0,B|69:174|101:87,1,100
97,97,64787,1,2
172,148,64959,1,0
172,148,65130,1,2
185,240,65301,2,2,B|205:187|272:184,1,100
231,271,65644,1,0
318,243,65816,1,4
64,96,76787,6,0,B|56:232|224:184,1,200
229,96,77301,1,0
229,96,77387,1,0
262,127,77473,1,0
329,188,77644,1,2
399,129,77816,2,2,B|445:143|446:178,1,50
416,195,77987,1,0
343,138,78159,2,2,B|301:149|258:203,1,100
354,183,78501,2,2,B|312:194|269:248,1,100
370,225,78844,2,2,B|328:236|285:290,1,100
375,291,79187,1,4
300,237,79359,1,2
237,170,79530,6,0,B|216:240|174:268|101:239|67:198,1,200
162,168,80044,1,0
162,168,80130,1,0
165,213,80216,1,0
246,253,80387,1,2
281,168,80559,2,2,B|305:132|291:117,1,50
254,99,80730,1,0
343,113,80901,2,2,B|415:119|422:171,1,100
496,112,81244,2,2,B|443:105|416:173,1,100
415,218,81587,2,2,B|404:327,1,100
329,267,81930,5,0
316,309,82015,1,0
296,349,82101,1,0
220,299,82273,2,2,B|204:323|165:331|125:303,1,100
129,306,82616,2,2,B|126:264|152:250|195:236,1,100
189,237,82959,2,2,B|169:197|133:185|100:189,1,100
149,108,83301,1,0
184,135,83387,1,0
226,120,83473,1,0
222,30,83644,2,2,B|254:22|289:36|293:86,1,100
292,80,83987,2,2,B|327:60|362:60|390:84,1,100
385,80,84330,2,2,B|355:108|356:142|397:168,1,100
301,173,84673,5,0
301,173,84759,1,0
278,211,84844,1,0
197,169,85016,2,2,B|164:216|196:267,1,100
283,273,85359,1,2
342,205,85530,1,2
429,185,85701,1,0
461,216,85787,1,0
417,228,85873,1,2
331,256,86044,1,0
241,244,86216,2,2,B|210:244|164:280|186:317,1,100
155,222,86559,1,0
84,277,86730,1,0
84,277,86901,2,2,B|52:293|49:324,2,50
36,200,87244,1,0
119,164,87416,1,0
119,253,87587,1,0
165,175,87759,5,0
92,122,87930,1,0
134,42,88101,1,2
89,50,88187,1,2
117,85,88273,1,2
200,51,88444,1,0
212,140,88616,1,0
224,228,88787,1,0
283,160,88959,1,0
314,191,89044,1,0
293,231,89130,2,2,B|330:248|314:332,1,100
347,238,89473,2,2,B|384:255|368:339,1,100
402,243,89816,2,2,B|439:260|423:344,1,100
345,313,90159,5,0
321,275,90244,1,0
325,230,90330,1,0
412,208,90501,1,0
348,144,90673,1,0
325,230,90844,2,2,B|338:198|356:187,2,50
389,166,91187,1,0
477,184,91359,2,2,B|468:151|439:144,2,50
421,113,91701,1,0
489,54,91873,2,2,B|451:58|405:75|380:98,1,100
312,121,92216,2,2,B|296:92|264:70|225:64,1,100
164,5,92559,2,2,B|124:14|92:44|86:73,1,100
12,16,92901,5,0
42,49,92987,1,0
5,75,93073,1,0
93,87,93244,2,2,B|65:97|48:128|47:154|63:179,1,100
57,169,93587,2,2,B|77:148|112:152|133:182|128:207,1,100
128,201,93930,2,2,B|91:212|94:248|125:269|154:256,1,100
213,197,94273,1,0
245,228,94359,1,0
226,268,94444,1,0
258,183,94616,2,2,B|260:140|239:104|208:102,1,100
212,102,94959,2,2,B|239:71|270:71|307:84,1,100
303,82,95301,2,2,B|302:118|318:138|376:146,1,100
451,114,95644,5,0
474,152,95730,1,0
430,163,95816,1,0
482,235,95987,1,0
444,317,96159,1,0
444,317,96330,2,2,B|376:306,2,50
367,268,96673,1,0
342,306,96759,1,0
297,310,96844,1,2
264,225,97016,2,2,B|207:248|158:225,1,100
226,160,97359,5,0
185,79,97530,1,0
268,111,97701,2,2,B|233:100|204:112,1,50
178,128,97873,1,2
162,216,98044,1,0
109,142,98216,1,2
91,230,98387,1,0
143,303,98559,1,2
177,331,98644,1,0
200,292,98730,1,2
208,128,109701,6,2,B|81:215|208:320,1,200
217,210,110216,1,2
290,265,110387,2,2,B|424:163|286:77,1,200
234,68,110901,1,0
142,63,111073,1,2
50,66,111244,1,0
110,135,111415,1,2
18,144,111587,1,0
87,205,111759,2,2,B|40:333|197:349,1,200
352,303,112444,6,2,B|364:170|221:211,1,200
268,292,112959,1,2
178,277,113130,2,2,B|117:154|284:123,1,200
286,216,113644,1,0
376,228,113816,1,2
314,161,113987,1,0
404,149,114159,1,2
339,85,114330,1,0
247,85,114501,2,2,B|212:5|130:6|72:27,1,200
53,208,115187,5,2
113,140,115359,1,0
125,231,115530,1,2
188,165,115702,1,0
198,256,115873,2,2,B|148:291|129:340|171:385|256:303,1,200
284,226,116387,1,2
359,175,116559,2,2,B|360:115|320:13|288:114|294:177,1,200
361,232,117073,1,0
385,320,117244,1,2
404,231,117416,1,0
438,316,117587,1,2
260,273,117930,5,2
189,214,118102,1,0
241,140,118273,1,2
153,115,118444,1,0
241,45,118616,2,2,B|172:13|95:48|76:121,1,200
109,200,119130,1,2
28,153,119302,2,2,B|24:247|72:303|147:303,1,200
190,234,119816,1,0
210,323,119987,1,2
258,246,120159,1,0
277,336,120330,1,2
428,235,120673,5,0
366,168,120844,1,0
437,111,121016,1,2
484,189,121187,1,2
406,141,121359,2,2,B|376:103|310:101,1,100
403,69,121702,2,2,B|326:43|279:53,1,100
226,97,122044,1,2
300,151,122216,1,0
208,151,122387,1,2
277,212,122559,1,0
186,206,122730,2,2,B|129:190|101:146,1,100
152,74,123073,1,2
72,239,123416,5,0
99,326,123587,1,0
190,337,123759,1,2
164,250,123930,1,2
248,286,124102,2,2,B|301:252|317:212,1,100
225,222,124444,2,2,B|260:174|252:115,1,100
324,187,124787,1,2
415,198,124959,1,0
343,142,125130,1,2
434,154,125302,1,0
392,235,125473,2,2,B|337:252|320:305,1,100
411,318,125816,1,2
247,237,126159,5,0
164,198,126330,1,0
79,162,126502,2,2,B|71:122|89:108,2,50
87,253,126844,1,0
172,286,127016,2,2,B|170:315|199:335,2,50
262,301,127359,1,2
352,313,127530,1,2
362,222,127702,2,2,B|396:238|436:230,2,50
301,154,128044,1,0
392,144,128216,1,2
316,93,128387,1,0
360,174,128559,1,2
185,119,128902,5,0
202,209,129073,1,0
110,204,129245,2,2,B|102:164|120:150,2,50
73,121,129587,1,0
121,43,129759,2,2,B|119:72|148:92,2,50
211,58,130102,1,2
242,144,130273,1,2
243,236,130445,2,2,B|277:252|317:244,2,50
323,193,130787,1,0
315,102,130959,1,2
363,180,131130,1,0
271,174,131302,1,2
352,133,131473,1,0
443,128,131644,1,4
226,179,142616,5,0
136,185,142787,1,0
196,254,142959,1,0
288,248,143130,2,0,B|297:299|405:305|415:260|359:184|414:166,1,200
401,56,143816,1,0
315,83,143987,1,0
315,83,144159,1,0
316,174,144330,1,0
316,174,144502,1,0
234,136,144673,1,0
106,136,145359,5,0
98,226,145530,1,0
187,202,145702,1,0
163,114,145873,2,0,B|161:61|220:32|295:66|236:161,1,200
352,297,146559,1,0
270,259,146730,1,0
270,259,146902,1,0
351,215,147073,1,0
351,215,147244,1,0
351,123,147416,1,0
216,54,148102,5,0
216,54,148273,1,0
217,145,148444,1,0
217,145,148616,1,0
137,102,148787,1,0
129,309,149473,5,0
129,309,149645,1,0
219,328,149816,1,0
219,328,149987,1,0
218,236,150159,1,0
394,286,150502,5,0
394,286,150673,1,0
401,195,150844,2,0,B|389:67|255:132,1,200
82,183,151530,1,0
82,183,151702,2,0,B|114:273|170:291|240:281,1,200
191,200,152216,1,0
283,200,152387,1,4
368,235,152559,1,0
278,249,152730,1,2
333,175,152902,1,4
424,167,153073,1,4
351,112,153244,1,4
260,115,153416,1,4
260,25,153587,5,0
260,25,153930,1,0
79,23,154273,1,0
79,23,154616,1,0
74,203,154959,1,0
253,199,155301,1,4
435,197,156330,5,0
435,197,156673,1,0
254,197,157016,1,0
254,197,157359,1,0
353,47,157701,1,0
172,45,158044,1,4
64,320,159073,5,0
64,320,159416,1,0
240,320,159759,1,0
240,320,160101,1,0
238,139,160444,1,0
418,136,160787,1,4
423,328,161816,5,0
423,328,162159,1,0
420,148,162501,1,0
420,148,162844,1,0
239,147,163187,1,0
236,327,163530,1,4
108,114,165930,5,0
196,145,166101,1,0
264,190,166273,2,0,B|212:163|164:199,1,100
186,237,166530,1,2
275,237,166701,1,0
264,190,166787,1,2
313,114,166959,2,2,B|364:134|329:204,1,100
264,139,167301,5,0
264,48,167473,2,0,B|201:37|166:92,1,100
174,79,167816,1,0
198,116,167901,1,2
109,99,168073,2,2,B|95:121|121:146,1,50
48,87,168330,1,2
70,173,168501,1,2
147,219,168673,6,0,B|188:184|242:210,1,100
240,118,169016,1,0
304,180,169187,1,0
304,180,169273,1,2
357,231,169444,1,0
397,231,169530,1,2
388,139,169701,2,2,B|452:129|449:65,1,100
363,100,170044,5,0
380,192,170216,1,0
464,223,170387,1,0
396,282,170559,2,2,B|355:318,1,50
358,314,170816,2,2,B|313:279,1,50
395,235,171073,1,0
322,182,171244,1,2
272,257,171416,6,0,B|216:272|212:336,2,100
184,228,171930,1,0
184,228,172016,1,2
154,312,172187,1,0
109,304,172273,1,2
123,215,172444,2,2,B|64:212|48:274,1,100
81,184,172787,6,0,B|86:140|36:142|15:109,3,100
62,102,173387,1,2
145,136,173559,1,0
145,136,173644,1,2
235,130,173816,1,2
158,83,173987,1,2
246,67,174159,6,0,B|288:67|288:117|342:115,3,100
330,114,174759,1,2
408,70,174930,1,0
385,108,175016,1,2
474,109,175187,1,2
422,183,175359,1,2
418,272,175530,6,0,B|354:264|338:219,1,100
281,254,175787,1,0
320,276,175873,1,0
381,321,176044,1,0
344,345,176130,1,2
280,316,176301,1,0
234,314,176387,1,2
159,334,176559,1,0
209,259,176730,1,2
167,179,176901,5,0
113,208,177073,1,0
146,240,177159,1,0
188,229,177244,1,2
233,166,177416,1,0
216,127,177501,1,0
151,97,177673,1,0
135,135,177759,1,2
74,68,177930,2,2,B|28:116|45:165,1,100
129,183,178273,6,0,B|74:184|49:248,1,100
85,270,178530,1,0
52,238,178616,1,2
141,238,178787,1,0
170,271,178873,1,0
238,274,179044,1,2
281,262,179130,1,0
263,184,179301,1,0
219,184,179387,1,0
178,187,179473,1,2
261,271,179644,6,0,B|292:316|372:308,2,100
340,226,180159,2,0,B|397:234,1,50
410,147,180416,1,2
365,148,180501,1,2
281,113,180673,1,2
284,202,180844,1,2
326,122,181016,5,0
327,41,181187,1,0
327,41,181273,1,0
327,41,181359,1,2
245,52,181530,2,2,B|188:68,1,50
157,117,181787,1,0
196,127,181873,1,2
271,158,182044,2,2,B|248:188|212:196|172:189,1,100
258,237,182387,5,0
167,236,182559,1,0
206,256,182644,2,2,B|190:280|158:280,1,50
89,295,182901,1,0
122,325,182987,2,2,B|107:363|129:390,1,50
188,378,183244,1,2
190,315,183416,1,2
233,323,183501,1,0
277,331,183587,1,2
362,301,183759,6,0,B|408:278|417:210,1,100
427,177,184016,1,0
415,220,184101,1,2
361,164,184273,1,0
388,130,184359,1,0
344,82,184530,1,2
320,121,184616,1,2
275,56,184787,2,2,B|237:79|235:125|251:154,1,100
158,120,185130,5,0
196,201,185301,1,0
155,181,185387,1,2
73,264,185644,2,0,B|56:244|85:218,3,50
126,323,186159,1,0
126,323,186244,1,0
126,323,186330,1,2
187,277,186501,5,0
271,244,186673,2,0,B|272:296,1,50
313,275,186844,1,2
347,205,187016,1,0
392,186,187101,1,0
432,207,187187,2,2,B|402:230|374:213,2,50
419,134,187530,1,2
339,127,187701,1,2
448,288,200216,6,0,B|456:152|288:200,1,200
283,288,200730,1,0
283,288,200816,1,0
250,257,200902,1,0
183,196,201073,1,2
113,255,201245,2,2,B|67:241|66:206,1,50
96,189,201416,1,0
169,246,201588,2,2,B|211:235|254:181,1,100
161,200,201930,2,2,B|203:189|246:135,1,100
152,152,202273,2,2,B|194:141|237:87,1,100
137,93,202616,1,4
212,147,202788,1,2
275,214,202959,6,0,B|296:144|338:116|411:145|445:186,1,200
350,216,203473,1,0
350,216,203559,1,0
347,171,203645,1,0
266,131,203816,1,2
231,216,203988,2,2,B|207:252|221:267,1,50
258,285,204159,1,0
169,271,204330,2,2,B|97:265|90:213,1,100
16,272,204673,2,2,B|69:279|96:211,1,100
97,166,205016,2,2,B|108:57,1,100
183,117,205359,5,0
196,75,205444,1,0
216,35,205530,1,0
292,85,205702,2,2,B|308:61|347:53|387:81,1,100
383,78,206045,2,2,B|386:120|360:134|317:148,1,100
323,147,206388,2,2,B|343:187|379:199|412:195,1,100
363,276,206730,1,0
328,249,206816,1,0
286,264,206902,1,0
290,354,207073,2,2,B|258:362|223:348|219:298,1,100
220,304,207416,2,2,B|185:324|150:324|122:300,1,100
127,304,207759,2,2,B|157:276|156:242|115:216,1,100
211,211,208102,5,0
211,211,208188,1,0
234,173,208273,1,0
315,215,208445,2,2,B|348:168|316:117,1,100
229,111,208788,1,2
170,179,208959,1,2
83,199,209130,1,0
51,168,209216,1,0
95,156,209302,1,2
181,128,209473,1,0
271,140,209645,2,2,B|302:140|348:104|326:67,1,100
357,162,209988,1,0
428,107,210159,1,0
428,107,210330,2,2,B|460:91|463:60,2,50
476,184,210673,1,0
393,220,210845,1,0
393,131,211016,1,0
347,209,211188,5,0
420,262,211359,1,0
378,342,211530,1,2
423,334,211616,1,2
395,299,211702,1,2
312,333,211873,1,0
300,244,212045,1,0
288,156,212216,1,0
229,224,212388,1,0
198,193,212473,1,0
219,153,212559,2,2,B|182:136|198:52,1,100
169,140,212901,2,2,B|132:123|148:39,1,100
121,127,213244,2,2,B|84:110|100:26,1,100
167,71,213588,5,0
191,109,213673,1,0
187,154,213759,1,0
100,176,213930,1,0
164,240,214102,1,0
187,154,214273,2,2,B|174:186|156:197,2,50
123,218,214616,1,0
35,200,214788,2,2,B|44:233|73:240,2,50
91,271,215130,1,0
23,330,215302,2,2,B|61:326|107:309|132:286,1,100
200,263,215645,2,2,B|216:292|248:314|287:320,1,100
348,379,215988,2,2,B|388:370|420:340|426:311,1,100
500,368,216330,5,0
470,335,216416,1,0
507,309,216502,1,0
419,297,216673,2,2,B|447:287|464:256|465:230|449:205,1,100
455,215,217016,2,2,B|435:236|400:232|379:202|384:177,1,100
384,183,217359,2,2,B|421:172|418:136|387:115|358:128,1,100
299,187,217702,1,0
267,156,217788,1,0
286,116,217873,1,0
254,201,218045,2,2,B|252:244|273:280|304:282,1,100
300,282,218388,2,2,B|273:313|242:313|205:300,1,100
209,302,218730,2,2,B|210:266|194:246|136:238,1,100
61,270,219073,5,0
38,232,219159,1,0
82,221,219245,1,0
30,149,219416,1,0
68,67,219588,1,0
68,67,219759,2,2,B|136:78,2,50
145,116,220102,1,0
170,78,220188,1,0
215,74,220273,1,2
248,159,220445,2,2,B|305:136|354:159,1,100
286,224,220788,5,0
327,305,220959,1,0
244,273,221130,2,2,B|279:284|308:272,1,50
334,256,221302,1,2
350,168,221473,1,0
403,242,221645,1,2
421,154,221816,1,0
369,81,221988,1,2
335,53,222073,1,0
312,92,222159,1,2
