osu file format v9

[General]
AudioFilename: 06 Last Dance (Re-Edit).mp3
AudioLeadIn: 0
PreviewTime: -1
Countdown: 1
SampleSet: Soft
StackLeniency: 0.7
Mode: 0
LetterboxInBreaks: 1

[Editor]
DistanceSpacing: 0.5
BeatDivisor: 4
GridSize: 8

[Metadata]
Title:Last Dance (Re-Edit)
Artist:REDALiCE
Creator:Himekaido Hatate
Version:Hard
Source:touhou,REDALiCE
Tags:

[Difficulty]
HPDrainRate:5
CircleSize:4
OverallDifficulty:5
ApproachRate:7
SliderMultiplier:1.8
SliderTickRate:2

[Events]
//Background and Video events
0,0,"BG.png"
//Break Periods
2,92514,104847
2,164156,171116
2,186544,199773
//Storyboard Layer 0 (Background)
//Storyboard Layer 1 (Fail)
//Storyboard Layer 2 (Pass)
//Storyboard Layer 3 (Foreground)
//Storyboard Sound Samples
//Background Colour Transformations
3,100,255,255,255

[TimingPoints]
35897,447.761194029851,4,2,0,80,1,0
64553,-100,4,2,0,80,0,1
92314,-100,4,2,0,80,0,0
136195,-100,4,2,0,80,0,1
163956,-100,4,2,0,80,0,0
215001,-100,4,2,0,80,0,1
242762,-100,4,2,0,80,0,0

[Colours]
Combo1 : 230,120,55
Combo2 : 115,105,190
Combo3 : 230,40,30
Combo4 : 57,50,205
Combo5 : 230,90,100

[HitObjects]
24,160,35896,2,0,B|24:48|144:48,1,180,0|10
208,48,36568,1,0
280,48,36792,2,0,B|280:256,1,180,0|2
280,304,37464,1,2
352,304,37688,2,0,B|496:304|496:176,1,180,0|2
496,144,38359,1,2
496,72,38583,6,0,B|392:72,1,90,8|2
280,128,39031,2,0,B|168:128,1,90,8|2
48,328,39479,6,0,B|152:328|152:328|208:240,1,180,0|2
280,264,40150,1,0
56,160,40374,2,0,B|136:160|136:160|264:184,1,180,0|2
232,176,41046,1,2
344,176,41270,6,0,B|400:264,1,90,0|2
432,176,41717,2,0,B|488:272,1,90,0|2
488,344,42165,2,0,B|360:344,1,90,8|2
304,344,42613,2,0,B|192:344,1,90,8|2
120,344,43061,6,0,B|120:176|296:176,1,270,0|2
288,176,43956,1,0
375,176,44180,1,2
375,264,44404,1,2
287,264,44628,1,2
208,216,44852,6,0,B|88:216|88:104,1,180,0|2
88,112,45523,1,0
168,113,45747,1,10
248,113,45971,1,0
328,113,46195,1,10
408,113,46419,1,2
408,192,46643,6,0,B|408:304|408:304|304:304,3,180,0|2|0|2
264,304,48210,1,0
184,304,48434,2,0,B|72:304|72:304|72:208,2,180,0|2|0
184,304,49553,1,2
184,304,49777,1,2
184,216,50001,1,10
144,128,50225,6,0,B|40:128,1,90,0|2
40,208,50673,2,0,B|40:304,1,90,0|2
120,312,51120,2,0,B|216:312,1,90,0|2
232,232,51568,2,0,B|232:136,1,90,0|2
240,48,52016,2,0,B|344:48|344:48|344:152,3,180,8|2|0|2
344,124,53583,1,0
344,216,53807,5,0
344,216,54031,1,2
416,256,54255,1,0
416,256,54479,1,2
344,296,54702,1,0
344,296,54926,1,2
272,256,55150,1,0
272,256,55374,1,0
272,256,55598,2,0,B|216:256|216:256|176:224,4,90,0|2|0|2|0
272,168,56941,5,2
272,168,57389,2,0,B|168:168,1,90,0|2
272,168,57837,2,0,B|184:88,1,90,0|2
272,168,58285,2,0,B|272:56,1,90,0|2
272,168,58732,2,0,B|352:80,1,90,0|2
272,168,59180,2,0,B|392:168,1,90,0|2
272,168,59628,1,2
256,48,60076,6,0,B|64:48,1,180,0|2
48,136,60971,1,0
256,336,61867,6,0,B|448:336,1,180,0|2
408,248,62762,1,0
256,192,63210,12,2,64105
64,56,64553,5,0
192,56,65001,2,0,B|256:56,4,45,2|2|0|2|0
368,128,66120,2,0,B|408:136|408:192|368:208,1,90,0|2
288,280,66792,2,0,B|216:280,4,45,2|2|0|2|0
120,240,67576,1,2
112,64,67911,1,2
232,64,68135,6,0,B|344:64|344:64|376:80|376:120,1,180,0|2
376,120,68807,1,2
376,192,69031,1,0
376,336,69702,6,0,B|256:336,1,90,0|2
152,336,70262,1,2
16,328,70598,1,2
16,240,70822,1,0
16,208,70934,1,0
16,176,71046,1,2
16,144,71158,1,0
16,112,71270,1,2
112,32,71717,6,0,B|328:32,1,180,0|2
352,32,72389,1,0
352,32,72613,1,0
440,112,73285,6,0,B|440:224,1,90,0|2
440,328,73956,1,0
408,328,74068,1,2
376,328,74180,1,0
344,328,74292,1,2
312,328,74404,1,0
312,224,74740,1,0
232,296,75076,1,2
120,296,75299,6,0,B|120:184,3,90,0|2|2|0
88,96,76195,6,0,B|208:96,3,90,0|2|2|0
280,96,77091,1,8
280,96,77314,1,2
368,96,77538,1,0
368,96,77762,1,2
456,96,77986,1,8
456,96,78210,1,2
456,184,78434,1,2
456,184,78658,1,2
456,272,78882,6,0,B|360:312|280:280,1,180,0|2
280,280,79553,1,0
56,272,79777,2,0,B|152:312|248:272,1,180,0|2
232,280,80449,1,2
256,192,80673,6,0,B|288:136|248:88,4,90,8|2|8|2|8
256,48,82240,5,0
256,48,82464,2,0,B|256:152,2,90,0|2|0
256,48,83135,1,2
144,120,83359,5,0
144,120,83583,2,0,B|256:184,2,90,0|2|0
144,120,84255,1,8
88,192,84479,1,0
40,264,84702,2,0,B|112:336,1,90,8|2
192,328,85150,1,8
360,336,85822,5,0
360,248,86046,2,0,B|392:200|352:136,3,90,0|2|2|0
360,72,86941,2,0,B|304:40|240:80,3,90,0|2|2|0
176,72,87837,5,8
176,72,88061,1,2
88,72,88285,1,8
88,160,88508,1,2
88,240,88732,1,8
168,336,89404,5,0
256,336,89628,2,0,B|320:240|248:160,1,180,0|2
256,168,90299,1,0
208,96,90523,1,2
136,64,90747,1,0
64,96,90971,1,2
8,152,91195,1,0
8,232,91419,5,2
8,312,91643,1,2
88,312,91867,1,2
168,312,92091,1,0
248,312,92314,1,6
256,192,105747,12,0,107091
80,48,107538,6,0,B|152:48|152:48|152:160,1,180,0|2
152,152,108210,1,0
152,232,108434,2,0,B|272:232|272:232|272:136,1,180,0|2
272,176,109105,1,0
272,96,109329,6,0,B|432:96|432:96|432:208,1,270,0|2
432,288,110225,1,8
432,288,110449,1,2
352,288,110673,1,8
352,288,110897,1,2
264,288,111120,6,0,B|264:96,2,180,0|2|0
184,288,112464,5,2
184,288,112911,2,0,B|64:288,1,90,0|2
72,216,113359,2,0,B|184:216,1,90,0|2
184,136,113807,2,0,B|72:136,1,90,0|2
72,56,114255,2,0,B|192:56,1,90,0|2
264,88,114702,6,0,B|344:88|344:88|344:192|344:192|256:192,1,270,0|2
256,192,115598,2,0,B|176:192|176:192|176:296|176:296|264:296,1,270,0|2
352,264,116494,6,0,B|440:192,1,90,0|2
432,120,116941,2,0,B|344:48,1,90,0|2
272,56,117389,2,0,B|168:56,1,90,8|2
88,56,117837,2,0,B|88:160,1,90,0|2
88,240,118285,2,0,B|184:304|280:232,3,180,0|2|0|2
256,248,119852,1,2
256,160,120076,6,0,B|256:48,1,90,0|2
344,56,120523,2,0,B|344:168,1,90,0|2
432,168,120971,2,0,B|432:56,1,90,8|2
432,80,121419,1,10
432,80,121643,1,2
464,264,121867,6,0,B|248:264,1,180,0|2
280,264,122538,1,0
280,264,122762,2,0,B|160:264|160:120,1,180,0|2
160,152,123434,1,0
160,64,123658,6,0,B|264:64,1,90,0|2
248,144,124105,2,0,B|368:144,1,90,0|2
320,224,124553,2,0,B|448:224,1,90,8|2
384,304,125001,2,0,B|496:304,1,90,8|2
304,304,125449,6,0,B|120:304,1,180,0|2
128,304,126120,1,2
128,304,126344,2,0,B|32:232|144:136,1,180,0|2
128,152,127016,1,2
128,72,127240,2,0,B|224:72,1,90,0|2
296,72,127688,1,0
296,152,127911,1,2
296,232,128135,2,0,B|384:232,1,90,8|2
464,232,128583,1,8
464,152,128807,1,10
256,192,129031,12,0,130822
448,48,131717,6,0,B|336:48|336:48|320:96|320:96|280:96,2,180,0|2|0
64,336,133508,6,0,B|176:336|176:336|192:288|192:288|232:288,2,180,0|2|0
256,192,135299,5,2
256,192,135411,1,2
256,192,135523,1,0
256,192,135635,1,0
256,192,135747,1,4
88,48,136195,6,0,B|192:48,1,90,0|2
264,48,136643,2,0,B|320:48,2,45,0|2|0
264,48,137091,1,0
456,128,137762,6,0,B|384:128|360:192,1,90,0|2
368,256,138434,2,0,B|368:320,4,45,0|2|2|2|0
368,144,139217,1,10
368,40,139553,1,2
256,40,139777,6,0,B|144:48|104:160,1,180,0|2
112,136,140449,1,0
32,328,140673,2,0,B|144:328|208:216,1,180,0|2
184,248,141344,1,2
320,88,141568,6,0,B|400:88|400:176,2,135,0|2|0
240,88,142464,1,8
320,88,142688,1,2
320,88,142911,1,10
256,192,143359,6,0,B|48:192,2,180,0|2|0
256,192,144479,1,2
256,192,144702,1,0
256,80,145150,6,0,B|344:40|432:88,2,180,0|2|0
256,80,146270,1,10
256,80,146494,1,10
256,80,146717,1,0
152,80,146941,6,0,B|40:80,1,90,0|2
32,192,147389,2,0,B|160:192,1,90,0|2
152,304,147837,2,0,B|32:304,1,90,0|2
248,304,148285,2,0,B|368:304,1,90,0|2
440,304,148732,1,0
440,208,148956,1,2
440,120,149180,1,2
440,32,149404,1,2
352,32,149628,1,0
264,32,149852,2,0,B|200:32,4,45,0|2|0|2|0
40,40,150523,6,0,B|40:152,1,90,4|2
40,224,150971,1,0
40,224,151195,1,2
40,304,151419,2,0,B|144:304,1,90,0|2
128,304,151867,1,0
128,304,152091,1,2
232,304,152314,2,0,B|272:248|224:192,4,90,0|2|2|2|0
280,40,153882,5,0
352,40,154105,2,0,B|408:136|352:248,1,180,0|2
368,288,154777,1,0
288,288,155001,2,0,B|200:288,1,90,0|2
248,216,155449,2,0,B|144:216,1,90,0|2
160,136,155897,5,0
160,56,156120,1,2
80,56,156344,1,0
80,136,156568,1,2
80,208,156792,1,0
256,320,157464,5,0
256,320,157688,2,0,B|256:112,1,180,0|2
256,136,158359,1,2
336,112,158583,1,0
336,112,158807,2,0,B|336:328,1,180,2|0
336,292,159479,2,0,B|304:328|272:264|248:312,1,90
136,288,159926,2,0,B|104:324|72:260|48:308,1,90,8|0
56,184,160374,2,0,B|88:220|120:156|144:204,1,90
256,184,160822,2,0,B|288:220|320:156|344:204,1,90,8|0
416,80,161270,6,0,B|480:136|456:280,3,180,0|2|0|2
459,249,162837,1,0
464,344,163061,1,2
368,344,163285,1,0
368,344,163508,1,2
272,344,163732,1,0
272,248,163956,1,2
48,48,172016,6,0,B|152:48,1,90,8|2
216,48,172464,1,0
216,48,172688,1,2
296,48,172911,2,0,B|360:48,4,45,0|2|0|2|0
296,48,173583,1,0
416,48,173807,6,0,B|416:160,1,90,8|2
416,136,174255,1,0
416,136,174479,1,2
416,216,174702,2,0,B|416:280,4,45,0|2|0|2|0
416,216,175374,1,0
256,296,175598,6,0,B|144:296,1,90,8|2
168,296,176046,1,0
168,296,176270,1,2
80,296,176494,1,0
80,264,176605,1,2
80,232,176717,1,2
80,200,176829,1,2
80,168,176941,1,0
80,80,177165,1,2
176,80,177389,6,0,B|224:48|288:88,1,90,8|2
248,192,177837,2,0,B|304:216|368:192,1,90,8|2
416,80,178285,2,0,B|360:64|304:80,1,90,8|2
176,192,178732,2,0,B|224:216|296:192,1,90,8|2
416,280,179180,6,0,B|208:280,1,180,0|2
152,280,179852,1,0
72,280,180076,2,0,B|16:280,2,45,0|2|0
72,280,180523,1,0
72,280,180747,1,2
80,176,180971,6,0,B|32:120|88:64,1,90,8|2
160,72,181419,2,0,B|264:72,1,90,2|0
352,72,181867,2,0,B|416:72,4,45,0|0|2|0|0
352,72,182538,1,2
352,160,182762,6,0,B|352:264,1,90,8|2
168,264,183210,2,0,B|288:264,1,90,0|2
168,80,183658,2,0,B|168:192,1,90,8|2
352,80,184105,2,0,B|224:80,1,90,2|0
256,192,184553,12,0,186344
56,48,200673,6,0,B|160:16|272:56,1,180,0|2
328,152,201568,2,0,B|224:184|112:144,1,180,0|2
72,240,202464,6,0,B|184:240|184:240|208:296|208:296|256:296,1,180,0|2
440,240,203359,2,0,B|328:240|328:240|304:296|304:296|256:296,1,180,0|2
256,192,204255,6,0,B|256:72|256:72|216:72|216:72|168:72|168:72|160:80,2,180,0|2|0
256,192,205598,1,2
256,280,206046,1,0
392,280,206494,5,2
448,160,206941,1,0
392,40,207389,1,2
256,40,207837,1,4
104,144,208732,5,0
256,192,209628,5,4
352,240,210076,1,0
352,344,210523,1,0
240,344,210971,1,0
240,232,211419,6,0,B|296:176|208:136|208:96|264:48,3,180,4|2|2|0
244,67,213210,5,4
424,72,214105,5,0
424,104,214255,1,0
424,136,214404,1,0
424,168,214553,1,0
424,200,214702,1,0
424,232,214852,1,0
432,320,215001,6,0,B|320:320,1,90,8|2
256,320,215449,2,0,B|200:320,2,45,0|2|0
128,320,215897,1,2
128,224,216568,6,0,B|136:160|200:160,1,90,0|10
288,160,217240,2,0,B|352:160,4,45,0|2|0|2|0
288,280,218023,1,10
416,280,218359,1,10
416,280,218583,6,0,B|416:176|416:176|344:96,1,180,0|2
368,120,219255,1,0
280,120,219479,2,0,B|160:120|160:120|96:200,1,180,0|2
72,240,220150,1,0
40,328,220374,2,0,B|208:328,2,135,0|2|0
40,328,221270,1,2
72,56,222165,5,2
168,56,222613,1,0
168,56,222725,1,0
168,56,222837,1,2
168,56,222949,1,0
168,56,223061,2,0,B|280:56,1,90,0|2
272,144,223508,2,0,B|168:144,1,90,0|2
88,176,223956,2,0,B|32:272|88:376,1,180,8|2
112,352,224516,1,0
144,352,224628,1,2
176,352,224740,1,0
208,352,224852,2,0,B|256:304|256:216,2,135,2|0|2
416,344,225747,6,0,B|288:344,1,90,8|2
416,264,226195,2,0,B|416:152,1,90,0|2
416,80,226643,2,0,B|304:80,1,90,0|2
232,80,227091,2,0,B|128:80,1,90,0|2
40,80,227538,5,8
40,80,227762,1,2
40,168,227986,1,10
40,168,228210,1,2
40,256,228434,1,0
72,272,228546,1,2
104,256,228658,1,2
136,272,228770,1,2
168,256,228882,1,0
256,256,229105,1,2
440,192,229329,6,0,B|392:152|336:200,3,90,0|2|10|0
272,72,230225,2,0,B|240:120|272:176,3,90,0|2|10|0
272,256,231120,2,0,B|224:288|176:248,4,90,0|2|10|2|2
80,256,232688,5,0
168,256,232911,2,0,B|272:256,1,90,8|2
360,256,233359,2,0,B|400:208|360:152,1,90,0|2
280,160,233807,2,0,B|176:160,1,90,8|2
88,160,234255,1,2
88,160,234479,1,2
88,248,234702,5,8
88,336,234926,1,2
176,336,235150,1,8
264,336,235374,1,2
176,336,235598,1,8
88,48,236270,5,0
192,48,236494,2,0,B|272:88|376:48,1,180,8|2
432,216,237389,2,0,B|352:176|248:216,1,180,0|2
168,216,238285,2,0,B|120:240|72:208,4,90,8|2|10|2|8
440,48,239852,5,0
344,48,240076,2,0,B|272:48,4,45,2|2|0|0|2
344,48,240747,1,2
344,160,240971,5,2
344,192,241083,1,2
344,224,241195,1,0
344,256,241307,1,0
344,288,241419,1,2
224,288,241643,1,2
112,288,241867,1,2
112,184,242091,1,0
112,80,242314,1,2
224,80,242538,1,0
336,80,242762,1,2
256,192,243658,5,4
