osu file format v12

[General]
AudioFilename: Scar.mp3
AudioLeadIn: 0
PreviewTime: 100879
Countdown: 0
SampleSet: Soft
StackLeniency: 0.5
Mode: 3
LetterboxInBreaks: 0
SpecialStyle: 0
WidescreenStoryboard: 0

[Editor]
Bookmarks: 79021,117865,153935,155842
DistanceSpacing: 0.6
BeatDivisor: 4
GridSize: 4

[Metadata]
Title:Kizuato
TitleUnicode:キズアト
Artist:REDALiCE
ArtistUnicode:REDALiCE
Creator:Reikosaka
Version:Normal
Source:Touhou
Tags:alice emotion a☆ru alice margatroid the doll maker of bucuresti overdrive c83
BeatmapID:302501
BeatmapSetID:116133

[Difficulty]
HPDrainRate:7
CircleSize:7
OverallDifficulty:7
ApproachRate:5
SliderMultiplier:1.4
SliderTickRate:1

[Events]
//Background and Video events
0,0,"Kizuato.jpg",0,0
//Break Periods
//Storyboard Layer 0 (Background)
//Storyboard Layer 1 (Fail)
//Storyboard Layer 2 (Pass)
//Storyboard Layer 3 (Foreground)
//Storyboard Sound Samples
//Background Colour Transformations
3,100,163,162,255

[TimingPoints]
1342,346.820809248555,4,2,1,45,1,0
34636,-100,4,2,1,45,0,1
45735,-100,4,2,1,45,0,0
147006,-100,4,2,1,45,0,1
158105,-100,4,2,1,45,0,0

[HitObjects]
36,192,6891,128,0,7411:0:0:0:0:
109,192,6891,1,8,0:2:0:0:
182,192,7411,1,8,0:0:0:0:
109,192,7758,1,0,0:0:0:0:
182,192,7931,1,8,0:0:0:0:
256,192,8105,1,0,0:0:0:0:
475,192,8278,128,0,8798:0:0:0:0:
402,192,8278,1,8,0:0:0:0:
329,192,8798,1,8,0:0:0:0:
402,192,9145,1,0,0:0:0:0:
329,192,9318,1,8,0:0:0:0:
256,192,9492,1,0,0:0:0:0:
402,192,9665,1,8,0:0:0:0:
182,192,9665,128,0,10185:0:0:0:0:
256,192,10185,1,8,0:0:0:0:
402,192,10532,1,0,0:0:0:0:
109,192,10706,1,8,0:0:0:0:
329,192,10879,1,0,0:0:0:0:
182,192,11052,1,8,0:0:0:0:
36,192,11052,1,0,0:0:0:0:
256,192,11399,1,8,0:0:0:0:
109,192,11399,1,0,0:0:0:0:
329,192,11746,1,8,0:0:0:0:
182,192,11746,1,0,0:0:0:0:
256,192,12093,1,8,0:0:0:0:
475,192,12093,1,0,0:0:0:0:
109,192,12440,128,0,12787:0:0:0:0:
182,192,12440,1,8,0:0:0:0:
256,192,12787,1,0,0:0:0:0:
475,192,12960,128,0,13133:0:0:0:0:
182,192,13133,1,8,0:1:0:0:
329,192,13480,1,0,0:0:0:0:
402,192,13654,1,0,0:0:0:0:
256,192,13827,128,0,14174:0:0:0:0:
109,192,13827,1,8,0:0:0:0:
182,192,14174,1,0,0:0:0:0:
109,192,14347,128,0,14521:0:0:0:0:
402,192,14521,1,8,0:1:0:0:
256,192,14868,1,0,0:0:0:0:
109,192,15041,1,0,0:0:0:0:
329,192,15214,128,0,15561:0:0:0:0:
182,192,15214,1,8,0:0:0:0:
256,192,15561,1,0,0:0:0:0:
402,192,15735,128,0,15908:0:0:0:0:
109,192,15908,1,8,0:1:0:0:
329,192,16255,1,0,0:0:0:0:
402,192,16428,1,8,0:0:0:0:
256,192,16602,1,8,0:0:0:0:
182,192,16948,1,0,0:0:0:0:
329,192,17122,1,0,0:0:0:0:
256,192,17295,1,8,0:1:0:0:
256,192,17642,1,8,0:0:0:0:
182,192,17989,1,8,0:0:0:0:
329,192,17989,1,0,0:0:0:0:
402,192,18162,1,0,0:0:0:0:
329,192,18336,1,0,0:0:0:0:
256,192,18509,1,0,0:0:0:0:
182,192,18683,1,0,0:0:0:0:
329,192,18683,1,8,0:1:0:0:
109,192,18856,1,0,0:0:0:0:
182,192,19029,1,0,0:0:0:0:
256,192,19203,1,0,0:0:0:0:
182,192,19376,1,0,0:0:0:0:
36,192,19376,1,8,0:0:0:0:
256,192,19550,1,0,0:0:0:0:
329,192,19723,1,0,0:0:0:0:
402,192,19896,1,0,0:0:0:0:
475,192,20070,1,8,0:1:0:0:
329,192,20070,1,0,0:0:0:0:
256,192,20243,1,0,0:0:0:0:
182,192,20417,1,0,0:0:0:0:
109,192,20590,1,0,0:0:0:0:
36,192,20763,1,8,0:0:0:0:
182,192,20763,1,0,0:0:0:0:
329,192,20937,1,0,0:0:0:0:
402,192,21110,1,0,0:0:0:0:
475,192,21284,1,0,0:0:0:0:
402,192,21457,1,8,0:1:0:0:
109,192,21457,1,0,0:0:0:0:
182,192,21631,1,0,0:0:0:0:
109,192,21804,1,0,0:0:0:0:
36,192,21977,1,0,0:0:0:0:
109,192,22151,1,4,0:2:0:0:
402,192,22151,1,0,0:0:0:0:
182,192,22844,1,8,0:1:0:0:
329,192,22844,1,0,0:0:0:0:
36,192,23191,128,0,23538:0:0:0:0:
256,192,23538,1,4,0:0:0:0:
475,192,23885,1,0,0:0:0:0:
36,192,24232,1,0,0:0:0:0:
182,192,24578,1,0,0:0:0:0:
329,192,24925,1,2,0:0:0:0:
475,192,25272,1,0,0:0:0:0:
329,192,25619,1,0,0:0:0:0:
182,192,25966,1,2,0:2:0:0:
36,192,26313,1,0,0:0:0:0:
256,192,26659,1,0,0:0:0:0:
109,192,27006,1,2,0:0:0:0:
402,192,27353,1,2,0:0:0:0:
109,192,27700,1,2,0:0:0:0:
402,192,28047,5,2,0:0:0:0:
256,192,28394,1,0,0:0:0:0:
36,192,29087,5,8,0:0:0:0:
36,192,29434,1,8,0:0:0:0:
36,192,29781,1,8,0:0:0:0:
36,192,30128,1,8,0:0:0:0:
475,192,30474,1,8,0:0:0:0:
475,192,30821,1,8,0:0:0:0:
475,192,31168,1,8,0:0:0:0:
475,192,31515,1,8,0:0:0:0:
182,192,31862,1,8,0:0:0:0:
182,192,32035,1,8,0:0:0:0:
329,192,32209,1,8,0:0:0:0:
329,192,32382,1,8,0:0:0:0:
109,192,32555,1,8,0:0:0:0:
109,192,32729,1,8,0:0:0:0:
402,192,32902,1,8,0:0:0:0:
402,192,33076,1,8,0:0:0:0:
182,192,33076,1,4,0:0:0:0:
109,192,33422,1,8,0:0:0:0:
109,192,33596,1,4,0:0:0:0:
329,192,33596,1,8,0:0:0:0:
182,192,33943,1,8,0:1:0:0:
329,192,33943,1,8,0:0:0:0:
256,192,34289,1,0,0:0:0:0:
36,192,34636,1,8,0:0:0:0:
182,192,34636,1,4,0:0:0:0:
109,192,34983,1,0,0:0:0:0:
256,192,34983,1,8,0:1:0:0:
182,192,35157,1,0,0:0:0:0:
329,192,35503,1,8,0:0:0:0:
402,192,35677,1,8,0:1:0:0:
256,192,35677,1,0,0:0:0:0:
182,192,36024,1,0,0:0:0:0:
329,192,36024,1,8,0:0:0:0:
475,192,36370,1,8,0:1:0:0:
329,192,36370,1,8,0:0:0:0:
402,192,36544,1,0,0:0:0:0:
109,192,36891,1,8,0:0:0:0:
36,192,37064,1,8,0:1:0:0:
182,192,37064,1,0,0:0:0:0:
109,192,37411,1,0,0:0:0:0:
402,192,37411,1,8,0:0:0:0:
329,192,37758,1,8,0:0:0:0:
182,192,37758,1,0,0:1:0:0:
256,192,37931,1,0,0:0:0:0:
256,192,38278,1,8,0:0:0:0:
182,192,38451,1,8,0:1:0:0:
329,192,38451,1,0,0:0:0:0:
109,192,38798,1,8,0:0:0:0:
182,192,38972,1,8,0:0:0:0:
109,192,39145,1,8,0:1:0:0:
329,192,39145,1,0,0:0:0:0:
256,192,39318,1,8,0:0:0:0:
402,192,39492,1,0,0:1:0:0:
182,192,39492,1,8,0:1:0:0:
329,192,39665,1,8,0:0:0:0:
402,192,39839,1,8,0:1:0:0:
109,192,39839,1,0,0:0:0:0:
402,192,40185,1,0,0:0:0:0:
256,192,40185,1,8,0:0:0:0:
109,192,40359,1,0,0:0:0:0:
109,192,40532,1,8,0:1:0:0:
256,192,40532,1,8,0:0:0:0:
182,192,40879,1,0,0:0:0:0:
329,192,41052,1,0,0:0:0:0:
256,192,41226,1,8,0:1:0:0:
329,192,41573,1,8,0:0:0:0:
402,192,41573,1,0,0:0:0:0:
256,192,41746,1,0,0:0:0:0:
109,192,41920,1,8,0:1:0:0:
182,192,41920,1,8,0:0:0:0:
329,192,42266,1,0,0:0:0:0:
182,192,42440,1,0,0:0:0:0:
256,192,42613,1,8,0:1:0:0:
109,192,42960,1,8,0:0:0:0:
256,192,43133,1,8,0:0:0:0:
182,192,43307,1,8,0:0:0:0:
256,192,43480,1,8,0:0:0:0:
402,192,43654,1,8,0:0:0:0:
256,192,43827,1,8,0:0:0:0:
329,192,44000,1,8,0:1:0:0:
256,192,44174,1,0,0:0:0:0:
182,192,44347,1,12,0:0:0:0:
109,192,44347,1,0,0:0:0:0:
329,192,44521,1,0,0:0:0:0:
109,192,44694,1,8,0:0:0:0:
402,192,44868,1,0,0:0:0:0:
256,192,45388,1,0,0:0:0:0:
475,192,45388,1,2,0:0:0:0:
36,192,45735,128,0,46775:0:0:0:0:
182,192,45735,1,4,0:0:0:0:
256,192,46081,1,8,0:0:0:0:
182,192,46255,1,0,0:0:0:0:
329,192,46602,1,8,0:0:0:0:
256,192,46775,1,8,0:1:0:0:
475,192,47122,128,0,48162:0:0:0:0:
329,192,47122,1,8,0:0:0:0:
256,192,47469,1,8,0:0:0:0:
329,192,47642,1,0,0:0:0:0:
182,192,47989,1,8,0:0:0:0:
256,192,48162,1,8,0:1:0:0:
109,192,48509,128,0,49550:0:0:0:0:
256,192,48509,1,8,0:0:0:0:
329,192,48856,1,8,0:0:0:0:
256,192,49029,1,0,0:0:0:0:
402,192,49376,1,8,0:0:0:0:
329,192,49550,1,8,0:1:0:0:
402,192,49896,128,0,50937:0:0:0:0:
256,192,49896,1,8,0:0:0:0:
182,192,50243,1,8,0:0:0:0:
256,192,50417,1,0,0:0:0:0:
109,192,50763,1,8,0:0:0:0:
182,192,50937,1,8,0:1:0:0:
109,192,51284,1,8,0:0:0:0:
182,192,51457,1,0,0:0:0:0:
109,192,51631,1,8,0:1:0:0:
36,192,51631,1,0,0:0:0:0:
256,192,51891,1,8,0:0:0:0:
402,192,52151,1,0,0:0:0:0:
329,192,52324,1,8,0:1:0:0:
475,192,52324,1,0,0:0:0:0:
402,192,52671,1,8,0:0:0:0:
182,192,52844,1,0,0:0:0:0:
329,192,52844,1,0,0:0:0:0:
109,192,53018,1,8,0:1:0:0:
256,192,53278,1,8,0:0:0:0:
109,192,53538,1,0,0:0:0:0:
182,192,53711,1,8,0:1:0:0:
329,192,53711,1,8,0:1:0:0:
36,192,54058,1,8,0:0:0:0:
109,192,54232,1,8,0:0:0:0:
182,192,54405,1,8,0:0:0:0:
256,192,54578,1,8,0:0:0:0:
329,192,54752,1,8,0:0:0:0:
402,192,54925,1,8,0:0:0:0:
475,192,55099,1,8,0:1:0:0:
256,192,55446,1,4,0:0:0:0:
182,192,55792,1,8,0:1:0:0:
329,192,55792,1,8,0:0:0:0:
256,192,56486,1,8,0:0:0:0:
36,192,56486,1,2,0:0:0:0:
402,192,56833,128,0,57873:0:0:0:0:
329,192,56833,1,4,0:0:0:0:
256,192,57180,1,8,0:1:0:0:
256,192,57700,1,8,0:0:0:0:
109,192,57873,1,8,0:1:0:0:
36,192,58220,128,0,59261:0:0:0:0:
109,192,58220,1,8,0:0:0:0:
182,192,58567,1,8,0:1:0:0:
256,192,59087,1,8,0:0:0:0:
402,192,59261,1,8,0:1:0:0:
475,192,59607,128,0,60648:0:0:0:0:
402,192,59607,1,8,0:0:0:0:
329,192,59954,1,8,0:1:0:0:
256,192,60474,1,8,0:0:0:0:
182,192,60648,1,8,0:1:0:0:
109,192,60995,128,0,62035:0:0:0:0:
182,192,60995,1,8,0:0:0:0:
256,192,61342,1,8,0:1:0:0:
329,192,61862,1,8,0:0:0:0:
402,192,62035,1,8,0:1:0:0:
402,192,62382,128,0,63422:0:0:0:0:
329,192,62382,1,8,0:0:0:0:
256,192,62729,1,8,0:1:0:0:
182,192,63249,1,8,0:0:0:0:
109,192,63422,1,8,0:1:0:0:
182,192,63769,128,0,64810:0:0:0:0:
109,192,63769,1,8,0:0:0:0:
329,192,64116,1,8,0:1:0:0:
256,192,64636,1,8,0:0:0:0:
109,192,64810,1,8,0:1:0:0:
329,192,65157,128,0,66197:0:0:0:0:
402,192,65157,1,8,0:2:0:0:
182,192,65503,1,8,0:0:0:0:
256,192,66024,1,8,0:0:0:0:
402,192,66197,1,0,0:0:0:0:
182,192,66370,1,0,0:0:0:0:
256,192,66544,1,4,0:0:0:0:
109,192,66544,1,8,0:0:0:0:
182,192,66891,5,8,0:0:0:0:
329,192,66891,1,4,0:0:0:0:
402,192,67237,1,4,0:0:0:0:
256,192,67237,1,8,0:0:0:0:
182,192,67584,1,8,0:0:0:0:
329,192,67584,1,8,0:1:0:0:
182,192,67931,5,8,0:0:0:0:
36,192,68105,1,0,0:0:0:0:
256,192,68278,1,8,0:0:0:0:
109,192,68451,1,0,0:0:0:0:
329,192,68625,1,8,0:0:0:0:
182,192,68798,1,0,0:0:0:0:
329,192,68972,1,8,0:1:0:0:
256,192,69145,1,0,0:0:0:0:
182,192,69318,128,8,69665:0:0:0:0:
109,192,69318,1,12,0:0:0:0:
402,192,69839,128,0,70185:0:0:0:0:
182,192,70359,1,8,0:1:0:0:
329,192,70706,128,8,71052:0:0:0:0:
402,192,71052,1,8,0:1:0:0:
182,192,71226,128,0,71573:0:0:0:0:
256,192,71746,1,8,0:1:0:0:
475,192,72093,128,8,72440:0:0:0:0:
402,192,72440,1,8,0:1:0:0:
329,192,72613,128,0,72960:0:0:0:0:
402,192,73133,1,8,0:1:0:0:
36,192,73480,128,8,73827:0:0:0:0:
109,192,73827,1,8,0:1:0:0:
182,192,74000,128,0,74347:0:0:0:0:
109,192,74521,1,8,0:1:0:0:
329,192,74868,128,8,75214:0:0:0:0:
256,192,75214,1,8,0:1:0:0:
182,192,75388,128,0,75735:0:0:0:0:
256,192,75908,1,8,0:1:0:0:
256,192,76081,1,0,0:0:0:0:
182,192,76255,1,8,0:1:0:0:
329,192,76255,1,0,0:0:0:0:
36,192,76775,1,0,0:0:0:0:
182,192,76775,1,8,0:1:0:0:
329,192,77295,1,8,0:1:0:0:
475,192,77295,1,0,0:0:0:0:
109,192,77642,1,8,0:1:0:0:
402,192,77989,1,8,0:1:0:0:
109,192,78336,1,8,0:1:0:0:
402,192,78509,1,8,0:1:0:0:
256,192,78856,1,0,0:0:0:0:
182,192,79029,1,4,0:0:0:0:
109,192,79029,128,8,79376:0:0:0:0:
182,192,79550,128,0,79896:0:0:0:0:
329,192,79723,1,8,0:1:0:0:
329,192,80070,1,0,0:0:0:0:
182,192,80243,1,0,0:0:0:0:
256,192,80417,128,8,80763:0:0:0:0:
329,192,80937,128,0,81284:0:0:0:0:
475,192,81110,1,8,0:1:0:0:
475,192,81457,1,0,0:0:0:0:
402,192,81631,1,0,0:0:0:0:
256,192,81804,128,8,82151:0:0:0:0:
329,192,82324,128,0,82671:0:0:0:0:
182,192,82498,1,8,0:1:0:0:
182,192,82844,1,0,0:0:0:0:
256,192,83018,1,0,0:0:0:0:
109,192,83191,128,8,83538:0:0:0:0:
182,192,83711,128,0,84058:0:0:0:0:
329,192,83885,1,8,0:1:0:0:
109,192,84232,1,0,0:0:0:0:
402,192,84232,1,0,0:0:0:0:
36,192,84578,1,8,0:0:0:0:
182,192,84752,1,0,0:0:0:0:
109,192,84925,1,0,0:0:0:0:
256,192,85099,1,0,0:0:0:0:
182,192,85272,1,8,0:1:0:0:
475,192,85446,1,0,0:0:0:0:
329,192,85619,1,0,0:0:0:0:
402,192,85792,1,0,0:0:0:0:
182,192,85966,1,0,0:0:0:0:
329,192,85966,1,0,0:0:0:0:
475,192,86139,1,0,0:0:0:0:
329,192,86313,1,0,0:0:0:0:
402,192,86486,1,0,0:0:0:0:
256,192,86659,1,8,0:1:0:0:
329,192,86833,1,0,0:0:0:0:
182,192,87006,1,0,0:0:0:0:
256,192,87180,1,0,0:0:0:0:
329,192,87353,1,0,0:0:0:0:
182,192,87353,1,0,0:0:0:0:
36,192,87526,1,0,0:0:0:0:
109,192,87700,1,0,0:0:0:0:
36,192,87873,1,0,0:0:0:0:
329,192,88047,1,8,0:1:0:0:
402,192,88220,1,0,0:0:0:0:
329,192,88394,1,0,0:0:0:0:
109,192,88567,1,0,0:0:0:0:
256,192,88740,1,8,0:1:0:0:
402,192,88740,1,0,0:0:0:0:
256,192,89434,1,8,0:1:0:0:
36,192,89434,1,0,0:0:0:0:
475,192,89781,128,0,90128:0:0:0:0:
256,192,90128,1,4,0:0:0:0:
475,192,90821,1,0,0:0:0:0:
329,192,91168,1,0,0:0:0:0:
182,192,91515,1,2,0:0:0:0:
36,192,92209,1,0,0:0:0:0:
182,192,92555,1,2,0:0:0:0:
329,192,92902,1,2,0:0:0:0:
402,192,93596,1,2,0:0:0:0:
109,192,93943,1,2,0:0:0:0:
402,192,94289,1,2,0:0:0:0:
109,192,94636,5,2,0:0:0:0:
256,192,94983,1,2,0:0:0:0:
475,192,95677,5,12,0:0:0:0:
329,192,96024,1,8,0:0:0:0:
475,192,96370,1,8,0:0:0:0:
329,192,96717,1,8,0:0:0:0:
182,192,97064,1,8,0:0:0:0:
36,192,97411,1,8,0:0:0:0:
182,192,97758,1,8,0:0:0:0:
36,192,98105,1,10,0:0:0:0:
182,192,98451,1,8,0:0:0:0:
329,192,98625,1,0,0:0:0:0:
256,192,98798,1,8,0:0:0:0:
182,192,98972,1,0,0:0:0:0:
329,192,99145,1,8,0:0:0:0:
182,192,99318,1,0,0:0:0:0:
256,192,99492,1,8,0:0:0:0:
329,192,99665,1,4,0:0:0:0:
329,192,100012,1,8,0:0:0:0:
329,192,100185,1,4,0:0:0:0:
182,192,100185,1,0,0:0:0:0:
402,192,100532,1,0,0:0:0:0:
256,192,100532,1,8,0:1:0:0:
109,192,101226,1,4,0:0:0:0:
182,192,101226,1,8,0:0:0:0:
475,192,101573,1,8,0:1:0:0:
402,192,101746,1,0,0:0:0:0:
329,192,101746,1,0,0:0:0:0:
36,192,102093,1,8,0:0:0:0:
109,192,102266,1,0,0:0:0:0:
182,192,102266,1,8,0:1:0:0:
329,192,102613,1,8,0:0:0:0:
402,192,102613,1,0,0:0:0:0:
402,192,102960,1,8,0:1:0:0:
329,192,103133,1,0,0:0:0:0:
182,192,103133,1,0,0:0:0:0:
109,192,103480,1,8,0:0:0:0:
182,192,103654,1,8,0:1:0:0:
329,192,103654,1,0,0:0:0:0:
256,192,104000,1,0,0:0:0:0:
329,192,104000,1,8,0:0:0:0:
329,192,104347,1,8,0:1:0:0:
475,192,104521,1,0,0:0:0:0:
402,192,104521,1,0,0:0:0:0:
182,192,104868,1,8,0:0:0:0:
36,192,105041,1,0,0:0:0:0:
109,192,105041,1,8,0:1:0:0:
256,192,105214,1,0,0:0:0:0:
182,192,105388,1,8,0:0:0:0:
329,192,105388,1,8,0:0:0:0:
256,192,105561,1,8,0:0:0:0:
402,192,105735,1,8,0:1:0:0:
256,192,105908,1,0,0:0:0:0:
182,192,106081,1,0,0:0:0:0:
256,192,106255,1,8,0:0:0:0:
109,192,106428,1,0,0:1:0:0:
329,192,106602,1,0,0:0:0:0:
475,192,106775,1,8,0:0:0:0:
402,192,106948,1,8,0:0:0:0:
329,192,107122,1,8,0:1:0:0:
475,192,107122,1,0,0:0:0:0:
36,192,107469,1,0,0:0:0:0:
109,192,107642,1,8,0:0:0:0:
182,192,107815,1,8,0:1:0:0:
36,192,107815,1,0,0:0:0:0:
329,192,108162,1,8,0:0:0:0:
329,192,108336,1,8,0:0:0:0:
256,192,108509,1,0,0:0:0:0:
109,192,108509,1,8,0:1:0:0:
182,192,108856,1,0,0:0:0:0:
182,192,109029,1,8,0:0:0:0:
256,192,109203,1,8,0:1:0:0:
402,192,109203,1,0,0:0:0:0:
475,192,109550,1,8,0:0:0:0:
475,192,109723,1,8,0:0:0:0:
36,192,109896,1,8,0:0:0:0:
36,192,110070,1,8,0:0:0:0:
402,192,110243,1,8,0:0:0:0:
109,192,110417,1,8,0:0:0:0:
182,192,110590,1,8,0:0:0:0:
256,192,110763,1,8,0:0:0:0:
475,192,110937,1,8,0:0:0:0:
329,192,110937,1,4,0:0:0:0:
109,192,111284,1,0,0:0:0:0:
256,192,111284,1,8,0:1:0:0:
402,192,111804,1,0,0:0:0:0:
329,192,111977,1,0,0:0:0:0:
256,192,111977,1,0,0:0:0:0:
36,192,112324,1,4,0:0:0:0:
182,192,112324,1,8,0:0:0:0:
109,192,112671,1,8,0:1:0:0:
182,192,113191,1,8,0:0:0:0:
256,192,113365,1,8,0:1:0:0:
329,192,113365,1,0,0:0:0:0:
475,192,113711,1,0,0:0:0:0:
329,192,113711,1,8,0:0:0:0:
402,192,114058,1,8,0:1:0:0:
329,192,114578,1,8,0:0:0:0:
256,192,114752,1,8,0:1:0:0:
182,192,114752,1,0,0:0:0:0:
36,192,115099,1,8,0:0:0:0:
182,192,115272,1,0,0:0:0:0:
109,192,115446,1,8,0:1:0:0:
256,192,115619,1,0,0:0:0:0:
256,192,115966,1,8,0:0:0:0:
329,192,116139,1,0,0:0:0:0:
182,192,116139,1,8,0:1:0:0:
475,192,116486,1,8,0:0:0:0:
329,192,116659,1,0,0:0:0:0:
402,192,116833,1,8,0:1:0:0:
256,192,117006,1,0,0:0:0:0:
256,192,117353,1,8,0:0:0:0:
329,192,117526,1,8,0:1:0:0:
182,192,117526,1,0,0:0:0:0:
402,192,117873,1,8,0:0:0:0:
256,192,118047,1,8,0:0:0:0:
329,192,118047,1,0,0:0:0:0:
182,192,118220,1,8,0:1:0:0:
109,192,118567,1,0,0:0:0:0:
36,192,118740,1,0,0:0:0:0:
109,192,118914,1,0,0:0:0:0:
182,192,118914,1,8,0:1:0:0:
109,192,119261,1,8,0:0:0:0:
256,192,119434,1,8,0:0:0:0:
182,192,119434,1,0,0:0:0:0:
329,192,119607,1,8,0:1:0:0:
402,192,119954,1,0,0:0:0:0:
475,192,120128,1,0,0:0:0:0:
329,192,120301,1,8,0:1:0:0:
402,192,120301,1,0,0:0:0:0:
36,192,120648,128,0,121342:0:0:0:0:
402,192,120648,1,8,0:0:0:0:
329,192,120821,1,8,0:0:0:0:
256,192,120995,1,8,0:0:0:0:
182,192,121168,1,8,0:0:0:0:
329,192,121342,1,8,0:0:0:0:
182,192,121515,1,8,0:0:0:0:
256,192,121688,1,8,0:1:0:0:
402,192,121862,1,0,0:0:0:0:
329,192,122035,1,4,0:0:0:0:
475,192,122035,1,8,0:0:0:0:
182,192,122382,1,8,0:1:0:0:
329,192,122382,1,0,0:0:0:0:
36,192,122902,1,8,0:0:0:0:
109,192,123076,1,0,0:0:0:0:
182,192,123076,1,0,0:0:0:0:
256,192,123422,1,4,0:0:0:0:
402,192,123422,1,8,0:0:0:0:
109,192,123943,1,0,0:0:0:0:
256,192,123943,1,8,0:0:0:0:
182,192,124289,1,0,0:0:0:0:
256,192,124463,1,8,0:0:0:0:
329,192,124636,1,0,0:0:0:0:
402,192,124810,1,0,0:0:0:0:
256,192,124810,1,8,0:0:0:0:
256,192,125330,1,8,0:0:0:0:
109,192,125330,1,0,0:0:0:0:
256,192,125677,1,0,0:0:0:0:
182,192,125850,1,8,0:0:0:0:
109,192,126024,1,0,0:0:0:0:
36,192,126197,1,0,0:0:0:0:
256,192,126197,1,8,0:0:0:0:
329,192,126717,1,0,0:0:0:0:
182,192,126717,1,8,0:0:0:0:
256,192,127064,1,0,0:0:0:0:
329,192,127237,1,8,0:0:0:0:
402,192,127411,1,0,0:0:0:0:
256,192,127584,1,8,0:0:0:0:
475,192,127584,1,0,0:0:0:0:
256,192,128105,1,8,0:0:0:0:
36,192,128105,1,0,0:0:0:0:
475,192,128451,1,0,0:0:0:0:
402,192,128625,1,8,0:0:0:0:
329,192,128798,1,0,0:0:0:0:
256,192,128972,1,0,0:0:0:0:
402,192,128972,1,8,0:0:0:0:
182,192,129492,1,0,0:0:0:0:
329,192,129492,1,8,0:0:0:0:
36,192,129839,1,0,0:0:0:0:
109,192,130012,1,8,0:0:0:0:
182,192,130185,1,0,0:0:0:0:
256,192,130359,1,8,0:0:0:0:
109,192,130359,1,0,0:0:0:0:
402,192,130879,1,8,0:0:0:0:
109,192,130879,1,0,0:0:0:0:
402,192,131226,1,0,0:0:0:0:
329,192,131399,1,8,0:0:0:0:
256,192,131573,1,0,0:0:0:0:
329,192,131746,1,8,0:0:0:0:
182,192,131746,1,0,0:0:0:0:
36,192,132266,1,0,0:0:0:0:
182,192,132266,1,8,0:0:0:0:
402,192,132613,1,0,0:0:0:0:
109,192,132787,1,8,0:0:0:0:
402,192,132960,1,0,0:0:0:0:
109,192,133133,1,8,0:0:0:0:
256,192,133133,1,0,0:0:0:0:
109,192,133480,1,8,0:0:0:0:
402,192,133827,1,8,0:0:0:0:
402,192,134174,1,8,0:0:0:0:
256,192,134174,1,0,0:0:0:0:
475,192,134521,128,0,135561:0:0:0:0:
329,192,134521,1,12,0:1:0:0:
256,192,134868,1,8,0:1:0:0:
329,192,135214,1,8,0:1:0:0:
109,192,135561,1,8,0:1:0:0:
182,192,135908,128,0,136948:0:0:0:0:
256,192,135908,1,8,0:1:0:0:
329,192,136255,1,8,0:1:0:0:
256,192,136602,1,8,0:1:0:0:
402,192,136948,1,8,0:1:0:0:
402,192,137295,128,0,138336:0:0:0:0:
329,192,137295,1,8,0:1:0:0:
256,192,137642,1,8,0:1:0:0:
182,192,137989,1,8,0:1:0:0:
329,192,138336,1,8,0:1:0:0:
109,192,138683,128,0,139723:0:0:0:0:
182,192,138683,1,8,0:1:0:0:
256,192,139029,1,8,0:1:0:0:
475,192,139376,1,8,0:1:0:0:
182,192,139723,1,8,0:1:0:0:
329,192,140070,1,8,0:1:0:0:
256,192,140070,128,0,141110:0:0:0:0:
109,192,140417,1,8,0:1:0:0:
402,192,140763,1,8,0:1:0:0:
182,192,141110,1,8,0:1:0:0:
36,192,141457,128,0,142498:0:0:0:0:
109,192,141457,1,8,0:1:0:0:
256,192,141804,1,8,0:1:0:0:
182,192,142151,1,8,0:1:0:0:
329,192,142498,1,8,0:1:0:0:
475,192,142844,128,0,143885:0:0:0:0:
402,192,142844,1,8,0:1:0:0:
256,192,143191,1,8,0:1:0:0:
402,192,143538,1,8,0:1:0:0:
182,192,143885,1,8,0:1:0:0:
329,192,144232,128,0,145272:0:0:0:0:
182,192,144232,128,0,145272:0:0:0:0:
182,192,145619,1,4,0:0:0:0:
329,192,145619,1,4,0:0:0:0:
36,192,147006,1,8,0:0:0:0:
109,192,147006,1,4,0:0:0:0:
182,192,147180,1,0,0:0:0:0:
109,192,147353,1,8,0:1:0:0:
256,192,147526,1,0,0:0:0:0:
256,192,147873,1,8,0:0:0:0:
182,192,148047,1,8,0:1:0:0:
329,192,148047,1,0,0:0:0:0:
475,192,148394,1,8,0:0:0:0:
402,192,148394,1,0,0:0:0:0:
329,192,148567,1,0,0:0:0:0:
402,192,148740,1,8,0:1:0:0:
256,192,148914,1,0,0:0:0:0:
256,192,149261,1,8,0:0:0:0:
182,192,149434,1,0,0:0:0:0:
329,192,149434,1,8,0:1:0:0:
109,192,149781,1,8,0:0:0:0:
256,192,149954,1,0,0:0:0:0:
182,192,150128,1,8,0:1:0:0:
329,192,150301,1,0,0:0:0:0:
329,192,150648,1,8,0:0:0:0:
256,192,150821,1,8,0:1:0:0:
402,192,150821,1,0,0:0:0:0:
402,192,151168,1,8,0:0:0:0:
256,192,151342,1,0,0:0:0:0:
329,192,151515,1,8,0:1:0:0:
182,192,151688,1,0,0:0:0:0:
182,192,152035,1,8,0:0:0:0:
109,192,152209,1,0,0:0:0:0:
256,192,152209,1,8,0:1:0:0:
109,192,152555,1,8,0:0:0:0:
182,192,152729,1,0,0:0:0:0:
256,192,152729,1,0,0:0:0:0:
329,192,152902,1,8,0:1:0:0:
402,192,153249,1,0,0:0:0:0:
475,192,153422,1,0,0:0:0:0:
402,192,153596,1,0,0:0:0:0:
329,192,153596,1,8,0:1:0:0:
402,192,153943,1,8,0:0:0:0:
329,192,154116,1,0,0:0:0:0:
256,192,154116,1,0,0:0:0:0:
182,192,154289,1,8,0:1:0:0:
109,192,154636,1,0,0:0:0:0:
36,192,154810,1,0,0:0:0:0:
109,192,154983,1,0,0:0:0:0:
182,192,154983,1,8,0:1:0:0:
402,192,155330,1,8,0:0:0:0:
256,192,155503,1,0,0:0:0:0:
329,192,155677,1,8,0:0:0:0:
256,192,155850,1,0,0:0:0:0:
109,192,156024,1,8,0:0:0:0:
256,192,156197,1,0,0:0:0:0:
182,192,156370,1,8,0:1:0:0:
256,192,156544,1,0,0:0:0:0:
329,192,156717,1,8,0:0:0:0:
182,192,156717,1,4,0:0:0:0:
109,192,157064,1,8,0:1:0:0:
402,192,157064,1,0,0:0:0:0:
256,192,157758,1,0,0:0:0:0:
182,192,158105,128,0,159492:0:0:0:0:
329,192,158105,1,4,0:0:0:0:
402,192,158451,1,8,0:1:0:0:
329,192,158625,1,0,0:0:0:0:
475,192,158972,1,8,0:0:0:0:
402,192,159145,1,8,0:1:0:0:
402,192,159492,128,0,160879:0:0:0:0:
182,192,159839,1,8,0:1:0:0:
256,192,160012,1,0,0:0:0:0:
109,192,160359,1,8,0:0:0:0:
182,192,160532,1,8,0:1:0:0:
182,192,160879,128,0,162266:0:0:0:0:
329,192,161226,1,8,0:1:0:0:
256,192,161399,1,0,0:0:0:0:
402,192,161746,1,8,0:0:0:0:
329,192,161920,1,8,0:1:0:0:
329,192,162266,128,0,163654:0:0:0:0:
182,192,162613,1,8,0:1:0:0:
256,192,162787,1,8,0:0:0:0:
109,192,163133,1,0,0:0:0:0:
182,192,163307,1,8,0:1:0:0:
36,192,163654,128,0,165041:0:0:0:0:
256,192,164000,1,8,0:1:0:0:
182,192,164174,1,0,0:0:0:0:
329,192,164521,1,8,0:0:0:0:
256,192,164694,1,8,0:1:0:0:
475,192,165041,128,0,166428:0:0:0:0:
256,192,165388,1,8,0:1:0:0:
329,192,165561,1,0,0:0:0:0:
182,192,165908,1,8,0:0:0:0:
256,192,166081,1,8,0:1:0:0:
182,192,166428,128,0,167815:0:0:0:0:
402,192,166428,1,8,0:0:0:0:
329,192,166602,1,0,0:0:0:0:
402,192,166775,1,8,0:0:0:0:
329,192,166948,1,0,0:0:0:0:
402,192,167122,1,8,0:0:0:0:
329,192,167295,1,0,0:0:0:0:
402,192,167469,1,8,0:1:0:0:
329,192,167642,1,0,0:0:0:0:
329,192,167815,1,4,0:0:0:0:
256,192,168162,1,8,0:1:0:0:
182,192,168336,1,0,0:0:0:0:
329,192,168336,1,0,0:0:0:0:
182,192,168683,1,0,0:0:0:0:
329,192,168683,1,8,0:0:0:0:
256,192,168856,1,0,0:0:0:0:
182,192,169203,1,8,0:1:0:0:
256,192,169203,1,12,0:0:0:0:
329,192,169203,1,0,0:0:0:0:
