osu file format v12

[General]
AudioFilename: Scar.mp3
AudioLeadIn: 0
PreviewTime: 100879
Countdown: 0
SampleSet: Soft
StackLeniency: 0.5
Mode: 3
LetterboxInBreaks: 0
SpecialStyle: 0
WidescreenStoryboard: 0

[Editor]
Bookmarks: 39831,89781,100185,159492
DistanceSpacing: 0.6
BeatDivisor: 4
GridSize: 4

[Metadata]
Title:Kizuato
TitleUnicode:キズアト
Artist:REDALiCE
ArtistUnicode:REDALiCE
Creator:Reikosaka
Version:Maximum
Source:Touhou
Tags:alice emotion a☆ru alice margatroid the doll maker of bucuresti overdrive c83
BeatmapID:299840
BeatmapSetID:116133

[Difficulty]
HPDrainRate:8
CircleSize:7
OverallDifficulty:8
ApproachRate:5
SliderMultiplier:1.4
SliderTickRate:1

[Events]
//Background and Video events
0,0,"Kizuato.jpg",0,0
//Break Periods
//Storyboard Layer 0 (Background)
//Storyboard Layer 1 (Fail)
//Storyboard Layer 2 (Pass)
//Storyboard Layer 3 (Foreground)
//Storyboard Sound Samples
//Background Colour Transformations
3,100,163,162,255

[TimingPoints]
1342,346.820809248555,4,2,1,45,1,0
5503,-133.333333333333,4,2,1,45,0,0
29087,-100,4,2,1,45,0,0
34636,-100,4,2,1,45,0,1
45735,-100,4,2,1,45,0,0
79029,-133.333333333333,4,2,1,45,0,0
95677,-100,4,2,1,45,0,0
123422,-133.333333333333,4,2,1,45,0,0
134521,-117.647058823529,4,2,1,45,0,0
140070,-105.263157894737,4,2,1,45,0,0
144232,-100,4,2,1,45,0,0
147006,-100,4,2,1,45,0,1
158105,-100,4,2,1,45,0,0

[HitObjects]
36,192,6891,1,0,0:0:0:0:
256,192,6891,1,8,0:0:0:0:
182,192,6891,1,0,0:0:0:0:
109,192,7411,1,0,0:0:0:0:
182,192,7411,1,0,0:0:0:0:
329,192,7411,1,8,0:0:0:0:
256,192,7758,1,0,0:0:0:0:
182,192,7931,1,8,0:0:0:0:
329,192,7931,1,0,0:0:0:0:
109,192,8105,1,0,0:0:0:0:
256,192,8278,1,0,0:0:0:0:
329,192,8278,1,8,0:0:0:0:
475,192,8278,1,0,0:0:0:0:
402,192,8798,1,0,0:0:0:0:
329,192,8798,1,0,0:0:0:0:
182,192,8798,1,8,0:0:0:0:
256,192,9145,1,0,0:0:0:0:
329,192,9318,1,8,0:0:0:0:
182,192,9318,1,0,0:0:0:0:
402,192,9492,1,0,0:0:0:0:
182,192,9665,1,0,0:0:0:0:
256,192,9665,1,8,0:0:0:0:
36,192,9665,128,0,10185:0:0:0:0:
329,192,10185,1,8,0:0:0:0:
329,192,10532,1,0,0:0:0:0:
182,192,10706,1,8,0:0:0:0:
475,192,10706,1,0,0:0:0:0:
329,192,10879,1,0,0:0:0:0:
109,192,11052,1,8,0:0:0:0:
256,192,11399,1,8,0:0:0:0:
402,192,11746,1,8,0:0:0:0:
256,192,12093,1,8,0:0:0:0:
182,192,12440,1,0,0:0:0:0:
329,192,12440,1,0,0:0:0:0:
475,192,12440,1,0,0:0:0:0:
256,192,12787,1,0,0:0:0:0:
182,192,12960,1,0,0:0:0:0:
109,192,13133,1,0,0:0:0:0:
256,192,13133,1,8,0:0:0:0:
36,192,13133,1,8,0:1:0:0:
182,192,13307,1,0,0:0:0:0:
256,192,13480,1,0,0:0:0:0:
329,192,13654,1,0,0:0:0:0:
256,192,13827,1,8,0:0:0:0:
402,192,13827,1,0,0:0:0:0:
475,192,13827,1,0,0:0:0:0:
329,192,14000,1,0,0:0:0:0:
256,192,14174,1,0,0:0:0:0:
182,192,14347,1,0,0:0:0:0:
109,192,14521,1,0,0:0:0:0:
256,192,14521,1,8,0:0:0:0:
36,192,14521,1,8,0:1:0:0:
182,192,14694,1,0,0:0:0:0:
256,192,14868,1,0,0:0:0:0:
329,192,15041,1,0,0:0:0:0:
256,192,15214,1,8,0:0:0:0:
402,192,15214,1,0,0:0:0:0:
475,192,15214,1,0,0:0:0:0:
329,192,15388,1,0,0:0:0:0:
256,192,15561,1,0,0:0:0:0:
182,192,15735,1,0,0:0:0:0:
109,192,15908,1,0,0:0:0:0:
256,192,15908,1,8,0:0:0:0:
36,192,15908,1,8,0:1:0:0:
182,192,16081,1,0,0:0:0:0:
256,192,16255,1,0,0:0:0:0:
182,192,16428,1,0,0:0:0:0:
329,192,16428,1,8,0:0:0:0:
182,192,16602,1,0,0:0:0:0:
256,192,16602,1,8,0:0:0:0:
329,192,16602,1,0,0:0:0:0:
402,192,16775,1,0,0:0:0:0:
475,192,16948,1,0,0:0:0:0:
402,192,17122,1,0,0:0:0:0:
475,192,17295,1,8,0:0:0:0:
36,192,17295,1,8,0:1:0:0:
256,192,17295,1,0,0:0:0:0:
109,192,17469,1,0,0:0:0:0:
36,192,17642,1,0,0:0:0:0:
402,192,17642,1,8,0:0:0:0:
256,192,17642,1,0,0:0:0:0:
109,192,17815,1,0,0:0:0:0:
36,192,17989,1,0,0:0:0:0:
329,192,17989,1,8,0:0:0:0:
256,192,17989,1,0,0:0:0:0:
182,192,18162,1,0,0:0:0:0:
109,192,18336,1,0,0:0:0:0:
256,192,18509,1,0,0:0:0:0:
182,192,18683,1,8,0:0:0:0:
402,192,18683,1,0,0:0:0:0:
475,192,18683,1,8,0:1:0:0:
329,192,18856,1,0,0:0:0:0:
256,192,19029,1,0,0:0:0:0:
402,192,19203,1,0,0:0:0:0:
329,192,19376,1,8,0:0:0:0:
36,192,19376,1,0,0:0:0:0:
109,192,19376,1,0,0:0:0:0:
475,192,19550,1,0,0:0:0:0:
256,192,19723,1,0,0:0:0:0:
402,192,19896,1,0,0:0:0:0:
182,192,20070,1,8,0:0:0:0:
36,192,20070,1,0,0:0:0:0:
475,192,20070,1,8,0:1:0:0:
329,192,20243,1,0,0:0:0:0:
109,192,20417,1,0,0:0:0:0:
256,192,20590,1,0,0:0:0:0:
36,192,20763,1,8,0:0:0:0:
475,192,20763,1,0,0:0:0:0:
402,192,20763,1,0,0:0:0:0:
182,192,20937,1,0,0:0:0:0:
109,192,21110,1,0,0:0:0:0:
256,192,21284,1,0,0:0:0:0:
182,192,21457,1,8,0:0:0:0:
402,192,21457,1,8,0:1:0:0:
475,192,21457,1,0,0:0:0:0:
329,192,21631,1,0,0:0:0:0:
256,192,21804,1,0,0:0:0:0:
182,192,21977,1,0,0:0:0:0:
182,192,22151,1,8,0:0:0:0:
329,192,22151,128,0,22844:0:0:0:0:
36,192,22151,1,4,0:0:0:0:
182,192,22844,1,8,0:1:0:0:
475,192,22844,1,0,0:0:0:0:
36,192,23191,1,8,0:1:0:0:
256,192,23191,1,8,0:1:0:0:
402,192,23278,1,8,0:1:0:0:
109,192,23365,1,8,0:1:0:0:
402,192,23451,1,0,0:0:0:0:
182,192,23538,128,0,24058:0:0:0:0:
36,192,23538,128,0,24925:0:0:0:0:
109,192,23538,1,4,0:0:0:0:
256,192,23711,1,0,0:0:0:0:
402,192,23885,1,0,0:0:0:0:
329,192,24058,1,8,0:0:0:0:
475,192,24232,1,0,0:0:0:0:
329,192,24405,1,0,0:0:0:0:
402,192,24578,1,0,0:0:0:0:
182,192,24578,1,0,0:0:0:0:
256,192,24925,128,0,25272:0:0:0:0:
402,192,24925,128,0,25446:0:0:0:0:
182,192,24925,1,8,0:0:0:0:
475,192,25099,1,0,0:0:0:0:
329,192,25446,1,8,0:0:0:0:
475,192,25619,1,0,0:0:0:0:
329,192,25792,1,0,0:0:0:0:
182,192,25966,1,0,0:0:0:0:
109,192,26139,1,0,0:0:0:0:
256,192,26313,1,8,0:0:0:0:
402,192,26313,1,0,0:0:0:0:
329,192,26486,1,0,0:0:0:0:
256,192,26659,1,0,0:0:0:0:
109,192,26833,1,8,0:0:0:0:
329,192,26833,1,0,0:0:0:0:
182,192,27006,1,0,0:0:0:0:
402,192,27180,1,0,0:0:0:0:
109,192,27353,1,0,0:0:0:0:
329,192,27526,1,0,0:0:0:0:
256,192,27700,1,8,0:0:0:0:
402,192,27700,1,0,0:0:0:0:
475,192,27700,1,0,0:0:0:0:
329,192,27873,1,0,0:0:0:0:
256,192,28047,1,0,0:0:0:0:
182,192,28220,5,8,0:0:0:0:
329,192,28220,1,0,0:0:0:0:
109,192,28220,1,0,0:0:0:0:
256,192,28740,1,2,0:0:0:0:
402,192,28740,1,0,0:0:0:0:
475,192,28740,1,0,0:0:0:0:
36,192,29087,1,12,0:0:0:0:
256,192,29087,1,0,0:0:0:0:
109,192,29434,1,8,0:0:0:0:
256,192,29434,1,0,0:0:0:0:
475,192,29781,1,0,0:0:0:0:
182,192,29781,1,0,0:0:0:0:
402,192,29781,1,0,0:0:0:0:
329,192,30128,1,8,0:0:0:0:
475,192,30128,1,0,0:0:0:0:
329,192,30474,1,8,0:0:0:0:
402,192,30474,1,0,0:0:0:0:
475,192,30821,1,8,0:0:0:0:
256,192,30821,1,0,0:0:0:0:
329,192,31168,1,8,0:0:0:0:
36,192,31168,1,0,0:0:0:0:
109,192,31168,1,0,0:0:0:0:
182,192,31515,1,8,0:0:0:0:
36,192,31515,1,0,0:0:0:0:
329,192,31862,1,8,0:0:0:0:
182,192,32035,1,8,0:0:0:0:
402,192,32209,1,8,0:0:0:0:
109,192,32382,1,8,0:0:0:0:
475,192,32555,1,8,0:0:0:0:
36,192,32729,1,8,0:0:0:0:
36,192,32902,1,8,0:0:0:0:
475,192,32902,1,4,0:0:0:0:
402,192,32989,1,0,0:0:0:0:
109,192,32989,1,8,0:1:0:0:
329,192,33076,1,4,0:0:0:0:
182,192,33076,1,8,0:0:0:0:
256,192,33422,1,0,0:0:0:0:
256,192,33596,1,8,0:0:0:0:
182,192,33769,1,0,0:0:0:0:
329,192,33856,1,0,0:0:0:0:
182,192,33943,128,8,34289:0:0:0:0:
329,192,34289,1,0,0:0:0:0:
402,192,34289,1,0,0:0:0:0:
109,192,34636,1,0,0:0:0:0:
256,192,34636,1,12,0:0:0:0:
329,192,34636,1,0,0:0:0:0:
329,192,34983,1,8,0:0:0:0:
402,192,34983,1,8,0:1:0:0:
182,192,35157,1,0,0:0:0:0:
402,192,35330,1,0,0:0:0:0:
329,192,35503,1,8,0:0:0:0:
182,192,35503,1,0,0:0:0:0:
402,192,35677,1,0,0:0:0:0:
475,192,35677,1,8,0:1:0:0:
256,192,35677,1,0,0:0:0:0:
182,192,36024,1,8,0:0:0:0:
329,192,36024,1,0,0:0:0:0:
402,192,36024,1,0,0:0:0:0:
109,192,36370,1,0,0:0:0:0:
182,192,36370,1,8,0:1:0:0:
329,192,36544,1,0,0:0:0:0:
182,192,36717,1,0,0:0:0:0:
402,192,36891,1,0,0:0:0:0:
329,192,36891,1,8,0:0:0:0:
182,192,37064,1,0,0:0:0:0:
475,192,37064,1,0,0:0:0:0:
256,192,37064,1,8,0:1:0:0:
402,192,37411,1,0,0:0:0:0:
256,192,37411,1,8,0:0:0:0:
182,192,37411,1,0,0:0:0:0:
402,192,37758,1,0,0:0:0:0:
329,192,37758,1,8,0:1:0:0:
182,192,37931,1,0,0:0:0:0:
329,192,38105,1,0,0:0:0:0:
256,192,38278,1,8,0:0:0:0:
36,192,38278,1,0,0:0:0:0:
182,192,38451,1,8,0:1:0:0:
329,192,38451,1,0,0:0:0:0:
109,192,38451,1,0,0:0:0:0:
256,192,38625,1,8,0:0:0:0:
256,192,38798,1,8,0:0:0:0:
256,192,38972,1,8,0:0:0:0:
402,192,39145,1,8,0:1:0:0:
182,192,39318,1,8,0:0:0:0:
109,192,39492,1,8,0:0:0:0:
182,192,39578,1,8,0:0:0:0:
256,192,39665,1,8,0:0:0:0:
402,192,39665,1,0,0:0:0:0:
329,192,39839,1,8,0:1:0:0:
475,192,39839,1,0,0:0:0:0:
402,192,40012,1,0,0:0:0:0:
182,192,40012,1,0,0:0:0:0:
109,192,40185,1,0,0:0:0:0:
256,192,40185,1,0,0:0:0:0:
402,192,40359,1,8,0:0:0:0:
329,192,40359,1,0,0:0:0:0:
182,192,40532,1,8,0:1:0:0:
329,192,40532,1,0,0:0:0:0:
402,192,40706,1,0,0:0:0:0:
329,192,40792,1,0,0:0:0:0:
256,192,40879,1,0,0:0:0:0:
109,192,40879,1,0,0:0:0:0:
402,192,41052,1,0,0:0:0:0:
182,192,41226,1,8,0:1:0:0:
36,192,41226,1,0,0:0:0:0:
256,192,41226,1,0,0:0:0:0:
109,192,41573,1,8,0:0:0:0:
256,192,41573,1,0,0:0:0:0:
329,192,41573,1,0,0:0:0:0:
182,192,41746,1,0,0:0:0:0:
475,192,41920,1,0,0:0:0:0:
402,192,41920,1,0,0:0:0:0:
109,192,42093,1,0,0:0:0:0:
182,192,42180,1,0,0:0:0:0:
256,192,42266,1,0,0:0:0:0:
402,192,42266,1,0,0:0:0:0:
109,192,42440,1,0,0:0:0:0:
329,192,42613,1,8,0:1:0:0:
402,192,42613,1,0,0:0:0:0:
182,192,42613,1,0,0:0:0:0:
36,192,42787,1,0,0:0:0:0:
329,192,42960,1,8,0:0:0:0:
475,192,42960,1,0,0:0:0:0:
182,192,43133,1,8,0:0:0:0:
36,192,43133,1,0,0:0:0:0:
329,192,43307,1,8,0:0:0:0:
475,192,43307,1,0,0:0:0:0:
182,192,43480,1,8,0:0:0:0:
36,192,43480,1,0,0:0:0:0:
329,192,43654,1,8,0:0:0:0:
475,192,43654,1,0,0:0:0:0:
182,192,43827,1,8,0:0:0:0:
36,192,43827,1,0,0:0:0:0:
256,192,44000,1,8,0:1:0:0:
182,192,44000,1,0,0:0:0:0:
329,192,44000,1,0,0:0:0:0:
402,192,44174,1,8,0:0:0:0:
329,192,44261,1,8,0:0:0:0:
256,192,44347,1,8,0:1:0:0:
109,192,44347,1,4,0:0:0:0:
182,192,44521,1,0,0:0:0:0:
329,192,44521,1,0,0:0:0:0:
256,192,44694,1,8,0:1:0:0:
109,192,44868,1,0,0:0:0:0:
256,192,44868,1,0,0:0:0:0:
402,192,44868,1,0,0:0:0:0:
256,192,45388,1,0,0:0:0:0:
402,192,45388,1,2,0:0:0:0:
475,192,45735,1,0,0:0:0:0:
329,192,45735,1,4,0:0:0:0:
256,192,45735,1,8,0:0:0:0:
256,192,46081,1,8,0:1:0:0:
109,192,46081,1,8,0:0:0:0:
402,192,46255,1,0,0:0:0:0:
182,192,46428,1,0,0:0:0:0:
329,192,46602,1,8,0:0:0:0:
475,192,46602,1,0,0:0:0:0:
36,192,46775,1,0,0:0:0:0:
109,192,46775,1,0,0:0:0:0:
256,192,46775,1,8,0:1:0:0:
182,192,47122,1,8,0:0:0:0:
36,192,47122,1,0,0:0:0:0:
256,192,47122,1,0,0:0:0:0:
256,192,47469,1,8,0:1:0:0:
402,192,47469,1,0,0:0:0:0:
109,192,47642,1,0,0:0:0:0:
329,192,47815,1,0,0:0:0:0:
182,192,47989,1,8,0:0:0:0:
36,192,47989,1,0,0:0:0:0:
402,192,48162,1,0,0:0:0:0:
475,192,48162,1,8,0:1:0:0:
256,192,48162,1,0,0:0:0:0:
475,192,48509,1,0,0:0:0:0:
329,192,48509,1,8,0:0:0:0:
256,192,48509,1,0,0:0:0:0:
182,192,48856,1,8,0:1:0:0:
329,192,48856,1,8,0:0:0:0:
256,192,49029,1,0,0:0:0:0:
109,192,49203,1,0,0:0:0:0:
182,192,49376,1,8,0:0:0:0:
329,192,49376,1,0,0:0:0:0:
36,192,49550,1,0,0:0:0:0:
109,192,49550,1,8,0:1:0:0:
256,192,49550,1,0,0:0:0:0:
36,192,49723,1,8,0:0:0:0:
36,192,49896,1,0,0:0:0:0:
182,192,49896,1,8,0:0:0:0:
256,192,50070,1,0,0:0:0:0:
109,192,50243,1,0,0:0:0:0:
402,192,50243,1,0,0:0:0:0:
329,192,50417,1,8,0:0:0:0:
36,192,50590,1,0,0:0:0:0:
109,192,50677,1,8,0:0:0:0:
402,192,50763,1,0,0:0:0:0:
256,192,50763,1,8,0:0:0:0:
475,192,50763,1,0,0:0:0:0:
182,192,50937,1,8,0:1:0:0:
109,192,50937,1,0,0:0:0:0:
329,192,50937,1,0,0:0:0:0:
36,192,51110,1,0,0:0:0:0:
329,192,51284,1,0,0:0:0:0:
109,192,51284,1,8,0:0:0:0:
256,192,51457,1,8,0:0:0:0:
182,192,51631,1,0,0:0:0:0:
329,192,51631,1,8,0:1:0:0:
402,192,51631,1,0,0:0:0:0:
475,192,51804,1,0,0:0:0:0:
402,192,51891,1,8,0:0:0:0:
109,192,51977,1,0,0:0:0:0:
256,192,51977,1,0,0:0:0:0:
36,192,51977,1,0,0:0:0:0:
182,192,52151,1,0,0:0:0:0:
256,192,52324,1,0,0:0:0:0:
329,192,52324,1,0,0:0:0:0:
109,192,52324,1,0,0:0:0:0:
36,192,52671,1,8,0:0:0:0:
109,192,52844,1,8,0:0:0:0:
256,192,53018,1,8,0:0:0:0:
402,192,53018,1,8,0:1:0:0:
182,192,53018,1,0,0:0:0:0:
329,192,53191,1,0,0:0:0:0:
256,192,53278,1,8,0:0:0:0:
109,192,53365,1,0,0:0:0:0:
36,192,53365,1,0,0:0:0:0:
329,192,53538,1,0,0:0:0:0:
402,192,53711,1,8,0:1:0:0:
475,192,53711,1,0,0:0:0:0:
256,192,53711,1,0,0:0:0:0:
402,192,54058,1,0,0:0:0:0:
109,192,54058,1,8,0:0:0:0:
256,192,54232,1,0,0:0:0:0:
36,192,54232,1,0,0:0:0:0:
475,192,54232,1,8,0:0:0:0:
329,192,54405,1,8,0:0:0:0:
182,192,54405,1,0,0:0:0:0:
256,192,54578,1,0,0:0:0:0:
109,192,54578,1,8,0:0:0:0:
402,192,54578,1,0,0:0:0:0:
182,192,54752,1,8,0:0:0:0:
329,192,54752,1,0,0:0:0:0:
256,192,54925,1,0,0:0:0:0:
36,192,54925,1,0,0:0:0:0:
475,192,54925,1,8,0:0:0:0:
109,192,55099,1,0,0:0:0:0:
402,192,55099,1,8,0:1:0:0:
182,192,55272,1,8,0:0:0:0:
329,192,55272,1,0,0:0:0:0:
109,192,55359,1,0,0:0:0:0:
402,192,55359,1,8,0:0:0:0:
182,192,55446,1,0,0:0:0:0:
329,192,55446,1,4,0:0:0:0:
256,192,55619,1,0,0:0:0:0:
256,192,55792,1,8,0:1:0:0:
256,192,55966,128,0,56486:0:0:0:0:
182,192,55966,1,0,0:0:0:0:
329,192,55966,1,8,0:0:0:0:
402,192,56486,1,0,0:0:0:0:
109,192,56486,1,2,0:0:0:0:
36,192,56833,1,4,0:0:0:0:
329,192,56833,128,0,57180:0:0:0:0:
402,192,57006,1,0,0:0:0:0:
109,192,57180,1,8,0:1:0:0:
256,192,57180,1,0,0:0:0:0:
402,192,57353,1,0,0:0:0:0:
182,192,57353,128,0,57700:0:0:0:0:
329,192,57526,1,0,0:0:0:0:
109,192,57700,1,8,0:0:0:0:
256,192,57873,1,8,0:1:0:0:
475,192,57873,1,0,0:0:0:0:
182,192,58047,1,0,0:0:0:0:
109,192,58220,1,0,0:0:0:0:
402,192,58220,128,0,58567:0:0:0:0:
256,192,58394,1,0,0:0:0:0:
182,192,58567,1,8,0:1:0:0:
329,192,58567,1,0,0:0:0:0:
109,192,58740,128,0,59087:0:0:0:0:
402,192,58914,1,0,0:0:0:0:
256,192,59087,1,8,0:0:0:0:
182,192,59261,1,8,0:1:0:0:
329,192,59261,1,0,0:0:0:0:
402,192,59434,1,0,0:0:0:0:
402,192,59607,1,0,0:0:0:0:
475,192,59607,128,0,59954:0:0:0:0:
182,192,59781,1,0,0:0:0:0:
256,192,59954,1,8,0:1:0:0:
329,192,59954,1,0,0:0:0:0:
36,192,60128,128,0,60474:0:0:0:0:
182,192,60301,1,0,0:0:0:0:
109,192,60474,1,0,0:0:0:0:
256,192,60648,1,8,0:1:0:0:
182,192,60648,1,0,0:0:0:0:
182,192,60821,1,0,0:0:0:0:
329,192,60995,1,0,0:0:0:0:
402,192,60995,128,0,61342:0:0:0:0:
182,192,61168,1,0,0:0:0:0:
329,192,61342,1,0,0:0:0:0:
109,192,61342,1,0,0:0:0:0:
109,192,61515,128,0,61862:0:0:0:0:
329,192,61688,1,0,0:0:0:0:
256,192,61862,1,0,0:0:0:0:
182,192,62035,1,0,0:0:0:0:
402,192,62035,1,0,0:0:0:0:
475,192,62209,1,0,0:0:0:0:
109,192,62382,1,0,0:0:0:0:
329,192,62382,128,0,62729:0:0:0:0:
182,192,62555,1,0,0:0:0:0:
256,192,62729,1,8,0:1:0:0:
109,192,62729,1,0,0:0:0:0:
182,192,62902,128,0,63249:0:0:0:0:
256,192,63076,1,0,0:0:0:0:
475,192,63249,1,8,0:0:0:0:
256,192,63422,1,8,0:1:0:0:
402,192,63422,1,0,0:0:0:0:
182,192,63596,1,0,0:0:0:0:
109,192,63769,1,0,0:0:0:0:
402,192,63769,128,0,64116:0:0:0:0:
329,192,63943,1,0,0:0:0:0:
109,192,64116,1,8,0:0:0:0:
256,192,64116,1,8,0:1:0:0:
402,192,64289,128,0,64636:0:0:0:0:
475,192,64463,1,0,0:0:0:0:
182,192,64636,1,8,0:0:0:0:
256,192,64810,1,8,0:1:0:0:
402,192,64810,1,0,0:0:0:0:
36,192,64983,1,0,0:0:0:0:
256,192,65157,1,8,0:0:0:0:
109,192,65157,128,0,65503:0:0:0:0:
256,192,65330,1,8,0:0:0:0:
182,192,65503,1,8,0:1:0:0:
329,192,65503,1,0,0:0:0:0:
256,192,65677,1,8,0:0:0:0:
109,192,65677,128,0,66024:0:0:0:0:
402,192,66024,1,8,0:0:0:0:
182,192,66197,1,8,0:1:0:0:
329,192,66197,1,0,0:0:0:0:
256,192,66370,1,8,0:0:0:0:
109,192,66457,1,8,0:0:0:0:
329,192,66544,1,4,0:0:0:0:
475,192,66544,1,8,0:0:0:0:
329,192,66891,1,4,0:0:0:0:
402,192,66891,1,8,0:0:0:0:
36,192,67237,1,8,0:0:0:0:
182,192,67237,1,4,0:0:0:0:
109,192,67584,1,0,0:0:0:0:
182,192,67584,1,2,0:0:0:0:
36,192,67931,5,8,0:0:0:0:
182,192,67931,1,0,0:0:0:0:
256,192,67931,1,0,0:0:0:0:
109,192,68105,1,8,0:0:0:0:
182,192,68105,1,0,0:0:0:0:
329,192,68105,1,0,0:0:0:0:
182,192,68278,1,8,0:0:0:0:
329,192,68278,1,0,0:0:0:0:
402,192,68278,1,0,0:0:0:0:
256,192,68451,1,8,0:0:0:0:
329,192,68451,1,0,0:0:0:0:
475,192,68451,1,0,0:0:0:0:
36,192,68625,1,0,0:0:0:0:
109,192,68625,1,0,0:0:0:0:
182,192,68625,1,8,0:0:0:0:
182,192,68798,1,8,0:0:0:0:
256,192,68798,1,0,0:0:0:0:
329,192,68798,1,0,0:0:0:0:
475,192,68972,1,0,0:0:0:0:
402,192,68972,1,0,0:0:0:0:
329,192,68972,1,8,0:1:0:0:
182,192,69145,1,0,0:0:0:0:
329,192,69232,1,0,0:0:0:0:
256,192,69318,128,0,69665:0:0:0:0:
402,192,69318,1,8,0:0:0:0:
475,192,69318,1,4,0:0:0:0:
109,192,69665,1,8,0:1:0:0:
36,192,69665,1,0,0:0:0:0:
256,192,69839,1,0,0:0:0:0:
329,192,70012,1,0,0:0:0:0:
182,192,70185,1,8,0:0:0:0:
109,192,70185,1,0,0:0:0:0:
329,192,70359,1,8,0:1:0:0:
475,192,70359,1,0,0:0:0:0:
256,192,70359,1,0,0:0:0:0:
402,192,70532,1,0,0:0:0:0:
256,192,70706,128,0,71052:0:0:0:0:
36,192,70706,1,0,0:0:0:0:
109,192,70706,1,8,0:0:0:0:
402,192,71052,1,8,0:0:0:0:
475,192,71052,1,8,0:1:0:0:
256,192,71226,1,0,0:0:0:0:
182,192,71399,1,0,0:0:0:0:
329,192,71573,1,8,0:0:0:0:
402,192,71573,1,0,0:0:0:0:
475,192,71746,1,0,0:0:0:0:
256,192,71746,1,8,0:1:0:0:
182,192,71746,1,0,0:0:0:0:
402,192,71920,1,0,0:0:0:0:
256,192,72093,128,0,72440:0:0:0:0:
329,192,72093,1,0,0:0:0:0:
109,192,72093,1,8,0:0:0:0:
182,192,72440,1,8,0:1:0:0:
402,192,72440,1,0,0:0:0:0:
36,192,72613,1,0,0:0:0:0:
182,192,72787,1,0,0:0:0:0:
109,192,72960,1,0,0:0:0:0:
256,192,72960,1,8,0:0:0:0:
182,192,73133,1,0,0:0:0:0:
329,192,73133,1,8,0:1:0:0:
475,192,73133,1,0,0:0:0:0:
402,192,73307,1,0,0:0:0:0:
256,192,73480,128,0,73827:0:0:0:0:
182,192,73480,1,8,0:0:0:0:
402,192,73480,1,0,0:0:0:0:
329,192,73827,1,8,0:1:0:0:
109,192,73827,1,0,0:0:0:0:
475,192,74000,1,0,0:0:0:0:
329,192,74174,1,0,0:0:0:0:
402,192,74347,1,0,0:0:0:0:
256,192,74347,1,8,0:0:0:0:
329,192,74521,1,0,0:0:0:0:
182,192,74521,1,8,0:1:0:0:
36,192,74521,1,0,0:0:0:0:
256,192,74694,1,0,0:0:0:0:
256,192,74868,128,0,75214:0:0:0:0:
109,192,74868,1,8,0:0:0:0:
402,192,74868,1,0,0:0:0:0:
182,192,75214,1,0,0:0:0:0:
329,192,75214,1,8,0:1:0:0:
402,192,75388,1,0,0:0:0:0:
256,192,75561,1,0,0:0:0:0:
109,192,75735,1,8,0:0:0:0:
36,192,75908,1,0,0:0:0:0:
475,192,75908,1,8,0:1:0:0:
256,192,76081,1,0,0:0:0:0:
402,192,76081,1,0,0:0:0:0:
109,192,76081,1,0,0:0:0:0:
36,192,76255,1,8,0:1:0:0:
475,192,76255,1,8,0:0:0:0:
402,192,76428,1,0,0:0:0:0:
182,192,76602,1,0,0:0:0:0:
109,192,76602,1,0,0:0:0:0:
36,192,76775,1,0,0:0:0:0:
402,192,76775,1,8,0:1:0:0:
329,192,76948,1,0,0:0:0:0:
182,192,77122,1,0,0:0:0:0:
109,192,77122,1,0,0:0:0:0:
36,192,77295,1,0,0:0:0:0:
329,192,77295,1,8,0:1:0:0:
256,192,77469,1,0,0:0:0:0:
36,192,77642,1,0,0:0:0:0:
109,192,77642,1,8,0:1:0:0:
475,192,77989,1,0,0:0:0:0:
329,192,77989,1,8,0:1:0:0:
109,192,78336,1,0,0:0:0:0:
329,192,78336,1,8,0:0:0:0:
182,192,78509,1,0,0:0:0:0:
256,192,78509,1,8,0:1:0:0:
36,192,79029,1,0,0:0:0:0:
329,192,79029,1,4,0:0:0:0:
182,192,79029,1,0,0:0:0:0:
256,192,79376,1,0,0:0:0:0:
329,192,79550,1,0,0:0:0:0:
475,192,79723,1,8,0:1:0:0:
256,192,79723,1,8,0:0:0:0:
182,192,79723,1,0,0:0:0:0:
329,192,79896,1,0,0:0:0:0:
256,192,80070,1,0,0:0:0:0:
182,192,80243,1,0,0:0:0:0:
36,192,80417,1,0,0:0:0:0:
256,192,80417,1,8,0:0:0:0:
329,192,80417,1,0,0:0:0:0:
182,192,80590,1,0,0:0:0:0:
256,192,80763,1,0,0:0:0:0:
329,192,80937,1,0,0:0:0:0:
475,192,81110,1,8,0:1:0:0:
256,192,81110,1,8,0:0:0:0:
182,192,81110,1,0,0:0:0:0:
329,192,81284,1,0,0:0:0:0:
256,192,81457,1,0,0:0:0:0:
182,192,81631,1,0,0:0:0:0:
36,192,81804,1,0,0:0:0:0:
256,192,81804,1,8,0:0:0:0:
329,192,81804,1,0,0:0:0:0:
182,192,81977,1,0,0:0:0:0:
256,192,82151,1,0,0:0:0:0:
329,192,82324,1,0,0:0:0:0:
475,192,82498,1,8,0:1:0:0:
256,192,82498,1,8,0:0:0:0:
182,192,82498,1,0,0:0:0:0:
329,192,82671,1,0,0:0:0:0:
256,192,82844,1,0,0:0:0:0:
109,192,83018,1,8,0:0:0:0:
402,192,83018,1,0,0:0:0:0:
256,192,83191,1,8,0:0:0:0:
109,192,83191,1,0,0:0:0:0:
402,192,83191,1,0,0:0:0:0:
182,192,83365,1,0,0:0:0:0:
256,192,83538,1,0,0:0:0:0:
329,192,83711,1,0,0:0:0:0:
475,192,83885,1,8,0:1:0:0:
256,192,83885,1,8,0:0:0:0:
182,192,83885,1,0,0:0:0:0:
329,192,84058,1,0,0:0:0:0:
36,192,84232,1,0,0:0:0:0:
256,192,84232,1,8,0:0:0:0:
329,192,84232,1,0,0:0:0:0:
182,192,84405,1,0,0:0:0:0:
329,192,84578,1,8,0:0:0:0:
475,192,84578,1,0,0:0:0:0:
182,192,84578,1,0,0:0:0:0:
36,192,84578,1,0,0:0:0:0:
329,192,84752,1,0,0:0:0:0:
402,192,84925,1,0,0:0:0:0:
256,192,85099,1,0,0:0:0:0:
329,192,85272,1,8,0:1:0:0:
109,192,85272,1,0,0:0:0:0:
182,192,85446,1,0,0:0:0:0:
256,192,85619,1,0,0:0:0:0:
109,192,85792,1,0,0:0:0:0:
182,192,85966,1,0,0:0:0:0:
402,192,85966,1,8,0:0:0:0:
36,192,86139,1,0,0:0:0:0:
256,192,86313,1,0,0:0:0:0:
109,192,86486,1,0,0:0:0:0:
329,192,86659,1,8,0:1:0:0:
36,192,86659,1,0,0:0:0:0:
182,192,86833,1,0,0:0:0:0:
402,192,87006,1,0,0:0:0:0:
256,192,87180,1,0,0:0:0:0:
475,192,87353,1,8,0:0:0:0:
109,192,87353,128,0,88740:0:0:0:0:
402,192,87526,1,0,0:0:0:0:
329,192,87700,1,0,0:0:0:0:
402,192,87873,1,0,0:0:0:0:
329,192,88047,1,8,0:1:0:0:
36,192,88047,1,0,0:0:0:0:
182,192,88047,1,0,0:0:0:0:
256,192,88220,1,0,0:0:0:0:
329,192,88394,1,0,0:0:0:0:
256,192,88567,1,0,0:0:0:0:
402,192,88567,1,0,0:0:0:0:
182,192,88740,1,0,0:0:0:0:
329,192,88740,1,8,0:1:0:0:
402,192,88740,1,0,0:0:0:0:
36,192,89087,1,0,0:0:0:0:
256,192,89087,1,0,0:0:0:0:
402,192,89087,1,0,0:0:0:0:
109,192,89261,1,0,0:0:0:0:
329,192,89261,1,0,0:0:0:0:
402,192,89261,1,0,0:0:0:0:
182,192,89434,1,8,0:0:0:0:
402,192,89434,1,0,0:0:0:0:
475,192,89434,1,8,0:1:0:0:
475,192,89781,1,8,0:1:0:0:
256,192,89781,1,8,0:1:0:0:
109,192,89868,1,8,0:1:0:0:
402,192,89955,1,8,0:1:0:0:
109,192,90041,1,0,0:0:0:0:
475,192,90128,128,0,91515:0:0:0:0:
402,192,90128,1,4,0:0:0:0:
329,192,90128,128,0,90648:0:0:0:0:
256,192,90301,1,0,0:0:0:0:
109,192,90475,1,0,0:0:0:0:
182,192,90648,1,8,0:0:0:0:
36,192,90822,1,0,0:0:0:0:
182,192,90995,1,0,0:0:0:0:
329,192,91168,1,0,0:0:0:0:
109,192,91168,1,0,0:0:0:0:
109,192,91515,128,0,92036:0:0:0:0:
256,192,91515,128,0,91862:0:0:0:0:
329,192,91515,1,8,0:0:0:0:
36,192,91689,1,0,0:0:0:0:
182,192,92036,1,8,0:0:0:0:
36,192,92209,1,0,0:0:0:0:
182,192,92382,1,0,0:0:0:0:
329,192,92556,1,0,0:0:0:0:
402,192,92729,1,0,0:0:0:0:
109,192,92903,1,0,0:0:0:0:
256,192,92903,1,8,0:0:0:0:
182,192,93076,1,0,0:0:0:0:
256,192,93249,1,0,0:0:0:0:
402,192,93422,1,8,0:0:0:0:
182,192,93423,1,0,0:0:0:0:
256,192,93596,1,0,0:0:0:0:
109,192,93770,1,0,0:0:0:0:
402,192,93943,1,0,0:0:0:0:
182,192,94116,1,0,0:0:0:0:
109,192,94290,1,0,0:0:0:0:
256,192,94290,1,8,0:0:0:0:
36,192,94290,1,0,0:0:0:0:
182,192,94463,1,0,0:0:0:0:
256,192,94637,1,0,0:0:0:0:
329,192,94810,5,8,0:0:0:0:
182,192,94810,1,0,0:0:0:0:
402,192,94810,1,0,0:0:0:0:
109,192,95330,1,2,0:0:0:0:
36,192,95330,1,0,0:0:0:0:
256,192,95330,1,0,0:0:0:0:
475,192,95677,128,8,96024:0:0:0:0:
329,192,95677,1,8,0:0:0:0:
182,192,95677,1,4,0:0:0:0:
402,192,95850,1,0,0:0:0:0:
329,192,96024,1,8,0:0:0:0:
182,192,96024,1,0,0:0:0:0:
256,192,96197,1,0,0:0:0:0:
36,192,96370,128,8,96717:0:0:0:0:
182,192,96370,1,8,0:0:0:0:
329,192,96370,1,0,0:0:0:0:
109,192,96544,1,0,0:0:0:0:
182,192,96717,1,8,0:0:0:0:
329,192,96717,1,0,0:0:0:0:
256,192,96891,1,0,0:0:0:0:
402,192,97064,128,8,97411:0:0:0:0:
329,192,97064,1,8,0:0:0:0:
109,192,97064,1,0,0:0:0:0:
475,192,97237,1,0,0:0:0:0:
329,192,97411,1,8,0:0:0:0:
109,192,97411,1,0,0:0:0:0:
256,192,97584,1,0,0:0:0:0:
109,192,97758,128,8,98105:0:0:0:0:
182,192,97758,1,8,0:0:0:0:
402,192,97758,1,0,0:0:0:0:
36,192,97931,1,0,0:0:0:0:
182,192,98105,1,8,0:0:0:0:
402,192,98105,1,0,0:0:0:0:
329,192,98278,1,0,0:0:0:0:
182,192,98451,1,8,0:0:0:0:
109,192,98451,1,0,0:0:0:0:
329,192,98625,1,8,0:0:0:0:
402,192,98625,1,0,0:0:0:0:
182,192,98798,1,8,0:0:0:0:
109,192,98798,1,0,0:0:0:0:
329,192,98972,1,8,0:0:0:0:
402,192,98972,1,0,0:0:0:0:
182,192,99145,1,8,0:0:0:0:
109,192,99145,1,0,0:0:0:0:
256,192,99318,1,0,0:0:0:0:
182,192,99492,1,8,0:0:0:0:
329,192,99492,1,0,0:0:0:0:
256,192,99578,1,8,0:0:0:0:
402,192,99665,1,4,0:0:0:0:
109,192,99665,1,8,0:0:0:0:
182,192,99839,1,0,0:0:0:0:
329,192,100012,1,8,0:0:0:0:
256,192,100012,1,0,0:0:0:0:
182,192,100185,1,8,0:0:0:0:
256,192,100185,1,0,0:0:0:0:
329,192,100359,1,0,0:0:0:0:
182,192,100446,1,0,0:0:0:0:
329,192,100532,128,0,100879:0:0:0:0:
256,192,100879,1,0,0:0:0:0:
182,192,100879,1,0,0:0:0:0:
182,192,101226,1,8,0:0:0:0:
329,192,101226,1,4,0:0:0:0:
256,192,101399,1,0,0:0:0:0:
182,192,101573,1,8,0:0:0:0:
329,192,101573,1,8,0:1:0:0:
402,192,101746,1,0,0:0:0:0:
329,192,101920,1,0,0:0:0:0:
256,192,102093,1,8,0:0:0:0:
182,192,102093,1,0,0:0:0:0:
109,192,102266,1,0,0:0:0:0:
256,192,102266,1,8,0:1:0:0:
109,192,102613,1,8,0:0:0:0:
329,192,102613,1,0,0:0:0:0:
256,192,102787,1,0,0:0:0:0:
36,192,102960,1,8,0:0:0:0:
109,192,102960,1,8,0:1:0:0:
256,192,103133,1,0,0:0:0:0:
329,192,103307,1,0,0:0:0:0:
109,192,103480,1,0,0:0:0:0:
256,192,103480,1,8,0:0:0:0:
256,192,103654,1,0,0:0:0:0:
329,192,103654,1,8,0:1:0:0:
402,192,104000,1,8,0:0:0:0:
256,192,104000,1,0,0:0:0:0:
329,192,104174,1,0,0:0:0:0:
256,192,104347,1,8,0:1:0:0:
182,192,104347,1,8,0:0:0:0:
329,192,104521,1,0,0:0:0:0:
256,192,104694,1,0,0:0:0:0:
109,192,104868,1,0,0:0:0:0:
182,192,104868,1,8,0:0:0:0:
329,192,105041,1,0,0:0:0:0:
402,192,105041,1,8,0:1:0:0:
256,192,105214,1,8,0:0:0:0:
182,192,105388,1,8,0:0:0:0:
182,192,105561,1,8,0:0:0:0:
256,192,105735,1,8,0:1:0:0:
475,192,105908,1,8,0:0:0:0:
402,192,106081,1,8,0:0:0:0:
109,192,106081,1,8,0:1:0:0:
256,192,106168,1,0,0:0:0:0:
475,192,106255,1,8,0:0:0:0:
36,192,106255,1,0,0:0:0:0:
256,192,106428,1,8,0:1:0:0:
182,192,106602,1,0,0:0:0:0:
256,192,106775,1,8,0:0:0:0:
36,192,106948,1,8,0:0:0:0:
182,192,107122,1,8,0:1:0:0:
256,192,107295,1,0,0:0:0:0:
402,192,107295,1,0,0:0:0:0:
329,192,107382,1,8,0:0:0:0:
182,192,107469,1,0,0:0:0:0:
475,192,107469,1,0,0:0:0:0:
256,192,107642,1,0,0:0:0:0:
402,192,107815,1,8,0:1:0:0:
329,192,107815,1,8,0:0:0:0:
475,192,108162,1,8,0:0:0:0:
329,192,108336,1,8,0:0:0:0:
182,192,108509,1,8,0:0:0:0:
109,192,108683,1,0,0:0:0:0:
256,192,108683,1,0,0:0:0:0:
182,192,108769,1,0,0:0:0:0:
329,192,108856,1,0,0:0:0:0:
36,192,108856,1,0,0:0:0:0:
109,192,109029,1,0,0:0:0:0:
182,192,109203,1,0,0:0:0:0:
329,192,109203,1,8,0:1:0:0:
109,192,109550,1,8,0:0:0:0:
36,192,109550,1,0,0:0:0:0:
329,192,109723,1,8,0:0:0:0:
402,192,109723,1,0,0:0:0:0:
182,192,109896,1,0,0:0:0:0:
109,192,109896,1,0,0:0:0:0:
402,192,110070,1,0,0:0:0:0:
475,192,110070,1,0,0:0:0:0:
182,192,110243,1,0,0:0:0:0:
109,192,110243,1,0,0:0:0:0:
402,192,110417,1,8,0:0:0:0:
475,192,110417,1,0,0:0:0:0:
109,192,110590,1,8,0:1:0:0:
182,192,110590,1,0,0:0:0:0:
329,192,110763,1,0,0:0:0:0:
402,192,110763,1,0,0:0:0:0:
109,192,110937,1,0,0:0:0:0:
109,192,111284,1,0,0:0:0:0:
256,192,111284,1,8,0:0:0:0:
256,192,111457,1,0,0:0:0:0:
402,192,111457,1,0,0:0:0:0:
182,192,111977,1,0,0:0:0:0:
329,192,111977,1,2,0:0:0:0:
109,192,112324,1,8,0:0:0:0:
182,192,112324,1,4,0:0:0:0:
256,192,112498,1,0,0:0:0:0:
329,192,112671,1,8,0:1:0:0:
475,192,112671,1,0,0:0:0:0:
402,192,112844,1,0,0:0:0:0:
109,192,113018,1,0,0:0:0:0:
329,192,113191,1,0,0:0:0:0:
402,192,113191,1,0,0:0:0:0:
36,192,113365,1,0,0:0:0:0:
182,192,113365,1,8,0:1:0:0:
109,192,113538,1,0,0:0:0:0:
329,192,113711,1,0,0:0:0:0:
256,192,113711,1,0,0:0:0:0:
109,192,113885,1,0,0:0:0:0:
256,192,114058,1,8,0:1:0:0:
182,192,114058,1,0,0:0:0:0:
329,192,114232,1,0,0:0:0:0:
109,192,114405,1,0,0:0:0:0:
256,192,114578,1,0,0:0:0:0:
329,192,114578,1,0,0:0:0:0:
402,192,114752,1,8,0:1:0:0:
182,192,114925,1,0,0:0:0:0:
256,192,115099,1,0,0:0:0:0:
329,192,115099,1,0,0:0:0:0:
109,192,115272,1,0,0:0:0:0:
329,192,115446,1,8,0:1:0:0:
402,192,115446,1,0,0:0:0:0:
182,192,115619,1,0,0:0:0:0:
402,192,115792,1,0,0:0:0:0:
256,192,115966,1,0,0:0:0:0:
109,192,116139,1,0,0:0:0:0:
182,192,116139,1,8,0:1:0:0:
329,192,116313,1,0,0:0:0:0:
256,192,116486,1,0,0:0:0:0:
182,192,116486,1,0,0:0:0:0:
475,192,116659,1,0,0:0:0:0:
256,192,116833,1,8,0:1:0:0:
109,192,116833,1,0,0:0:0:0:
475,192,117006,1,0,0:0:0:0:
182,192,117180,1,8,0:1:0:0:
402,192,117180,1,0,0:0:0:0:
109,192,117266,1,0,0:0:0:0:
329,192,117266,1,0,0:0:0:0:
36,192,117353,1,0,0:0:0:0:
256,192,117353,1,0,0:0:0:0:
182,192,117526,1,8,0:1:0:0:
329,192,117526,1,0,0:0:0:0:
256,192,117700,1,0,0:0:0:0:
36,192,117873,1,0,0:0:0:0:
109,192,117873,1,8,0:0:0:0:
182,192,118047,1,8,0:0:0:0:
256,192,118220,1,8,0:1:0:0:
36,192,118220,1,0,0:0:0:0:
109,192,118220,1,8,0:0:0:0:
182,192,118394,1,0,0:0:0:0:
329,192,118394,1,0,0:0:0:0:
256,192,118480,1,8,0:0:0:0:
402,192,118480,1,0,0:0:0:0:
475,192,118567,1,0,0:0:0:0:
329,192,118567,1,0,0:0:0:0:
109,192,118740,1,0,0:0:0:0:
182,192,118740,1,0,0:0:0:0:
329,192,118914,1,8,0:1:0:0:
402,192,118914,1,0,0:0:0:0:
109,192,119261,1,8,0:0:0:0:
329,192,119434,1,8,0:0:0:0:
402,192,119434,1,0,0:0:0:0:
109,192,119607,1,8,0:1:0:0:
36,192,119607,1,0,0:0:0:0:
402,192,119781,1,0,0:0:0:0:
329,192,119868,1,8,0:0:0:0:
109,192,119954,1,0,0:0:0:0:
182,192,119954,1,0,0:0:0:0:
256,192,120128,1,0,0:0:0:0:
402,192,120301,1,8,0:1:0:0:
182,192,120301,1,0,0:0:0:0:
182,192,120474,1,0,0:0:0:0:
256,192,120474,1,0,0:0:0:0:
329,192,120648,1,8,0:0:0:0:
182,192,120648,1,0,0:0:0:0:
475,192,120821,1,0,0:0:0:0:
329,192,120821,1,8,0:0:0:0:
182,192,120995,1,8,0:0:0:0:
36,192,120995,1,0,0:0:0:0:
329,192,121168,1,8,0:0:0:0:
402,192,121168,1,0,0:0:0:0:
109,192,121342,1,0,0:0:0:0:
182,192,121342,1,8,0:0:0:0:
256,192,121515,1,8,0:0:0:0:
182,192,121688,1,8,0:1:0:0:
402,192,121862,1,0,0:0:0:0:
109,192,121862,1,0,0:0:0:0:
256,192,121948,1,0,0:0:0:0:
182,192,122035,1,0,0:0:0:0:
329,192,122035,1,12,0:0:0:0:
36,192,122209,1,0,0:0:0:0:
475,192,122209,1,0,0:0:0:0:
109,192,122382,1,8,0:0:0:0:
256,192,122382,1,8,0:1:0:0:
402,192,122382,1,0,0:0:0:0:
182,192,122555,1,0,0:0:0:0:
329,192,122555,1,0,0:0:0:0:
256,192,123076,1,2,0:0:0:0:
36,192,123422,1,4,0:0:0:0:
402,192,123422,1,8,0:0:0:0:
475,192,123422,1,0,0:0:0:0:
182,192,123596,1,0,0:0:0:0:
36,192,123769,1,0,0:0:0:0:
256,192,123943,1,0,0:0:0:0:
402,192,123943,1,8,0:0:0:0:
475,192,123943,1,0,0:0:0:0:
36,192,124116,1,0,0:0:0:0:
329,192,124289,1,0,0:0:0:0:
36,192,124463,1,0,0:0:0:0:
182,192,124463,1,8,0:0:0:0:
402,192,124636,1,0,0:0:0:0:
109,192,124810,1,8,0:0:0:0:
329,192,124810,1,0,0:0:0:0:
402,192,124810,1,0,0:0:0:0:
256,192,124983,1,0,0:0:0:0:
109,192,125157,1,0,0:0:0:0:
402,192,125330,1,0,0:0:0:0:
329,192,125330,1,8,0:0:0:0:
475,192,125330,1,0,0:0:0:0:
109,192,125503,1,0,0:0:0:0:
475,192,125677,1,0,0:0:0:0:
109,192,125850,1,8,0:0:0:0:
329,192,125850,1,0,0:0:0:0:
475,192,126024,1,0,0:0:0:0:
182,192,126197,1,8,0:0:0:0:
36,192,126197,1,0,0:0:0:0:
109,192,126197,1,0,0:0:0:0:
256,192,126370,1,0,0:0:0:0:
182,192,126544,1,0,0:0:0:0:
329,192,126717,1,0,0:0:0:0:
36,192,126717,1,0,0:0:0:0:
109,192,126717,1,8,0:0:0:0:
182,192,126891,1,0,0:0:0:0:
402,192,127064,1,0,0:0:0:0:
182,192,127237,1,8,0:0:0:0:
36,192,127237,1,0,0:0:0:0:
475,192,127411,1,0,0:0:0:0:
402,192,127584,1,8,0:0:0:0:
36,192,127584,1,0,0:0:0:0:
182,192,127758,1,0,0:0:0:0:
329,192,127931,1,0,0:0:0:0:
256,192,128105,1,8,0:0:0:0:
36,192,128105,1,0,0:0:0:0:
109,192,128278,1,0,0:0:0:0:
402,192,128451,1,0,0:0:0:0:
329,192,128625,1,8,0:0:0:0:
475,192,128625,1,0,0:0:0:0:
182,192,128798,1,0,0:0:0:0:
475,192,128972,1,0,0:0:0:0:
36,192,128972,1,0,0:0:0:0:
109,192,128972,1,8,0:0:0:0:
329,192,129145,1,0,0:0:0:0:
475,192,129318,1,0,0:0:0:0:
256,192,129492,1,0,0:0:0:0:
36,192,129492,1,0,0:0:0:0:
109,192,129492,1,8,0:0:0:0:
475,192,129665,1,0,0:0:0:0:
182,192,129839,1,0,0:0:0:0:
475,192,130012,1,0,0:0:0:0:
36,192,130012,1,8,0:0:0:0:
109,192,130185,1,0,0:0:0:0:
402,192,130359,1,0,0:0:0:0:
36,192,130359,1,8,0:0:0:0:
256,192,130532,1,0,0:0:0:0:
402,192,130706,1,0,0:0:0:0:
182,192,130879,1,0,0:0:0:0:
36,192,130879,1,8,0:0:0:0:
329,192,130879,1,0,0:0:0:0:
402,192,131052,1,0,0:0:0:0:
109,192,131226,1,0,0:0:0:0:
402,192,131399,1,0,0:0:0:0:
182,192,131399,1,8,0:0:0:0:
256,192,131399,1,0,0:0:0:0:
36,192,131573,1,0,0:0:0:0:
329,192,131746,1,8,0:0:0:0:
109,192,131746,1,0,0:0:0:0:
475,192,131746,1,0,0:0:0:0:
256,192,131920,1,0,0:0:0:0:
329,192,132093,1,0,0:0:0:0:
182,192,132266,1,8,0:0:0:0:
36,192,132266,1,0,0:0:0:0:
402,192,132266,1,0,0:0:0:0:
329,192,132440,1,0,0:0:0:0:
109,192,132613,1,0,0:0:0:0:
329,192,132787,1,0,0:0:0:0:
182,192,132787,1,8,0:0:0:0:
256,192,132960,1,0,0:0:0:0:
475,192,133133,1,0,0:0:0:0:
256,192,133133,1,8,0:0:0:0:
36,192,133133,1,0,0:0:0:0:
329,192,133480,1,8,0:0:0:0:
475,192,133480,1,0,0:0:0:0:
182,192,133827,1,8,0:0:0:0:
36,192,133827,1,0,0:0:0:0:
36,192,134174,1,0,0:0:0:0:
475,192,134174,1,8,0:0:0:0:
475,192,134521,128,0,134868:0:0:0:0:
329,192,134521,1,8,0:1:0:0:
402,192,134694,1,0,0:0:0:0:
329,192,134868,128,0,135214:0:0:0:0:
182,192,134868,1,8,0:1:0:0:
256,192,135041,1,0,0:0:0:0:
182,192,135214,128,0,135561:0:0:0:0:
36,192,135214,1,8,0:1:0:0:
109,192,135388,1,0,0:0:0:0:
36,192,135561,128,0,135908:0:0:0:0:
329,192,135561,1,8,0:1:0:0:
256,192,135735,1,0,0:0:0:0:
475,192,135908,128,0,136255:0:0:0:0:
329,192,135908,1,8,0:1:0:0:
402,192,136081,1,0,0:0:0:0:
329,192,136255,128,0,136602:0:0:0:0:
182,192,136255,1,8,0:1:0:0:
256,192,136428,1,0,0:0:0:0:
182,192,136602,128,0,136948:0:0:0:0:
36,192,136602,1,8,0:1:0:0:
109,192,136775,1,0,0:0:0:0:
256,192,136948,128,0,137295:0:0:0:0:
402,192,136948,1,8,0:1:0:0:
402,192,137122,1,0,0:0:0:0:
36,192,137295,128,0,137642:0:0:0:0:
182,192,137295,1,8,0:1:0:0:
109,192,137469,1,0,0:0:0:0:
329,192,137642,1,8,0:1:0:0:
182,192,137642,128,0,137989:0:0:0:0:
256,192,137815,1,0,0:0:0:0:
329,192,137989,128,0,138336:0:0:0:0:
475,192,137989,1,8,0:1:0:0:
402,192,138162,1,0,0:0:0:0:
475,192,138336,128,0,138683:0:0:0:0:
182,192,138336,1,8,0:1:0:0:
256,192,138509,1,0,0:0:0:0:
182,192,138683,1,8,0:1:0:0:
36,192,138683,128,0,139029:0:0:0:0:
109,192,138856,1,0,0:0:0:0:
182,192,139029,128,0,139376:0:0:0:0:
329,192,139029,1,8,0:1:0:0:
256,192,139203,1,0,0:0:0:0:
329,192,139376,128,0,139723:0:0:0:0:
475,192,139376,1,8,0:1:0:0:
402,192,139550,1,0,0:0:0:0:
475,192,139723,128,0,140070:0:0:0:0:
182,192,139723,1,8,0:1:0:0:
402,192,139896,1,0,0:0:0:0:
36,192,140070,1,8,0:1:0:0:
182,192,140243,1,8,0:1:0:0:
256,192,140243,1,0,0:0:0:0:
36,192,140417,1,8,0:1:0:0:
182,192,140590,1,8,0:1:0:0:
329,192,140590,1,0,0:0:0:0:
36,192,140763,1,8,0:1:0:0:
182,192,140937,1,8,0:1:0:0:
402,192,140937,1,0,0:0:0:0:
109,192,141110,1,8,0:1:0:0:
182,192,141284,1,8,0:1:0:0:
475,192,141284,1,0,0:0:0:0:
256,192,141457,1,8,0:1:0:0:
182,192,141631,1,8,0:1:0:0:
329,192,141631,1,0,0:0:0:0:
256,192,141804,1,8,0:1:0:0:
182,192,141977,1,8,0:1:0:0:
402,192,141977,1,0,0:0:0:0:
256,192,142151,1,8,0:1:0:0:
329,192,142324,1,8,0:1:0:0:
475,192,142324,1,0,0:0:0:0:
402,192,142498,1,8,0:1:0:0:
182,192,142671,1,0,0:0:0:0:
329,192,142671,1,8,0:1:0:0:
402,192,142844,1,8,0:1:0:0:
329,192,143018,1,8,0:1:0:0:
109,192,143018,1,0,0:0:0:0:
256,192,143191,1,8,0:1:0:0:
329,192,143365,1,8,0:1:0:0:
36,192,143365,1,0,0:0:0:0:
402,192,143538,1,8,0:1:0:0:
109,192,143711,1,8,0:1:0:0:
36,192,143711,1,0,0:0:0:0:
182,192,143885,1,8,0:1:0:0:
109,192,144058,1,8,0:1:0:0:
256,192,144058,1,0,0:0:0:0:
182,192,144232,1,8,0:0:0:0:
256,192,144318,1,0,0:0:0:0:
329,192,144405,1,0,0:0:0:0:
402,192,144492,1,0,0:0:0:0:
475,192,144578,1,0,0:0:0:0:
182,192,144665,1,0,0:0:0:0:
109,192,144752,1,0,0:0:0:0:
36,192,144839,1,0,0:0:0:0:
109,192,144925,1,8,0:0:0:0:
182,192,145012,1,0,0:0:0:0:
475,192,145099,1,0,0:0:0:0:
402,192,145185,1,0,0:0:0:0:
329,192,145272,1,0,0:0:0:0:
256,192,145359,1,0,0:0:0:0:
182,192,145446,1,0,0:0:0:0:
109,192,145532,1,0,0:0:0:0:
36,192,145619,1,12,0:0:0:0:
182,192,147006,1,4,0:0:0:0:
329,192,147006,1,8,0:0:0:0:
475,192,147180,1,0,0:0:0:0:
402,192,147353,1,8,0:0:0:0:
182,192,147353,1,8,0:1:0:0:
256,192,147526,1,0,0:0:0:0:
402,192,147700,1,0,0:0:0:0:
475,192,147873,1,8,0:0:0:0:
182,192,147873,1,0,0:0:0:0:
182,192,148047,1,0,0:0:0:0:
256,192,148047,1,8,0:1:0:0:
329,192,148394,1,0,0:0:0:0:
182,192,148394,1,8,0:0:0:0:
36,192,148567,1,0,0:0:0:0:
109,192,148740,1,8,0:0:0:0:
329,192,148740,1,8,0:1:0:0:
256,192,148914,1,0,0:0:0:0:
109,192,149087,1,0,0:0:0:0:
36,192,149261,1,8,0:0:0:0:
329,192,149261,1,0,0:0:0:0:
329,192,149434,1,0,0:0:0:0:
256,192,149434,1,8,0:1:0:0:
182,192,149607,1,0,0:0:0:0:
402,192,149781,1,0,0:0:0:0:
36,192,149781,1,8,0:0:0:0:
182,192,149954,1,0,0:0:0:0:
329,192,150128,1,8,0:1:0:0:
36,192,150128,1,0,0:0:0:0:
402,192,150301,1,0,0:0:0:0:
256,192,150474,1,0,0:0:0:0:
402,192,150648,1,8,0:0:0:0:
36,192,150648,1,0,0:0:0:0:
475,192,150821,1,8,0:1:0:0:
329,192,150995,1,8,0:0:0:0:
256,192,151168,1,8,0:0:0:0:
182,192,151342,1,8,0:0:0:0:
329,192,151515,1,8,0:1:0:0:
256,192,151688,1,8,0:0:0:0:
182,192,151862,1,8,0:0:0:0:
329,192,151862,1,8,0:1:0:0:
256,192,151948,1,8,0:0:0:0:
182,192,152035,1,0,0:0:0:0:
329,192,152035,1,0,0:0:0:0:
109,192,152209,1,8,0:1:0:0:
36,192,152209,1,0,0:0:0:0:
182,192,152555,1,8,0:0:0:0:
329,192,152729,1,8,0:0:0:0:
182,192,152902,1,8,0:0:0:0:
256,192,152902,1,8,0:1:0:0:
109,192,153076,1,0,0:0:0:0:
182,192,153162,1,8,0:0:0:0:
256,192,153249,1,0,0:0:0:0:
402,192,153422,1,0,0:0:0:0:
329,192,153596,1,8,0:1:0:0:
475,192,153596,1,0,0:0:0:0:
256,192,153769,1,0,0:0:0:0:
329,192,153943,1,8,0:0:0:0:
402,192,154116,1,8,0:0:0:0:
182,192,154289,1,0,0:0:0:0:
329,192,154289,1,8,0:1:0:0:
402,192,154463,1,0,0:0:0:0:
329,192,154550,1,8,0:0:0:0:
256,192,154636,1,0,0:0:0:0:
329,192,154810,1,0,0:0:0:0:
109,192,154810,1,8,0:0:0:0:
36,192,154983,1,0,0:0:0:0:
182,192,154983,1,0,0:0:0:0:
329,192,155157,1,0,0:0:0:0:
36,192,155330,1,8,0:0:0:0:
256,192,155503,1,8,0:0:0:0:
109,192,155677,1,8,0:0:0:0:
329,192,155850,1,8,0:0:0:0:
256,192,156024,1,8,0:0:0:0:
402,192,156197,1,8,0:0:0:0:
256,192,156370,1,8,0:1:0:0:
475,192,156544,1,0,0:0:0:0:
36,192,156544,1,0,0:0:0:0:
329,192,156631,1,0,0:0:0:0:
182,192,156631,1,8,0:0:0:0:
402,192,156717,1,8,0:1:0:0:
109,192,156717,1,0,0:0:0:0:
256,192,156891,1,0,0:0:0:0:
329,192,157064,1,8,0:1:0:0:
182,192,157064,1,0,0:0:0:0:
109,192,157237,1,8,0:0:0:0:
402,192,157237,1,0,0:0:0:0:
256,192,157758,1,0,0:0:0:0:
329,192,157758,1,0,0:0:0:0:
36,192,158105,1,4,0:0:0:0:
182,192,158105,1,8,0:0:0:0:
329,192,158105,128,0,158451:0:0:0:0:
109,192,158451,1,0,0:0:0:0:
256,192,158451,1,8,0:1:0:0:
329,192,158625,128,0,158972:0:0:0:0:
182,192,158972,1,0,0:0:0:0:
256,192,158972,1,8,0:0:0:0:
109,192,159145,1,8,0:1:0:0:
182,192,159318,1,0,0:0:0:0:
475,192,159492,1,0,0:0:0:0:
329,192,159492,1,8,0:0:0:0:
182,192,159492,128,0,159839:0:0:0:0:
402,192,159838,1,0,0:0:0:0:
256,192,159838,1,8,0:1:0:0:
182,192,160012,128,0,160359:0:0:0:0:
256,192,160359,1,8,0:0:0:0:
329,192,160359,1,0,0:0:0:0:
402,192,160532,1,8,0:1:0:0:
329,192,160705,1,0,0:0:0:0:
256,192,160879,1,0,0:0:0:0:
109,192,160879,1,0,0:0:0:0:
36,192,160879,1,0,0:0:0:0:
182,192,161052,1,0,0:0:0:0:
256,192,161226,1,8,0:1:0:0:
329,192,161399,1,0,0:0:0:0:
402,192,161399,1,0,0:0:0:0:
109,192,161573,1,0,0:0:0:0:
182,192,161746,1,8,0:0:0:0:
256,192,161920,1,0,0:0:0:0:
329,192,161920,1,8,0:1:0:0:
402,192,162093,1,8,0:0:0:0:
182,192,162266,1,8,0:0:0:0:
329,192,162266,1,0,0:0:0:0:
402,192,162440,1,8,0:0:0:0:
109,192,162613,1,8,0:0:0:0:
182,192,162613,1,8,0:1:0:0:
475,192,162787,1,0,0:0:0:0:
329,192,162960,1,8,0:1:0:0:
402,192,163047,1,0,0:0:0:0:
475,192,163133,1,0,0:0:0:0:
182,192,163307,1,8,0:1:0:0:
256,192,163307,1,0,0:0:0:0:
329,192,163480,1,0,0:0:0:0:
109,192,163654,1,8,0:0:0:0:
402,192,163654,1,0,0:0:0:0:
182,192,163827,1,8,0:0:0:0:
329,192,163827,1,0,0:0:0:0:
402,192,164000,1,8,0:0:0:0:
256,192,164000,1,8,0:1:0:0:
182,192,164174,1,0,0:0:0:0:
109,192,164261,1,8,0:0:0:0:
36,192,164347,1,0,0:0:0:0:
256,192,164521,1,0,0:0:0:0:
329,192,164694,1,8,0:1:0:0:
475,192,164694,1,0,0:0:0:0:
182,192,165041,1,8,0:0:0:0:
36,192,165041,1,0,0:0:0:0:
256,192,165214,1,8,0:0:0:0:
475,192,165388,1,0,0:0:0:0:
329,192,165388,1,8,0:1:0:0:
182,192,165561,1,0,0:0:0:0:
256,192,165648,1,8,0:0:0:0:
329,192,165735,1,0,0:0:0:0:
182,192,165908,1,8,0:0:0:0:
109,192,166081,5,8,0:1:0:0:
256,192,166081,1,0,0:0:0:0:
329,192,166255,1,0,0:0:0:0:
402,192,166428,1,0,0:0:0:0:
109,192,166428,1,8,0:0:0:0:
256,192,166602,1,0,0:0:0:0:
475,192,166602,1,8,0:0:0:0:
36,192,166602,1,0,0:0:0:0:
329,192,166775,1,8,0:0:0:0:
182,192,166775,1,0,0:0:0:0:
109,192,166948,1,8,0:0:0:0:
256,192,166948,1,0,0:0:0:0:
402,192,166948,1,0,0:0:0:0:
329,192,167122,1,0,0:0:0:0:
182,192,167122,1,8,0:0:0:0:
256,192,167295,1,0,0:0:0:0:
36,192,167295,1,0,0:0:0:0:
475,192,167295,1,8,0:0:0:0:
109,192,167469,1,0,0:0:0:0:
402,192,167469,1,8,0:1:0:0:
256,192,167642,1,8,0:0:0:0:
182,192,167729,1,8,0:0:0:0:
329,192,167729,1,0,0:0:0:0:
109,192,167815,1,4,0:0:0:0:
402,192,167815,1,8,0:1:0:0:
256,192,167989,1,0,0:0:0:0:
256,192,168162,1,8,0:1:0:0:
402,192,168336,1,0,0:0:0:0:
182,192,168336,1,0,0:0:0:0:
109,192,168336,1,0,0:0:0:0:
329,192,168336,1,0,0:0:0:0:
256,192,168683,1,8,0:0:0:0:
36,192,168856,1,0,0:0:0:0:
182,192,168856,1,2,0:0:0:0:
475,192,168856,1,0,0:0:0:0:
329,192,168856,1,0,0:0:0:0:
256,192,169203,1,8,0:0:0:0:
402,192,169203,1,0,0:0:0:0:
475,192,169203,1,4,0:0:0:0:
36,192,169203,1,4,0:0:0:0:
109,192,169203,1,0,0:0:0:0:
