osu file format v12

[General]
AudioFilename: Scar.mp3
AudioLeadIn: 0
PreviewTime: 100879
Countdown: 0
SampleSet: Soft
StackLeniency: 0.5
Mode: 3
LetterboxInBreaks: 0
SpecialStyle: 0
WidescreenStoryboard: 0

[Editor]
Bookmarks: 32902,34636,76255,90120
DistanceSpacing: 0.6
BeatDivisor: 4
GridSize: 4

[Metadata]
Title:Kizuato
TitleUnicode:キズアト
Artist:REDALiCE
ArtistUnicode:REDALiCE
Creator:Reikosaka
Version:Hard
Source:Touhou
Tags:alice emotion a☆ru alice margatroid the doll maker of bucuresti overdrive c83
BeatmapID:299839
BeatmapSetID:116133

[Difficulty]
HPDrainRate:7
CircleSize:7
OverallDifficulty:7
ApproachRate:5
SliderMultiplier:1.4
SliderTickRate:1

[Events]
//Background and Video events
0,0,"Kizuato.jpg",0,0
//Break Periods
//Storyboard Layer 0 (Background)
//Storyboard Layer 1 (Fail)
//Storyboard Layer 2 (Pass)
//Storyboard Layer 3 (Foreground)
//Storyboard Sound Samples
//Background Colour Transformations
3,100,163,162,255

[TimingPoints]
1342,346.820809248555,4,2,1,45,1,0
34636,-100,4,2,1,45,0,1
45735,-100,4,2,1,45,0,0
123422,-100,4,2,1,45,0,0
147006,-100,4,2,1,45,0,1
158105,-100,4,2,1,45,0,0

[HitObjects]
36,192,6891,1,8,0:0:0:0:
182,192,6891,1,0,0:0:0:0:
182,192,7411,1,8,0:0:0:0:
329,192,7411,1,0,0:0:0:0:
256,192,7758,1,0,0:0:0:0:
182,192,7931,1,8,0:0:0:0:
109,192,8105,1,0,0:0:0:0:
329,192,8278,1,8,0:0:0:0:
475,192,8278,1,0,0:0:0:0:
182,192,8798,1,0,0:0:0:0:
329,192,8798,1,8,0:0:0:0:
256,192,9145,1,0,0:0:0:0:
329,192,9318,1,8,0:0:0:0:
402,192,9492,1,0,0:0:0:0:
256,192,9665,1,8,0:0:0:0:
109,192,9665,1,0,0:0:0:0:
256,192,10185,1,8,0:0:0:0:
402,192,10185,1,0,0:0:0:0:
329,192,10532,1,0,0:0:0:0:
182,192,10706,1,8,0:0:0:0:
402,192,10879,1,0,0:0:0:0:
109,192,11052,1,8,0:0:0:0:
256,192,11052,1,0,0:0:0:0:
182,192,11399,1,0,0:0:0:0:
402,192,11746,1,8,0:0:0:0:
256,192,11746,1,0,0:0:0:0:
329,192,12093,1,0,0:0:0:0:
36,192,12440,128,0,13133:0:0:0:0:
256,192,12440,1,4,0:0:0:0:
329,192,12613,1,0,0:0:0:0:
402,192,12787,1,0,0:0:0:0:
256,192,12960,1,0,0:0:0:0:
182,192,13133,1,8,0:1:0:0:
329,192,13307,1,0,0:0:0:0:
402,192,13480,1,0,0:0:0:0:
329,192,13654,1,0,0:0:0:0:
475,192,13827,128,0,14521:0:0:0:0:
256,192,13827,1,8,0:0:0:0:
182,192,14000,1,0,0:0:0:0:
109,192,14174,1,0,0:0:0:0:
256,192,14347,1,0,0:0:0:0:
329,192,14521,1,8,0:1:0:0:
256,192,14694,1,0,0:0:0:0:
182,192,14868,1,0,0:0:0:0:
256,192,15041,1,0,0:0:0:0:
109,192,15214,128,0,15908:0:0:0:0:
329,192,15214,1,8,0:0:0:0:
256,192,15388,1,0,0:0:0:0:
182,192,15561,1,0,0:0:0:0:
256,192,15735,1,0,0:0:0:0:
329,192,15908,1,8,0:1:0:0:
256,192,16081,1,0,0:0:0:0:
402,192,16255,1,0,0:0:0:0:
329,192,16428,1,8,0:0:0:0:
109,192,16428,1,0,0:0:0:0:
402,192,16602,128,0,17295:0:0:0:0:
182,192,16602,1,8,0:0:0:0:
256,192,16775,1,0,0:0:0:0:
182,192,16948,1,0,0:0:0:0:
329,192,17122,1,0,0:0:0:0:
182,192,17295,1,8,0:1:0:0:
182,192,17642,1,8,0:0:0:0:
329,192,17642,1,0,0:0:0:0:
182,192,17989,1,8,0:0:0:0:
329,192,17989,1,0,0:0:0:0:
36,192,18162,1,0,0:0:0:0:
182,192,18336,1,0,0:0:0:0:
109,192,18509,1,0,0:0:0:0:
256,192,18683,1,8,0:1:0:0:
402,192,18683,1,0,0:0:0:0:
475,192,18856,1,0,0:0:0:0:
329,192,19029,1,0,0:0:0:0:
402,192,19203,1,0,0:0:0:0:
329,192,19376,1,0,0:0:0:0:
182,192,19376,1,0,0:0:0:0:
256,192,19550,1,0,0:0:0:0:
36,192,19723,1,0,0:0:0:0:
182,192,19896,1,0,0:0:0:0:
109,192,20070,1,0,0:0:0:0:
256,192,20070,1,0,0:0:0:0:
329,192,20243,1,0,0:0:0:0:
475,192,20417,1,0,0:0:0:0:
402,192,20590,1,0,0:0:0:0:
182,192,20763,1,0,0:0:0:0:
329,192,20763,1,0,0:0:0:0:
402,192,20937,1,0,0:0:0:0:
256,192,21110,1,0,0:0:0:0:
109,192,21284,1,0,0:0:0:0:
256,192,21457,1,8,0:1:0:0:
329,192,21457,1,0,0:0:0:0:
182,192,21631,1,0,0:0:0:0:
402,192,21804,1,0,0:0:0:0:
256,192,21977,1,0,0:0:0:0:
329,192,22151,1,4,0:0:0:0:
182,192,22151,128,0,22844:0:0:0:0:
109,192,22151,1,0,0:0:0:0:
329,192,22844,1,8,0:1:0:0:
36,192,23191,1,2,0:2:0:0:
182,192,23365,1,2,0:2:0:0:
256,192,23451,1,2,0:2:0:0:
329,192,23538,128,0,24925:0:0:0:0:
402,192,23538,1,4,0:0:0:0:
36,192,24058,1,0,0:0:0:0:
256,192,24925,128,0,25446:0:0:0:0:
109,192,24925,1,0,0:0:0:0:
109,192,25446,128,0,25966:0:0:0:0:
402,192,25446,1,0,0:0:0:0:
256,192,25966,1,2,0:0:0:0:
109,192,26313,1,0,0:0:0:0:
329,192,26313,1,0,0:0:0:0:
182,192,26833,1,0,0:0:0:0:
402,192,26833,1,0,0:0:0:0:
475,192,27180,1,0,0:0:0:0:
329,192,27353,1,0,0:0:0:0:
402,192,27526,1,0,0:0:0:0:
109,192,27700,1,0,0:0:0:0:
182,192,27873,1,0,0:0:0:0:
36,192,28047,5,0,0:0:0:0:
256,192,28220,1,0,0:0:0:0:
36,192,29087,128,0,30128:0:0:0:0:
256,192,29087,1,12,0:0:0:0:
256,192,29434,1,8,0:0:0:0:
256,192,29781,1,8,0:0:0:0:
256,192,30128,1,8,0:0:0:0:
402,192,30474,128,0,31515:0:0:0:0:
109,192,30474,1,8,0:0:0:0:
109,192,30821,1,8,0:0:0:0:
109,192,31168,1,8,0:0:0:0:
109,192,31515,1,8,0:0:0:0:
109,192,31862,1,8,0:0:0:0:
475,192,31862,128,0,32902:0:0:0:0:
329,192,32035,1,8,0:0:0:0:
109,192,32209,1,8,0:0:0:0:
329,192,32382,1,8,0:0:0:0:
109,192,32555,1,8,0:0:0:0:
182,192,32729,1,8,0:0:0:0:
329,192,32902,1,8,0:1:0:0:
256,192,32989,1,0,0:0:0:0:
182,192,33076,1,12,0:0:0:0:
182,192,33422,1,8,0:0:0:0:
329,192,33422,1,8,0:0:0:0:
109,192,33596,1,4,0:0:0:0:
402,192,33596,1,0,0:0:0:0:
256,192,33769,1,0,0:0:0:0:
182,192,33943,1,0,0:0:0:0:
329,192,33943,1,0,0:0:0:0:
182,192,34636,1,4,0:0:0:0:
36,192,34636,128,0,34983:0:0:0:0:
329,192,34983,1,8,0:1:0:0:
256,192,35157,128,0,35503:0:0:0:0:
109,192,35503,1,8,0:0:0:0:
329,192,35677,128,0,36024:0:0:0:0:
402,192,35677,1,8,0:1:0:0:
475,192,36024,128,0,36370:0:0:0:0:
182,192,36024,1,0,0:0:0:0:
182,192,36370,1,8,0:1:0:0:
256,192,36544,128,0,36891:0:0:0:0:
109,192,36891,1,8,0:0:0:0:
182,192,37064,128,0,37411:0:0:0:0:
329,192,37064,1,8,0:1:0:0:
256,192,37411,128,0,37758:0:0:0:0:
402,192,37411,1,0,0:0:0:0:
36,192,37758,1,8,0:1:0:0:
329,192,37758,1,0,0:0:0:0:
109,192,37931,128,0,38278:0:0:0:0:
256,192,38278,1,8,0:0:0:0:
402,192,38451,128,0,38798:0:0:0:0:
182,192,38451,1,8,0:1:0:0:
256,192,38625,1,0,0:0:0:0:
475,192,38798,128,0,39145:0:0:0:0:
182,192,38798,1,0,0:0:0:0:
182,192,38972,1,8,0:0:0:0:
329,192,39145,1,8,0:1:0:0:
36,192,39145,1,0,0:0:0:0:
402,192,39318,128,0,39665:0:0:0:0:
256,192,39318,1,8,0:0:0:0:
109,192,39492,1,8,0:0:0:0:
182,192,39578,1,0,0:0:0:0:
256,192,39665,1,8,0:0:0:0:
182,192,39839,128,0,40185:0:0:0:0:
329,192,39839,1,8,0:1:0:0:
36,192,40185,128,0,40532:0:0:0:0:
329,192,40185,1,0,0:0:0:0:
329,192,40359,1,0,0:0:0:0:
256,192,40532,1,8,0:1:0:0:
182,192,40706,128,0,41052:0:0:0:0:
402,192,40706,1,0,0:0:0:0:
329,192,40792,1,8,0:0:0:0:
256,192,40879,1,0,0:0:0:0:
329,192,41052,1,0,0:0:0:0:
402,192,41226,1,8,0:1:0:0:
475,192,41226,1,0,0:0:0:0:
329,192,41399,1,0,0:0:0:0:
109,192,41573,128,0,41920:0:0:0:0:
402,192,41573,1,0,0:0:0:0:
402,192,41746,1,0,0:0:0:0:
256,192,41920,1,8,0:1:0:0:
329,192,42093,128,0,42440:0:0:0:0:
109,192,42093,1,0,0:0:0:0:
182,192,42180,1,8,0:0:0:0:
256,192,42266,1,0,0:0:0:0:
475,192,42440,1,0,0:0:0:0:
329,192,42613,128,0,42960:0:0:0:0:
109,192,42613,1,8,0:1:0:0:
256,192,42787,1,0,0:0:0:0:
475,192,42960,1,0,0:0:0:0:
182,192,42960,1,8,0:0:0:0:
402,192,43133,1,0,0:0:0:0:
109,192,43133,1,8,0:0:0:0:
329,192,43307,1,0,0:0:0:0:
36,192,43307,1,8,0:0:0:0:
475,192,43480,1,0,0:0:0:0:
182,192,43480,1,8,0:0:0:0:
402,192,43654,1,0,0:0:0:0:
109,192,43654,1,8,0:0:0:0:
329,192,43827,1,0,0:0:0:0:
36,192,43827,1,8,0:0:0:0:
109,192,44000,1,8,0:1:0:0:
256,192,44000,1,0,0:0:0:0:
182,192,44174,1,0,0:0:0:0:
329,192,44174,1,0,0:0:0:0:
256,192,44347,1,4,0:0:0:0:
402,192,44347,1,8,0:0:0:0:
182,192,44694,1,0,0:0:0:0:
329,192,44694,1,0,0:0:0:0:
256,192,44868,1,0,0:0:0:0:
182,192,45388,1,0,0:0:0:0:
329,192,45388,1,0,0:0:0:0:
475,192,45735,128,0,46081:0:0:0:0:
329,192,45735,1,4,0:0:0:0:
109,192,46081,1,8,0:1:0:0:
182,192,46255,128,0,46602:0:0:0:0:
256,192,46602,1,0,0:0:0:0:
329,192,46775,128,0,47122:0:0:0:0:
402,192,46775,1,8,0:1:0:0:
36,192,47122,128,0,47469:0:0:0:0:
182,192,47122,1,0,0:0:0:0:
329,192,47469,1,8,0:1:0:0:
256,192,47642,128,0,47989:0:0:0:0:
402,192,47642,1,0,0:0:0:0:
109,192,47989,1,0,0:0:0:0:
329,192,48162,128,0,48509:0:0:0:0:
402,192,48162,1,8,0:1:0:0:
182,192,48509,128,0,48856:0:0:0:0:
475,192,48509,1,0,0:0:0:0:
329,192,48856,1,8,0:1:0:0:
402,192,49029,128,0,49376:0:0:0:0:
182,192,49376,1,0,0:0:0:0:
256,192,49550,128,0,49896:0:0:0:0:
109,192,49550,1,8,0:1:0:0:
36,192,49896,128,0,50243:0:0:0:0:
329,192,49896,1,8,0:0:0:0:
329,192,50070,1,8,0:0:0:0:
182,192,50243,1,8,0:1:0:0:
475,192,50243,1,0,0:0:0:0:
256,192,50417,1,8,0:0:0:0:
109,192,50417,128,0,50763:0:0:0:0:
402,192,50590,1,8,0:1:0:0:
329,192,50677,1,8,0:0:0:0:
256,192,50763,1,8,0:0:0:0:
329,192,50937,128,0,51284:0:0:0:0:
182,192,50937,1,8,0:1:0:0:
475,192,51284,128,0,51631:0:0:0:0:
182,192,51284,1,0,0:0:0:0:
182,192,51457,1,8,0:1:0:0:
256,192,51631,1,0,0:0:0:0:
329,192,51804,128,0,52151:0:0:0:0:
109,192,51804,1,0,0:0:0:0:
182,192,51891,1,8,0:0:0:0:
256,192,51977,1,0,0:0:0:0:
36,192,52151,1,0,0:0:0:0:
109,192,52324,128,0,52671:0:0:0:0:
256,192,52324,1,8,0:1:0:0:
329,192,52498,1,0,0:0:0:0:
256,192,52671,128,0,53018:0:0:0:0:
402,192,52671,1,0,0:0:0:0:
402,192,52844,1,8,0:1:0:0:
475,192,53018,1,0,0:0:0:0:
182,192,53191,128,0,53538:0:0:0:0:
402,192,53191,1,0,0:0:0:0:
329,192,53278,1,8,0:0:0:0:
256,192,53365,1,0,0:0:0:0:
475,192,53538,1,0,0:0:0:0:
182,192,53711,128,0,54058:0:0:0:0:
109,192,53711,1,8,0:1:0:0:
36,192,54058,1,0,0:0:0:0:
329,192,54058,1,8,0:0:0:0:
402,192,54232,1,8,0:0:0:0:
109,192,54232,1,0,0:0:0:0:
475,192,54405,1,8,0:0:0:0:
182,192,54405,1,0,0:0:0:0:
36,192,54578,1,0,0:0:0:0:
329,192,54578,1,8,0:0:0:0:
109,192,54752,1,0,0:0:0:0:
402,192,54752,1,8,0:0:0:0:
182,192,54925,1,0,0:0:0:0:
475,192,54925,1,8,0:0:0:0:
256,192,55099,1,8,0:1:0:0:
402,192,55099,1,0,0:0:0:0:
182,192,55272,1,0,0:0:0:0:
329,192,55272,1,0,0:0:0:0:
256,192,55446,1,8,0:0:0:0:
109,192,55446,1,4,0:0:0:0:
329,192,55619,1,0,0:0:0:0:
182,192,55792,1,8,0:1:0:0:
109,192,55966,1,0,0:0:0:0:
402,192,56139,1,0,0:0:0:0:
329,192,56139,1,2,0:0:0:0:
256,192,56486,1,2,0:0:0:0:
109,192,56486,1,0,0:0:0:0:
36,192,56833,1,8,0:0:0:0:
475,192,56833,1,4,0:0:0:0:
329,192,56833,128,0,57180:0:0:0:0:
182,192,57180,1,8,0:1:0:0:
36,192,57353,1,0,0:0:0:0:
329,192,57353,128,0,57700:0:0:0:0:
182,192,57700,1,8,0:0:0:0:
109,192,57873,1,0,0:0:0:0:
256,192,57873,1,8,0:1:0:0:
475,192,57873,1,0,0:0:0:0:
182,192,58220,1,0,0:0:0:0:
109,192,58220,128,0,58567:0:0:0:0:
402,192,58220,1,8,0:0:0:0:
329,192,58567,1,8,0:1:0:0:
109,192,58740,128,0,59087:0:0:0:0:
402,192,58740,1,0,0:0:0:0:
256,192,59087,1,8,0:0:0:0:
475,192,59261,1,0,0:0:0:0:
182,192,59261,1,8,0:1:0:0:
329,192,59261,1,0,0:0:0:0:
475,192,59607,1,8,0:0:0:0:
182,192,59607,128,0,59954:0:0:0:0:
36,192,59607,1,0,0:0:0:0:
329,192,59954,1,8,0:1:0:0:
182,192,60127,128,0,60474:0:0:0:0:
475,192,60127,1,0,0:0:0:0:
329,192,60474,1,8,0:0:0:0:
256,192,60647,1,8,0:1:0:0:
402,192,60647,1,0,0:0:0:0:
36,192,60647,1,0,0:0:0:0:
402,192,60994,128,0,61341:0:0:0:0:
329,192,60994,1,0,0:0:0:0:
109,192,60994,1,8,0:0:0:0:
182,192,61341,1,8,0:1:0:0:
109,192,61514,1,0,0:0:0:0:
402,192,61514,128,0,61861:0:0:0:0:
256,192,61862,1,8,0:0:0:0:
329,192,62035,1,8,0:1:0:0:
182,192,62035,1,0,0:0:0:0:
36,192,62035,1,0,0:0:0:0:
109,192,62382,1,0,0:0:0:0:
329,192,62382,128,0,62729:0:0:0:0:
402,192,62382,1,8,0:0:0:0:
182,192,62729,1,8,0:1:0:0:
329,192,62902,128,0,63249:0:0:0:0:
109,192,62902,1,0,0:0:0:0:
182,192,63249,1,8,0:0:0:0:
256,192,63422,1,8,0:1:0:0:
109,192,63422,1,0,0:0:0:0:
475,192,63422,1,0,0:0:0:0:
109,192,63769,128,0,64116:0:0:0:0:
182,192,63769,1,8,0:0:0:0:
329,192,63769,1,0,0:0:0:0:
402,192,64116,1,8,0:1:0:0:
329,192,64289,1,0,0:0:0:0:
109,192,64289,128,0,64636:0:0:0:0:
329,192,64636,1,8,0:0:0:0:
36,192,64810,1,8,0:1:0:0:
256,192,64810,1,0,0:0:0:0:
402,192,64810,1,0,0:0:0:0:
182,192,65157,1,8,0:0:0:0:
329,192,65157,128,0,65503:0:0:0:0:
36,192,65157,1,0,0:0:0:0:
182,192,65330,1,8,0:0:0:0:
256,192,65503,1,8,0:1:0:0:
36,192,65677,1,0,0:0:0:0:
329,192,65677,128,0,66024:0:0:0:0:
475,192,66024,1,0,0:0:0:0:
475,192,66197,1,0,0:0:0:0:
109,192,66197,1,0,0:0:0:0:
256,192,66197,1,8,0:1:0:0:
329,192,66370,1,0,0:0:0:0:
256,192,66457,1,0,0:0:0:0:
182,192,66544,1,4,0:0:0:0:
109,192,66544,128,0,66891:0:0:0:0:
182,192,66891,128,0,67237:0:0:0:0:
329,192,66891,1,4,0:0:0:0:
256,192,67237,128,0,67584:0:0:0:0:
402,192,67237,1,4,0:0:0:0:
329,192,67584,128,0,67931:0:0:0:0:
475,192,67584,1,4,0:0:0:0:
36,192,67931,5,0,0:0:0:0:
109,192,67931,1,8,0:0:0:0:
256,192,68105,1,8,0:0:0:0:
36,192,68278,1,0,0:0:0:0:
182,192,68278,1,8,0:0:0:0:
329,192,68451,1,8,0:0:0:0:
36,192,68625,1,0,0:0:0:0:
256,192,68625,1,8,0:0:0:0:
402,192,68798,1,8,0:0:0:0:
36,192,68972,1,0,0:0:0:0:
182,192,68972,1,8,0:0:0:0:
329,192,69145,1,0,0:0:0:0:
256,192,69232,1,0,0:0:0:0:
182,192,69318,1,12,0:0:0:0:
109,192,69318,128,0,69665:0:0:0:0:
329,192,69665,1,8,0:1:0:0:
256,192,69839,128,0,70185:0:0:0:0:
182,192,69839,1,0,0:0:0:0:
402,192,70185,1,0,0:0:0:0:
36,192,70359,128,0,70706:0:0:0:0:
182,192,70359,1,8,0:1:0:0:
182,192,70706,128,0,71052:0:0:0:0:
329,192,70706,1,0,0:0:0:0:
402,192,71052,1,8,0:1:0:0:
329,192,71226,128,0,71573:0:0:0:0:
109,192,71226,1,0,0:0:0:0:
182,192,71573,1,0,0:0:0:0:
475,192,71746,128,0,72093:0:0:0:0:
402,192,71746,1,8,0:1:0:0:
109,192,72093,128,0,72440:0:0:0:0:
329,192,72093,1,0,0:0:0:0:
182,192,72440,1,8,0:1:0:0:
256,192,72613,128,0,72960:0:0:0:0:
36,192,72613,1,0,0:0:0:0:
329,192,72960,1,0,0:0:0:0:
402,192,73133,128,0,73480:0:0:0:0:
182,192,73133,1,8,0:1:0:0:
182,192,73480,128,0,73827:0:0:0:0:
329,192,73480,1,0,0:0:0:0:
329,192,73827,1,8,0:1:0:0:
402,192,74000,128,0,74347:0:0:0:0:
475,192,74000,1,0,0:0:0:0:
182,192,74347,1,0,0:0:0:0:
256,192,74521,128,0,74868:0:0:0:0:
475,192,74521,1,8,0:1:0:0:
109,192,74868,128,0,75214:0:0:0:0:
402,192,74868,1,0,0:0:0:0:
329,192,75214,1,8,0:1:0:0:
256,192,75388,128,0,75735:0:0:0:0:
36,192,75388,1,0,0:0:0:0:
402,192,75735,1,0,0:0:0:0:
475,192,75908,128,0,76255:0:0:0:0:
329,192,75908,1,8,0:1:0:0:
256,192,76081,1,0,0:0:0:0:
182,192,76255,1,8,0:1:0:0:
329,192,76255,1,0,0:0:0:0:
256,192,76428,1,8,0:0:0:0:
329,192,76602,1,8,0:0:0:0:
109,192,76775,1,8,0:1:0:0:
402,192,76775,1,0,0:0:0:0:
182,192,76948,1,8,0:0:0:0:
256,192,77122,1,8,0:0:0:0:
36,192,77295,1,8,0:1:0:0:
329,192,77295,1,8,0:0:0:0:
109,192,77469,1,8,0:0:0:0:
182,192,77642,1,8,0:1:0:0:
402,192,77642,1,0,0:0:0:0:
109,192,77989,1,8,0:1:0:0:
329,192,77989,1,8,0:0:0:0:
109,192,78336,1,0,0:0:0:0:
256,192,78336,1,8,0:0:0:0:
329,192,78509,1,8,0:1:0:0:
182,192,78509,1,0,0:0:0:0:
36,192,79029,128,0,79723:0:0:0:0:
256,192,79029,1,4,0:0:0:0:
182,192,79203,1,0,0:0:0:0:
329,192,79376,1,0,0:0:0:0:
256,192,79550,1,0,0:0:0:0:
402,192,79723,1,0,0:0:0:0:
182,192,79896,1,0,0:0:0:0:
256,192,80070,1,0,0:0:0:0:
109,192,80243,1,0,0:0:0:0:
182,192,80417,128,0,81110:0:0:0:0:
256,192,80417,1,8,0:0:0:0:
329,192,80590,1,0,0:0:0:0:
256,192,80763,1,0,0:0:0:0:
402,192,80937,1,0,0:0:0:0:
109,192,81110,1,0,0:0:0:0:
256,192,81284,1,0,0:0:0:0:
402,192,81457,1,0,0:0:0:0:
256,192,81631,1,0,0:0:0:0:
475,192,81804,128,0,82498:0:0:0:0:
182,192,81804,1,8,0:0:0:0:
256,192,81977,1,0,0:0:0:0:
109,192,82151,1,0,0:0:0:0:
256,192,82324,1,0,0:0:0:0:
329,192,82498,1,8,0:1:0:0:
402,192,82671,1,0,0:0:0:0:
256,192,82844,1,0,0:0:0:0:
109,192,83018,1,0,0:0:0:0:
475,192,83191,128,0,83885:0:0:0:0:
329,192,83191,1,8,0:0:0:0:
256,192,83365,1,0,0:0:0:0:
182,192,83538,1,0,0:0:0:0:
329,192,83711,1,0,0:0:0:0:
256,192,83885,1,8,0:1:0:0:
109,192,84058,1,0,0:0:0:0:
256,192,84232,1,0,0:0:0:0:
402,192,84405,1,0,0:0:0:0:
36,192,84578,128,0,85272:0:0:0:0:
329,192,84578,1,8,0:0:0:0:
256,192,84752,1,0,0:0:0:0:
402,192,84925,1,0,0:0:0:0:
256,192,85099,1,0,0:0:0:0:
182,192,85272,1,8,0:1:0:0:
329,192,85446,1,0,0:0:0:0:
402,192,85619,1,0,0:0:0:0:
329,192,85792,1,0,0:0:0:0:
256,192,85966,128,0,86659:0:0:0:0:
109,192,85966,1,8,0:0:0:0:
329,192,86139,1,0,0:0:0:0:
182,192,86313,1,0,0:0:0:0:
329,192,86486,1,0,0:0:0:0:
402,192,86659,1,8,0:1:0:0:
109,192,86833,1,0,0:0:0:0:
256,192,87006,1,0,0:0:0:0:
475,192,87180,1,0,0:0:0:0:
402,192,87353,128,0,88047:0:0:0:0:
182,192,87353,1,8,0:0:0:0:
475,192,87526,1,0,0:0:0:0:
329,192,87700,1,0,0:0:0:0:
256,192,87873,1,0,0:0:0:0:
182,192,88047,1,8,0:1:0:0:
109,192,88220,1,0,0:0:0:0:
329,192,88394,1,0,0:0:0:0:
182,192,88567,1,0,0:0:0:0:
109,192,88740,128,0,89434:0:0:0:0:
402,192,88740,128,0,89434:0:0:0:0:
182,192,89087,1,0,0:0:0:0:
329,192,89261,1,0,0:0:0:0:
256,192,89434,1,8,0:1:0:0:
475,192,89781,1,2,0:2:0:0:
329,192,89955,1,2,0:2:0:0:
256,192,90041,1,2,0:2:0:0:
182,192,90128,128,0,91515:0:0:0:0:
109,192,90128,1,4,0:0:0:0:
475,192,90648,1,0,0:0:0:0:
402,192,91515,1,0,0:0:0:0:
256,192,91515,128,0,92036:0:0:0:0:
109,192,92035,1,0,0:0:0:0:
402,192,92035,128,0,92555:0:0:0:0:
256,192,92555,1,2,0:0:0:0:
402,192,92902,1,0,0:0:0:0:
182,192,92902,1,0,0:0:0:0:
182,192,93422,1,0,0:0:0:0:
329,192,93422,1,0,0:0:0:0:
36,192,93769,1,0,0:0:0:0:
182,192,93943,1,0,0:0:0:0:
109,192,94116,1,0,0:0:0:0:
402,192,94289,1,0,0:0:0:0:
329,192,94463,1,0,0:0:0:0:
475,192,94636,5,0,0:0:0:0:
256,192,94810,1,0,0:0:0:0:
36,192,95677,1,0,0:0:0:0:
182,192,95677,1,0,0:0:0:0:
36,192,96024,1,0,0:0:0:0:
182,192,96024,1,0,0:0:0:0:
109,192,96370,1,0,0:0:0:0:
256,192,96370,1,0,0:0:0:0:
109,192,96717,1,0,0:0:0:0:
256,192,96717,1,0,0:0:0:0:
182,192,97064,1,0,0:0:0:0:
329,192,97064,1,0,0:0:0:0:
182,192,97411,1,0,0:0:0:0:
329,192,97411,1,0,0:0:0:0:
256,192,97758,1,0,0:0:0:0:
402,192,97758,1,0,0:0:0:0:
256,192,98105,1,0,0:0:0:0:
402,192,98105,1,0,0:0:0:0:
475,192,98451,1,0,0:0:0:0:
329,192,98451,1,8,0:0:0:0:
329,192,98625,1,8,0:0:0:0:
475,192,98625,1,0,0:0:0:0:
36,192,98798,1,0,0:0:0:0:
182,192,98798,1,8,0:0:0:0:
36,192,98972,1,0,0:0:0:0:
182,192,98972,1,8,0:0:0:0:
329,192,99145,1,8,0:0:0:0:
182,192,99145,1,0,0:0:0:0:
329,192,99318,1,0,0:0:0:0:
182,192,99318,1,8,0:0:0:0:
402,192,99492,1,8,0:0:0:0:
109,192,99492,1,8,0:1:0:0:
329,192,99578,1,0,0:0:0:0:
182,192,99578,1,0,0:0:0:0:
402,192,99665,1,8,0:0:0:0:
109,192,99665,1,8,0:0:0:0:
329,192,100012,1,8,0:0:0:0:
182,192,100012,1,0,0:0:0:0:
109,192,100185,1,0,0:0:0:0:
402,192,100185,1,0,0:0:0:0:
256,192,100359,1,0,0:0:0:0:
182,192,100532,1,0,0:0:0:0:
329,192,100532,1,0,0:0:0:0:
182,192,101226,1,4,0:0:0:0:
36,192,101226,128,0,102266:0:0:0:0:
256,192,101226,1,0,0:0:0:0:
329,192,101573,1,8,0:1:0:0:
182,192,101573,1,0,0:0:0:0:
329,192,102093,1,0,0:0:0:0:
182,192,102266,128,0,102613:0:0:0:0:
256,192,102266,1,0,0:0:0:0:
402,192,102267,1,8,0:1:0:0:
329,192,102613,1,0,0:0:0:0:
475,192,102613,128,0,103654:0:0:0:0:
256,192,102613,1,0,0:0:0:0:
329,192,102960,1,0,0:0:0:0:
182,192,102960,1,8,0:1:0:0:
182,192,103480,1,0,0:0:0:0:
256,192,103653,1,0,0:0:0:0:
329,192,103654,128,0,104000:0:0:0:0:
109,192,103654,1,8,0:1:0:0:
109,192,104000,128,0,105041:0:0:0:0:
402,192,104000,1,0,0:0:0:0:
256,192,104000,1,0,0:0:0:0:
402,192,104347,1,8,0:1:0:0:
256,192,104347,1,0,0:0:0:0:
402,192,104868,1,0,0:0:0:0:
256,192,105041,128,0,105388:0:0:0:0:
329,192,105041,1,0,0:0:0:0:
475,192,105041,1,8,0:1:0:0:
475,192,105214,1,0,0:0:0:0:
402,192,105388,1,0,0:0:0:0:
182,192,105388,1,0,0:0:0:0:
329,192,105561,1,0,0:0:0:0:
329,192,105735,1,8,0:1:0:0:
36,192,105735,1,0,0:0:0:0:
256,192,105908,1,8,0:0:0:0:
402,192,105908,128,0,106255:0:0:0:0:
109,192,106082,1,8,0:0:0:0:
182,192,106168,1,0,0:0:0:0:
256,192,106255,1,8,0:0:0:0:
182,192,106429,128,0,106775:0:0:0:0:
329,192,106429,1,8,0:1:0:0:
329,192,106775,1,0,0:0:0:0:
36,192,106775,128,0,107122:0:0:0:0:
329,192,106949,1,0,0:0:0:0:
256,192,107122,1,8,0:1:0:0:
402,192,107295,1,0,0:0:0:0:
182,192,107296,128,0,107642:0:0:0:0:
329,192,107382,1,8,0:0:0:0:
256,192,107469,1,0,0:0:0:0:
329,192,107642,1,0,0:0:0:0:
475,192,107816,1,0,0:0:0:0:
402,192,107816,1,8,0:1:0:0:
329,192,107989,1,0,0:0:0:0:
109,192,108163,128,0,108510:0:0:0:0:
402,192,108163,1,0,0:0:0:0:
402,192,108336,1,0,0:0:0:0:
256,192,108510,1,8,0:1:0:0:
109,192,108683,1,0,0:0:0:0:
329,192,108683,128,0,109030:0:0:0:0:
182,192,108769,1,8,0:0:0:0:
256,192,108856,1,0,0:0:0:0:
475,192,109030,1,0,0:0:0:0:
329,192,109203,128,0,109550:0:0:0:0:
109,192,109203,1,8,0:1:0:0:
256,192,109377,1,0,0:0:0:0:
475,192,109550,1,0,0:0:0:0:
182,192,109550,1,8,0:0:0:0:
402,192,109723,1,0,0:0:0:0:
109,192,109723,1,8,0:0:0:0:
36,192,109897,1,8,0:0:0:0:
329,192,109897,1,0,0:0:0:0:
182,192,110070,1,8,0:0:0:0:
475,192,110070,1,0,0:0:0:0:
109,192,110244,1,8,0:0:0:0:
402,192,110244,1,0,0:0:0:0:
329,192,110417,1,0,0:0:0:0:
36,192,110417,1,8,0:0:0:0:
256,192,110590,1,0,0:0:0:0:
109,192,110590,1,8,0:1:0:0:
182,192,110764,1,0,0:0:0:0:
329,192,110764,1,0,0:0:0:0:
256,192,110937,1,4,0:0:0:0:
402,192,110937,1,8,0:0:0:0:
182,192,111284,1,0,0:0:0:0:
329,192,111284,1,0,0:0:0:0:
256,192,111457,1,0,0:0:0:0:
182,192,111977,1,0,0:0:0:0:
329,192,111977,1,0,0:0:0:0:
256,192,112324,1,8,0:0:0:0:
475,192,112324,1,4,0:0:0:0:
329,192,112671,1,8,0:1:0:0:
256,192,112671,1,0,0:0:0:0:
475,192,112844,1,0,0:0:0:0:
329,192,113018,1,0,0:0:0:0:
182,192,113191,1,0,0:0:0:0:
256,192,113191,1,8,0:0:0:0:
329,192,113365,1,8,0:1:0:0:
475,192,113365,1,0,0:0:0:0:
182,192,113711,1,8,0:0:0:0:
402,192,113711,1,0,0:0:0:0:
256,192,114058,1,8,0:1:0:0:
182,192,114058,1,0,0:0:0:0:
402,192,114232,1,0,0:0:0:0:
256,192,114405,1,0,0:0:0:0:
182,192,114578,1,8,0:0:0:0:
109,192,114578,1,0,0:0:0:0:
402,192,114752,1,0,0:0:0:0:
256,192,114752,1,8,0:1:0:0:
329,192,115099,1,0,0:0:0:0:
109,192,115099,1,8,0:0:0:0:
109,192,115446,1,0,0:0:0:0:
182,192,115446,1,8,0:1:0:0:
329,192,115619,1,0,0:0:0:0:
182,192,115792,1,0,0:0:0:0:
36,192,115966,1,0,0:0:0:0:
109,192,115966,1,8,0:0:0:0:
182,192,116139,1,8,0:1:0:0:
329,192,116139,1,0,0:0:0:0:
256,192,116313,1,0,0:0:0:0:
256,192,116486,1,8,0:0:0:0:
256,192,116659,1,8,0:0:0:0:
182,192,116833,1,0,0:0:0:0:
329,192,116833,1,0,0:0:0:0:
475,192,117006,1,0,0:0:0:0:
36,192,117006,1,0,0:0:0:0:
402,192,117180,1,8,0:1:0:0:
109,192,117266,1,8,0:0:0:0:
256,192,117353,1,0,0:0:0:0:
182,192,117526,1,8,0:1:0:0:
329,192,117526,1,0,0:0:0:0:
256,192,117873,1,8,0:0:0:0:
256,192,118047,1,8,0:0:0:0:
109,192,118220,1,0,0:0:0:0:
402,192,118220,1,8,0:1:0:0:
182,192,118394,1,0,0:0:0:0:
329,192,118480,1,8,0:0:0:0:
256,192,118567,1,0,0:0:0:0:
182,192,118740,1,0,0:0:0:0:
329,192,118740,1,0,0:0:0:0:
256,192,118914,1,8,0:0:0:0:
402,192,118914,1,8,0:1:0:0:
329,192,119087,1,0,0:0:0:0:
256,192,119261,1,8,0:0:0:0:
182,192,119434,1,8,0:0:0:0:
109,192,119607,1,8,0:1:0:0:
256,192,119607,1,8,0:0:0:0:
329,192,119781,1,0,0:0:0:0:
182,192,119868,1,8,0:0:0:0:
329,192,119954,1,0,0:0:0:0:
182,192,120128,1,0,0:0:0:0:
36,192,120301,1,0,0:0:0:0:
256,192,120301,1,8,0:1:0:0:
329,192,120474,1,0,0:0:0:0:
402,192,120648,1,0,0:0:0:0:
182,192,120648,1,0,0:0:0:0:
109,192,120821,1,0,0:0:0:0:
329,192,120821,1,8,0:0:0:0:
182,192,120995,1,0,0:0:0:0:
256,192,120995,1,0,0:0:0:0:
329,192,121168,1,8,0:0:0:0:
402,192,121168,1,0,0:0:0:0:
256,192,121342,1,0,0:0:0:0:
36,192,121342,1,0,0:0:0:0:
109,192,121515,1,0,0:0:0:0:
329,192,121515,1,0,0:0:0:0:
182,192,121688,1,0,0:0:0:0:
256,192,121688,1,0,0:0:0:0:
329,192,121862,1,0,0:0:0:0:
182,192,121948,1,0,0:0:0:0:
256,192,122035,1,8,0:0:0:0:
402,192,122035,1,4,0:0:0:0:
109,192,122209,1,0,0:0:0:0:
256,192,122382,1,8,0:1:0:0:
329,192,122555,1,0,0:0:0:0:
109,192,122728,1,0,0:0:0:0:
182,192,122728,1,2,0:0:0:0:
402,192,123075,1,0,0:0:0:0:
256,192,123075,1,2,0:0:0:0:
36,192,123422,128,0,124810:0:0:0:0:
256,192,123422,1,8,0:0:0:0:
182,192,123422,1,4,0:0:0:0:
109,192,123943,1,0,0:0:0:0:
182,192,123943,1,8,0:0:0:0:
256,192,124289,1,0,0:0:0:0:
402,192,124463,1,8,0:0:0:0:
329,192,124636,1,0,0:0:0:0:
109,192,124810,128,0,126197:0:0:0:0:
475,192,124810,1,0,0:0:0:0:
402,192,124810,1,8,0:0:0:0:
256,192,125330,1,8,0:0:0:0:
329,192,125330,1,0,0:0:0:0:
182,192,125677,1,0,0:0:0:0:
329,192,125850,1,8,0:0:0:0:
256,192,126024,1,0,0:0:0:0:
182,192,126197,128,0,127584:0:0:0:0:
402,192,126197,1,8,0:0:0:0:
475,192,126197,1,0,0:0:0:0:
256,192,126717,1,8,0:0:0:0:
329,192,126717,1,0,0:0:0:0:
109,192,127064,1,0,0:0:0:0:
256,192,127237,1,8,0:0:0:0:
329,192,127411,1,0,0:0:0:0:
402,192,127584,1,8,0:0:0:0:
256,192,127584,128,0,128972:0:0:0:0:
475,192,127584,1,0,0:0:0:0:
329,192,128105,1,8,0:0:0:0:
182,192,128105,1,0,0:0:0:0:
329,192,128451,1,0,0:0:0:0:
109,192,128625,1,8,0:0:0:0:
182,192,128798,1,0,0:0:0:0:
36,192,128972,1,8,0:0:0:0:
329,192,128972,128,0,130359:0:0:0:0:
182,192,129492,1,8,0:0:0:0:
109,192,129492,1,0,0:0:0:0:
402,192,129839,1,0,0:0:0:0:
256,192,130012,1,8,0:0:0:0:
182,192,130185,1,0,0:0:0:0:
109,192,130359,1,8,0:0:0:0:
402,192,130359,128,0,131746:0:0:0:0:
182,192,130879,1,8,0:0:0:0:
329,192,130879,1,0,0:0:0:0:
36,192,131226,1,0,0:0:0:0:
182,192,131399,1,8,0:0:0:0:
109,192,131573,1,0,0:0:0:0:
475,192,131746,128,0,133133:0:0:0:0:
256,192,131746,1,8,0:0:0:0:
256,192,132266,1,0,0:0:0:0:
182,192,132266,1,8,0:0:0:0:
182,192,132613,1,0,0:0:0:0:
256,192,132787,1,8,0:0:0:0:
329,192,132960,1,0,0:0:0:0:
256,192,133133,1,8,0:0:0:0:
36,192,133133,1,0,0:0:0:0:
109,192,133480,1,8,0:0:0:0:
329,192,133480,1,0,0:0:0:0:
182,192,133827,1,8,0:0:0:0:
402,192,133827,1,0,0:0:0:0:
256,192,134174,1,8,0:0:0:0:
475,192,134174,1,0,0:0:0:0:
36,192,134521,1,8,0:1:0:0:
475,192,134521,128,0,135908:0:0:0:0:
182,192,134694,1,0,0:0:0:0:
109,192,134868,1,8,0:1:0:0:
256,192,135041,1,0,0:0:0:0:
182,192,135214,1,8,0:1:0:0:
329,192,135388,1,0,0:0:0:0:
256,192,135561,1,8,0:1:0:0:
329,192,135735,1,0,0:0:0:0:
36,192,135908,1,8,0:1:0:0:
402,192,135908,128,0,137295:0:0:0:0:
182,192,136081,1,0,0:0:0:0:
109,192,136255,1,8,0:1:0:0:
256,192,136428,1,0,0:0:0:0:
182,192,136602,1,8,0:1:0:0:
329,192,136775,1,0,0:0:0:0:
256,192,136948,1,8,0:1:0:0:
182,192,137122,1,0,0:0:0:0:
329,192,137295,128,0,138683:0:0:0:0:
36,192,137295,1,8,0:1:0:0:
182,192,137469,1,0,0:0:0:0:
109,192,137642,1,8,0:1:0:0:
256,192,137815,1,0,0:0:0:0:
182,192,137989,1,8,0:1:0:0:
402,192,138162,1,0,0:0:0:0:
256,192,138336,1,8,0:1:0:0:
402,192,138509,1,0,0:0:0:0:
36,192,138683,1,8,0:1:0:0:
256,192,138683,128,0,140070:0:0:0:0:
182,192,138856,1,0,0:0:0:0:
109,192,139029,1,8,0:1:0:0:
329,192,139203,1,0,0:0:0:0:
182,192,139376,1,8,0:1:0:0:
402,192,139550,1,0,0:0:0:0:
329,192,139723,1,8,0:1:0:0:
475,192,139896,1,0,0:0:0:0:
36,192,140070,1,8,0:1:0:0:
182,192,140070,128,0,141457:0:0:0:0:
329,192,140243,1,8,0:1:0:0:
109,192,140417,1,8,0:1:0:0:
329,192,140590,1,8,0:1:0:0:
256,192,140763,1,8,0:1:0:0:
402,192,140937,1,8,0:1:0:0:
329,192,141110,1,8,0:1:0:0:
475,192,141284,1,8,0:1:0:0:
36,192,141457,1,8,0:1:0:0:
109,192,141457,128,0,142844:0:0:0:0:
256,192,141631,1,8,0:1:0:0:
182,192,141804,1,8,0:1:0:0:
329,192,141977,1,8,0:1:0:0:
256,192,142151,1,8,0:1:0:0:
402,192,142324,1,8,0:1:0:0:
329,192,142498,1,8,0:1:0:0:
475,192,142671,1,8,0:1:0:0:
329,192,142844,1,8,0:1:0:0:
36,192,142844,128,0,144232:0:0:0:0:
475,192,143018,1,8,0:1:0:0:
256,192,143191,1,8,0:1:0:0:
402,192,143365,1,8,0:1:0:0:
182,192,143538,1,8,0:1:0:0:
329,192,143711,1,8,0:1:0:0:
109,192,143885,1,8,0:1:0:0:
256,192,144058,1,8,0:1:0:0:
329,192,144232,1,8,0:0:0:0:
256,192,144318,1,8,0:0:0:0:
182,192,144405,1,8,0:0:0:0:
109,192,144492,1,8,0:0:0:0:
36,192,144578,1,8,0:0:0:0:
329,192,144665,1,8,0:0:0:0:
402,192,144752,1,8,0:0:0:0:
475,192,144839,1,8,0:0:0:0:
402,192,144925,1,8,0:0:0:0:
329,192,145012,1,8,0:0:0:0:
36,192,145099,1,8,0:0:0:0:
109,192,145185,1,8,0:0:0:0:
182,192,145272,1,8,0:0:0:0:
256,192,145359,1,8,0:0:0:0:
329,192,145446,1,8,0:0:0:0:
402,192,145532,1,8,0:0:0:0:
475,192,145619,1,12,0:0:0:0:
329,192,147006,1,4,0:0:0:0:
475,192,147006,128,0,147353:0:0:0:0:
402,192,147353,1,8,0:1:0:0:
256,192,147526,128,0,147873:0:0:0:0:
109,192,147873,1,8,0:0:0:0:
182,192,148047,128,0,148394:0:0:0:0:
256,192,148047,1,8,0:1:0:0:
329,192,148394,1,0,0:0:0:0:
36,192,148394,128,0,148740:0:0:0:0:
109,192,148740,1,8,0:1:0:0:
256,192,148914,128,0,149261:0:0:0:0:
402,192,149261,1,8,0:0:0:0:
329,192,149434,128,0,149781:0:0:0:0:
256,192,149434,1,8,0:1:0:0:
182,192,149781,1,0,0:0:0:0:
475,192,149781,128,0,150128:0:0:0:0:
329,192,150128,1,8,0:1:0:0:
256,192,150301,128,0,150648:0:0:0:0:
109,192,150301,1,0,0:0:0:0:
182,192,150648,1,0,0:0:0:0:
475,192,150821,1,8,0:1:0:0:
402,192,150821,128,0,151168:0:0:0:0:
256,192,150995,1,8,0:0:0:0:
182,192,151168,128,0,151515:0:0:0:0:
329,192,151168,1,0,0:0:0:0:
256,192,151342,1,0,0:0:0:0:
329,192,151515,1,8,0:1:0:0:
256,192,151688,1,0,0:0:0:0:
36,192,151688,128,0,152035:0:0:0:0:
182,192,151862,1,8,0:1:0:0:
256,192,151948,1,8,0:0:0:0:
329,192,152035,1,0,0:0:0:0:
329,192,152209,1,8,0:1:0:0:
182,192,152209,128,0,152555:0:0:0:0:
402,192,152209,1,0,0:0:0:0:
329,192,152555,128,0,152902:0:0:0:0:
402,192,152555,1,8,0:0:0:0:
475,192,152729,1,8,0:0:0:0:
109,192,152902,1,8,0:1:0:0:
182,192,153076,128,0,153422:0:0:0:0:
402,192,153076,1,0,0:0:0:0:
329,192,153162,1,8,0:0:0:0:
256,192,153249,1,0,0:0:0:0:
329,192,153422,1,0,0:0:0:0:
109,192,153596,128,0,153943:0:0:0:0:
256,192,153596,1,8,0:1:0:0:
402,192,153943,1,0,0:0:0:0:
256,192,153943,128,0,154289:0:0:0:0:
329,192,154116,1,0,0:0:0:0:
109,192,154289,1,8,0:1:0:0:
182,192,154463,128,0,154810:0:0:0:0:
402,192,154463,1,0,0:0:0:0:
329,192,154550,1,8,0:0:0:0:
256,192,154636,1,0,0:0:0:0:
475,192,154810,1,0,0:0:0:0:
402,192,154983,1,8,0:1:0:0:
329,192,154983,128,0,155330:0:0:0:0:
256,192,155157,1,0,0:0:0:0:
36,192,155330,1,8,0:0:0:0:
109,192,155503,1,8,0:0:0:0:
402,192,155503,1,0,0:0:0:0:
182,192,155677,1,8,0:0:0:0:
475,192,155677,1,0,0:0:0:0:
36,192,155850,1,8,0:0:0:0:
329,192,155850,1,0,0:0:0:0:
109,192,156024,1,8,0:0:0:0:
402,192,156024,1,0,0:0:0:0:
182,192,156197,1,8,0:0:0:0:
475,192,156197,1,0,0:0:0:0:
109,192,156370,1,8,0:1:0:0:
402,192,156370,1,0,0:0:0:0:
329,192,156544,1,8,0:0:0:0:
109,192,156631,1,0,0:0:0:0:
182,192,156717,1,4,0:0:0:0:
256,192,156717,1,8,0:0:0:0:
329,192,157064,1,8,0:1:0:0:
475,192,157064,1,0,0:0:0:0:
402,192,157237,1,0,0:0:0:0:
329,192,157758,1,2,0:0:0:0:
256,192,157758,1,0,0:0:0:0:
36,192,158105,1,12,0:0:0:0:
475,192,158105,128,0,158451:0:0:0:0:
256,192,158451,1,8,0:1:0:0:
109,192,158625,1,0,0:0:0:0:
182,192,158625,1,0,0:0:0:0:
402,192,158625,128,0,158972:0:0:0:0:
329,192,158972,1,8,0:0:0:0:
182,192,159145,1,0,0:0:0:0:
256,192,159145,1,8,0:1:0:0:
109,192,159145,128,0,159492:0:0:0:0:
475,192,159492,1,8,0:0:0:0:
182,192,159492,128,0,159839:0:0:0:0:
256,192,159839,1,8,0:1:0:0:
329,192,160012,1,0,0:0:0:0:
402,192,160012,1,0,0:0:0:0:
475,192,160012,128,0,160359:0:0:0:0:
182,192,160359,1,8,0:0:0:0:
256,192,160532,1,8,0:1:0:0:
329,192,160532,1,0,0:0:0:0:
402,192,160532,128,0,160879:0:0:0:0:
36,192,160879,1,8,0:0:0:0:
182,192,160879,128,0,161226:0:0:0:0:
256,192,161226,1,8,0:1:0:0:
182,192,161399,1,0,0:0:0:0:
109,192,161399,1,0,0:0:0:0:
402,192,161399,128,0,161746:0:0:0:0:
329,192,161746,1,8,0:0:0:0:
256,192,161920,1,8,0:1:0:0:
182,192,161920,1,0,0:0:0:0:
475,192,161920,128,0,162266:0:0:0:0:
402,192,162093,1,8,0:0:0:0:
329,192,162266,128,0,162613:0:0:0:0:
256,192,162266,1,8,0:0:0:0:
402,192,162440,1,8,0:0:0:0:
256,192,162613,1,8,0:1:0:0:
182,192,162787,128,0,163133:0:0:0:0:
402,192,162787,1,0,0:0:0:0:
329,192,162873,1,8,0:0:0:0:
256,192,162960,1,8,0:1:0:0:
402,192,163133,1,0,0:0:0:0:
329,192,163307,128,0,163654:0:0:0:0:
256,192,163307,1,8,0:1:0:0:
475,192,163307,1,0,0:0:0:0:
36,192,163654,128,0,164000:0:0:0:0:
182,192,163654,1,8,0:0:0:0:
256,192,163827,1,8,0:0:0:0:
329,192,164000,1,8,0:1:0:0:
182,192,164174,128,0,164521:0:0:0:0:
256,192,164174,1,0,0:0:0:0:
329,192,164261,1,8,0:0:0:0:
402,192,164347,1,0,0:0:0:0:
256,192,164521,1,0,0:0:0:0:
329,192,164694,128,0,165041:0:0:0:0:
402,192,164694,1,8,0:1:0:0:
109,192,164694,1,0,0:0:0:0:
256,192,165041,128,0,165388:0:0:0:0:
182,192,165214,1,0,0:0:0:0:
329,192,165388,1,8,0:1:0:0:
182,192,165561,128,0,165908:0:0:0:0:
402,192,165561,1,0,0:0:0:0:
329,192,165648,1,8,0:0:0:0:
256,192,165735,1,0,0:0:0:0:
475,192,165908,1,0,0:0:0:0:
329,192,166081,128,0,166428:0:0:0:0:
256,192,166081,1,8,0:1:0:0:
475,192,166081,1,0,0:0:0:0:
182,192,166428,1,8,0:0:0:0:
475,192,166428,1,0,0:0:0:0:
109,192,166602,1,8,0:0:0:0:
402,192,166602,1,0,0:0:0:0:
36,192,166775,1,8,0:0:0:0:
329,192,166775,1,0,0:0:0:0:
475,192,166948,1,0,0:0:0:0:
182,192,166948,1,8,0:0:0:0:
402,192,167122,1,0,0:0:0:0:
109,192,167122,1,8,0:0:0:0:
329,192,167295,1,0,0:0:0:0:
36,192,167295,1,8,0:0:0:0:
182,192,167469,1,8,0:1:0:0:
475,192,167469,1,0,0:0:0:0:
109,192,167469,1,8,0:0:0:0:
402,192,167469,1,0,0:0:0:0:
256,192,167642,1,0,0:0:0:0:
182,192,167815,1,0,0:0:0:0:
329,192,167815,1,0,0:0:0:0:
256,192,167989,1,0,0:0:0:0:
36,192,168162,1,0,0:0:0:0:
109,192,168162,1,0,0:0:0:0:
329,192,168162,1,0,0:0:0:0:
402,192,168162,1,0,0:0:0:0:
256,192,168336,1,0,0:0:0:0:
182,192,168683,1,8,0:0:0:0:
329,192,168683,1,0,0:0:0:0:
109,192,168856,1,0,0:0:0:0:
256,192,168856,1,0,0:0:0:0:
402,192,168856,1,2,0:0:0:0:
36,192,169203,1,0,0:0:0:0:
182,192,169203,1,12,0:0:0:0:
329,192,169203,1,4,0:0:0:0:
475,192,169203,1,0,0:0:0:0:
