osu file format v12

[General]
AudioFilename: FLOWER REDALiCE Remix.mp3
AudioLeadIn: 0
PreviewTime: 54043
Countdown: 0
SampleSet: None
StackLeniency: 0.7
Mode: 2
LetterboxInBreaks: 1
WidescreenStoryboard: 1

[Editor]
Bookmarks: 56710,67377
DistanceSpacing: 2
BeatDivisor: 4
GridSize: 8
TimelineZoom: 0.9999994

[Metadata]
Title:FLOWER REDALiCE Remix
TitleUnicode:FLOWER REDALiCE Remix
Artist:REDALiCE
ArtistUnicode:REDALiCE
Creator:INO
Version:Platter
Source:SOUND VOLTEX BOOTH
Tags:sdvx konami bemani sionKotori
BeatmapID:415798
BeatmapSetID:145194

[Difficulty]
HPDrainRate:6
CircleSize:4
OverallDifficulty:8
ApproachRate:8
SliderMultiplier:1.6
SliderTickRate:1

[Events]
//Background and Video events
0,0,"19047732.jpg",0,0
//Break Periods
2,88909,93293
//Storyboard Layer 0 (Background)
//Storyboard Layer 1 (Fail)
//Storyboard Layer 2 (Pass)
//Storyboard Layer 3 (Foreground)
//Storyboard Sound Samples
//Background Colour Transformations
3,100,163,162,255

[TimingPoints]
2044,333.333333333333,4,1,0,90,1,0
2793,-100,4,2,0,90,0,0
3377,-100,4,1,0,90,0,0
4127,-100,4,2,0,90,0,0
4710,-100,4,1,0,90,0,0
7043,-100,4,2,0,90,0,0
7710,-100,4,1,0,90,0,0
7877,-100,4,2,0,90,0,0
8043,-100,4,1,0,90,0,0
8210,-100,4,2,0,90,0,0
8377,-100,4,1,0,90,0,0
8543,-100,4,2,0,90,0,0
8710,-100,4,1,0,90,0,0
9210,-100,4,2,0,90,0,0
10043,-100,4,1,0,90,0,0
10210,-100,4,2,0,90,0,0
10377,-100,4,1,0,90,0,0
10543,-100,4,2,0,90,0,0
10710,-100,4,1,0,90,0,0
10877,-100,4,2,0,90,0,0
11043,-100,4,1,0,90,0,0
11210,-100,4,2,0,90,0,0
12543,-100,4,1,0,90,0,0
12710,-100,4,2,0,90,0,0
13043,-100,4,1,0,90,0,0
13210,-100,4,2,0,90,0,0
13377,-100,4,1,0,90,0,0
13543,-100,4,2,0,90,0,0
13710,-100,4,1,0,90,0,0
13877,-100,4,2,0,90,0,0
14043,-100,4,1,0,90,0,0
14710,-100,4,2,0,90,0,0
15377,-100,4,1,0,90,0,0
15543,-100,4,2,0,90,0,0
15710,-100,4,1,0,90,0,0
15877,-100,4,2,0,90,0,0
16043,-100,4,1,0,90,0,0
16210,-100,4,2,0,90,0,0
16377,-100,4,1,0,90,0,0
16543,-100,4,2,0,90,0,0
17877,-100,4,1,0,90,0,0
18043,-100,4,2,0,90,0,0
30043,-100,4,1,0,90,0,0
30377,-100,4,2,0,90,0,0
30543,-100,4,1,0,90,0,0
31710,-100,4,2,0,90,0,0
31877,-100,4,1,0,90,0,0
32043,-100,4,2,0,90,0,0
32710,-100,4,1,0,90,0,0
33043,-100,4,2,0,90,0,0
33210,-100,4,1,0,90,0,0
33377,-100,4,2,0,90,0,0
33877,-100,4,1,0,90,0,0
34377,-100,4,2,0,90,0,0
34543,-100,4,1,0,90,0,0
34710,-100,4,2,0,90,0,0
35377,-100,4,1,0,90,0,0
35543,-100,4,2,0,90,0,0
35877,-100,4,1,0,90,0,0
36043,-100,4,2,0,90,0,0
36543,-100,4,1,0,90,0,0
37377,-100,4,2,0,90,0,0
37877,-100,4,1,0,90,0,0
38710,-100,4,2,0,90,0,0
39543,-100,4,1,0,90,0,0
42043,-100,4,1,0,90,0,1
42044,-100,4,1,0,90,0,0
44710,-100,4,1,0,90,0,1
44711,-100,4,1,0,90,0,0
47377,-100,4,2,0,90,0,1
47378,-100,4,2,0,90,0,0
48710,-100,4,3,0,90,0,0
49877,-100,4,1,0,90,0,0
54043,-100,4,1,0,90,0,1
75377,-100,4,1,0,90,0,0
75460,-100,4,1,0,5,0,0
78043,-100,4,1,0,90,0,0
78210,-100,4,2,0,90,0,0
78377,-100,4,1,0,90,0,0
78543,-100,4,2,0,90,0,0
78710,-100,4,1,0,90,0,0
78877,-100,4,2,0,90,0,0
79043,-100,4,1,0,90,0,0
79210,-100,4,2,0,90,0,0
79377,-100,4,1,0,90,0,0
79877,-100,4,2,0,90,0,0
80710,-100,4,1,0,90,0,0
80877,-100,4,2,0,90,0,0
81043,-100,4,1,0,90,0,0
81210,-100,4,2,0,90,0,0
81377,-100,4,1,0,90,0,0
81543,-100,4,2,0,90,0,0
81710,-100,4,1,0,90,0,0
81877,-100,4,2,0,90,0,0
83210,-100,4,1,0,90,0,0
83543,-100,4,2,0,90,0,0
83710,-100,4,1,0,90,0,0
83877,-100,4,2,0,90,0,0
84043,-100,4,1,0,90,0,0
84210,-100,4,2,0,90,0,0
84377,-100,4,1,0,90,0,0
84543,-100,4,2,0,90,0,0
84710,-100,4,1,0,90,0,0
85377,-100,4,2,0,90,0,0
86043,-100,4,1,0,90,0,0
86210,-100,4,2,0,90,0,0
86377,-100,4,1,0,90,0,0
86543,-100,4,2,0,90,0,0
86710,-100,4,1,0,90,0,0
86877,-100,4,2,0,90,0,0
87043,-100,4,1,0,90,0,0
87210,-100,4,2,0,90,0,0
99377,-100,4,1,0,90,0,1
109210,-100,4,1,0,90,0,0
110043,-100,4,1,0,90,0,1
120377,-100,4,2,0,90,0,0

[Colours]
Combo1 : 255,0,128
Combo2 : 255,0,0
Combo3 : 128,255,255
Combo4 : 0,255,0

[HitObjects]
192,224,2043,6,0,L|160:96,1,120,4|0,1:0|0:0,0:0:0:0:
320,224,2543,2,0,L|352:96,1,120,0|2,0:0|0:0,0:0:0:0:
216,224,3043,2,0,L|296:224,1,80,2|0,0:0|0:0,0:0:0:0:
176,224,3377,6,0,L|128:96,1,120,4|0,1:0|0:0,0:0:0:0:
336,224,3877,2,0,L|384:96,1,120,0|2,0:0|0:0,0:0:0:0:
216,224,4377,2,0,L|296:224,1,80,2|0,0:0|0:0,0:0:0:0:
160,224,4710,6,0,L|96:96,2,120,4|0|0,0:0|0:0|0:0,0:0:0:0:
352,224,5377,2,0,L|416:96,2,120,4|0|0,0:0|0:0|0:0,0:0:0:0:
144,224,6043,6,0,L|16:160,2,120,0|0|0,0:0|0:0|0:0,0:0:0:0:
496,192,7043,1,4,0:0:0:0:
352,80,7377,6,0,L|320:160,1,80,4|0,0:0|0:0,0:0:0:0:
208,128,7710,2,0,L|240:48,1,80,0|2,0:0|0:0,0:0:0:0:
112,80,8043,2,0,L|16:48,1,80,0|0,0:0|0:0,0:0:0:0:
128,192,8377,2,0,L|224:224,2,80,0|2|0,0:0|0:0|0:0,0:0:0:0:
384,192,9043,6,0,L|416:112,1,80,0|0,0:0|0:0,0:0:0:0:
256,64,9377,2,0,P|176:96|176:176,1,160,4|4,0:0|0:0,0:0:0:0:
320,336,10043,6,0,L|416:272,1,80,0|0,0:0|0:0,0:0:0:0:
272,256,10377,2,0,L|192:304,1,80,0|2,0:0|0:0,0:0:0:0:
96,304,10710,2,0,P|80:272|96:224,1,80,0|0,0:0|0:0,0:0:0:0:
192,128,11043,2,0,P|208:160|192:208,1,80,0|2,0:0|0:0,0:0:0:0:
48,64,11377,6,0,L|224:32,1,160,4|4,0:0|0:0,0:0:0:0:
400,48,12043,2,0,L|320:64,1,80,4|4,0:0|0:0,0:0:0:0:
64,224,12543,6,0,L|160:208,1,80,0|4,0:0|0:0,0:0:0:0:
272,224,12877,2,0,L|208:304,2,80,0|0|2,0:0|0:0|0:0,0:0:0:0:
384,192,13377,2,0,P|416:208|432:256,1,80,0|0,0:0|0:0,0:0:0:0:
352,304,13710,1,0,0:0:0:0:
256,304,13877,1,2,0:0:0:0:
112,272,14043,6,0,L|112:192,2,80,0|0|0,0:0|0:0|0:0,0:0:0:0:
384,64,14710,2,0,L|192:64,1,160,4|4,0:0|0:0,0:0:0:0:
464,160,15377,6,0,P|480:192|464:240,1,80,0|0,0:0|0:0,0:0:0:0:
368,256,15710,2,0,P|352:288|304:304,1,80,0|2,0:0|0:0,0:0:0:0:
192,288,16043,2,0,P|208:256|256:240,1,80,0|0,0:0|0:0,0:0:0:0:
160,176,16377,1,0,0:0:0:0:
288,128,16543,1,2,0:0:0:0:
144,224,16710,6,0,P|80:176|112:96,1,160,4|4,0:0|0:0,0:0:0:0:
304,32,17377,2,0,L|224:32,1,80,4|4,0:0|0:0,0:0:0:0:
496,112,17877,1,0,1:0:0:0:
256,192,18043,12,4,20710,0:0:0:0:
112,160,21043,6,0,L|192:16,1,160,2|8,0:0|0:0,0:0:0:0:
272,144,21710,1,2,0:0:0:0:
416,128,22043,2,0,P|416:208|336:240,2,160,0|2|8,3:0|0:0|0:0,0:0:0:0:
272,240,23043,1,2,0:0:0:0:
64,256,23377,2,0,L|240:304,2,160,0|2|8,3:0|0:0|0:0,0:0:0:0:
320,160,24377,6,0,L|352:80,1,80,2|0,0:0|0:0,0:0:0:0:
208,112,24710,2,0,L|176:192,1,80,0|0,3:0|0:0,0:0:0:0:
48,144,25043,2,0,L|16:224,1,80,2|0,0:0|0:0,0:0:0:0:
144,272,25377,2,0,L|240:288,1,80,8|0,0:0|0:0,0:0:0:0:
352,304,25710,2,0,L|416:128,1,160,2|0,0:0|3:0,0:0:0:0:
208,64,26377,6,0,P|240:128|320:160,1,160,2|8,0:0|0:0,0:0:0:0:
80,112,27043,2,0,P|64:160|32:176,1,80,0|0,3:0|0:0,0:0:0:0:
176,192,27377,2,0,L|336:224,2,160,0|0|8,3:0|3:0|0:0,0:0:0:0:
288,112,28377,2,0,P|368:112|416:48,2,160,2|0|2,0:0|3:0|0:0,0:0:0:0:
64,96,29377,2,0,P|80:176|160:192,1,160,8|2,0:0|0:0,0:0:0:0:
416,192,30043,5,0,0:0:0:0:
96,192,30377,1,2,0:0:0:0:
256,192,30543,2,0,L|272:240,2,40
384,192,30877,1,0,0:0:0:0:
240,288,31043,2,0,L|224:128,1,160,0|0,0:0|0:0,0:0:0:0:
416,112,31710,6,0,L|320:112,1,80,2|0,0:0|0:0,0:0:0:0:
192,32,32043,2,0,P|160:96|192:176,1,160,8|2,0:0|0:0,0:0:0:0:
336,224,32710,2,0,P|304:304|208:304,1,160,0|2,0:0|0:0,0:0:0:0:
80,240,33210,2,0,L|160:240,1,80,0|8,0:0|0:0,0:0:0:0:
320,80,33710,1,2,0:0:0:0:
160,64,33877,2,0,L|112:144,1,80,0|0,0:0|0:0,0:0:0:0:
416,160,34377,1,2,0:0:0:0:
272,192,34543,2,0,L|368:192,1,80,0|8,0:0|0:0,0:0:0:0:
32,192,35043,5,2,0:0:0:0:
160,288,35210,2,0,P|192:256|192:208,1,80,0|0,0:0|0:0,0:0:0:0:
352,256,35543,2,0,P|304:272|288:304,1,80,0|2,0:0|0:0,0:0:0:0:
432,304,35877,2,0,P|464:272|464:224,1,80,0|8,0:0|0:0,0:0:0:0:
336,224,36210,2,0,P|304:192|304:144,1,80,0|2,0:0|0:0,0:0:0:0:
448,112,36543,1,0,0:0:0:0:
256,80,36710,6,0,L|384:64,2,120,0|0|0,0:0|0:0|0:0,0:0:0:0:
80,64,37377,1,8,0:0:0:0:
224,224,37710,2,0,L|144:224,1,80,0|0,3:0|0:0,0:0:0:0:
320,224,38043,2,0,L|448:208,2,120,0|0|0,0:0|0:0|0:0,0:0:0:0:
144,208,38710,1,8,0:0:0:0:
400,64,39043,5,2,0:0:0:0:
256,176,39210,1,0,3:0:0:0:
112,64,39377,2,0,L|208:64,1,80,2|0,0:0|0:0,0:0:0:0:
288,128,39710,2,0,L|176:128,1,80
96,64,40043,2,0,L|192:64,1,80
304,128,40377,6,0,L|192:128,1,80
416,128,40710,2,0,L|496:128,1,80
336,64,41043,2,0,L|256:64,1,80,8|0,0:0|0:0,0:0:0:0:
64,176,41377,2,0,L|192:176,2,120
224,176,42043,5,6,0:0:0:0:
480,128,43043,2,0,L|400:128,1,80,6|6,0:0|0:0,0:0:0:0:
256,128,43377,2,0,L|352:128,1,80
400,128,43627,2,0,L|416:80,1,40
432,48,43793,2,0,L|384:48,1,40
304,48,43960,2,0,L|288:96,1,40
272,128,44126,2,0,L|320:128,1,40
352,128,44293,1,0,0:0:0:0:
288,192,44377,6,0,L|112:192,1,160,0|6,0:0|0:0,0:0:0:0:
64,288,45710,2,0,L|144:288,1,80,6|6,0:0|0:0,0:0:0:0:
304,288,46043,2,0,L|336:208,1,80
256,208,46293,2,0,L|224:288,1,80
176,208,46543,2,0,L|208:128,2,80
112,144,46960,2,0,L|80:64,1,80
160,64,47210,1,0,0:0:0:0:
320,64,47377,6,0,L|192:64,2,120,6|4|4,0:0|0:0|0:0,0:0:0:0:
496,192,48210,2,0,L|400:192,2,80,4|6|6,0:0|0:0|0:0,0:0:0:0:
320,192,48710,6,0,L|240:192,1,80,0|0,0:0|0:0,0:0:0:0:
160,192,48960,2,0,L|112:160,1,40
128,128,49127,2,0,L|192:128,1,40
208,128,49293,1,0,0:0:0:0:
304,64,49377,2,0,L|128:64,1,160
80,64,49793,2,0,L|32:64,1,40
112,64,49960,2,0,L|160:64,1,40,0|4,0:0|0:0,0:0:0:0:
256,192,50210,6,0,L|336:192,1,80
176,192,50543,2,0,L|64:192,2,80
384,192,51043,2,0,L|304:192,1,80
160,96,51377,5,2,0:0:0:0:
352,96,51627,1,2,0:0:0:0:
128,96,51877,1,2,0:0:0:0:
384,96,52127,1,2,0:0:0:0:
192,96,52377,1,2,0:0:0:0:
320,96,52543,1,2,0:0:0:0:
256,192,52710,12,8,53710,0:0:0:0:
0,192,54043,6,0,L|96:192,1,80
160,192,54293,2,0,L|64:192,1,80
0,192,54543,2,0,L|96:192,2,80
160,192,55043,2,0,L|256:192,1,80,8|0,0:0|0:0,0:0:0:0:
400,192,55377,6,0,L|304:192,1,80
240,192,55627,2,0,L|336:192,1,80
400,192,55877,2,0,L|304:192,2,80
240,192,56377,2,0,L|144:192,1,80,8|0,0:0|0:0,0:0:0:0:
368,192,56710,6,0,L|272:192,1,80
208,192,56960,2,0,L|304:192,1,80
368,192,57210,2,0,L|272:192,2,80
208,192,57710,2,0,L|112:192,1,80,8|0,0:0|0:0,0:0:0:0:
336,96,58043,6,0,L|208:64,2,120
176,96,58710,2,0,L|304:64,2,120
256,320,59377,6,0,P|304:320|336:288,1,80
256,320,59627,2,0,P|208:320|176:288,1,80
256,320,59877,2,0,P|304:320|336:288,1,80
184,304,60210,2,0,L|104:304,2,80,0|8|0,0:0|0:0|0:0,0:0:0:0:
376,192,60710,6,0,P|424:192|456:160,1,80
376,192,60960,2,0,P|328:192|296:160,1,80
376,192,61210,2,0,P|424:192|456:160,1,80
304,176,61543,2,0,L|224:176,2,80,0|8|0,0:0|0:0|0:0,0:0:0:0:
136,192,62043,6,0,P|88:192|56:160,1,80
136,192,62293,2,0,P|184:192|216:160,1,80
136,192,62543,2,0,P|88:192|56:160,1,80
208,176,62876,2,0,L|288:176,2,80,0|8|0,0:0|0:0|0:0,0:0:0:0:
352,176,63377,6,0,L|208:176,2,120,4|4|0,0:0|0:0|0:0,0:0:0:0:
232,176,64043,2,0,L|112:176,2,120
400,192,64710,6,0,L|408:112,1,80
304,192,64960,2,0,L|296:112,1,80
400,192,65210,2,0,L|408:112,1,80
280,112,65543,1,0,0:0:0:0:
424,112,65710,1,8,0:0:0:0:
264,112,65877,1,0,0:0:0:0:
104,192,66043,6,0,L|96:112,1,80
200,192,66293,2,0,L|208:112,1,80
104,192,66543,2,0,L|96:112,1,80
224,112,66876,1,0,0:0:0:0:
80,112,67043,1,8,0:0:0:0:
240,112,67210,1,0,0:0:0:0:
416,192,67377,6,0,L|424:112,1,80
320,192,67627,2,0,L|312:112,1,80
416,192,67877,2,0,L|424:112,1,80
296,112,68210,1,0,0:0:0:0:
440,112,68377,1,8,0:0:0:0:
280,112,68544,1,0,0:0:0:0:
192,192,68710,6,0,L|64:192,2,120
320,192,69377,2,0,L|464:192,2,120
176,192,70043,5,0,0:0:0:0:
288,192,70210,2,0,L|248:192,1,40
64,192,70460,2,0,L|120:192,1,40
304,192,70710,2,0,L|216:192,1,80
48,192,71043,2,0,L|160:192,1,80
336,192,71377,5,0,0:0:0:0:
224,192,71544,2,0,L|264:192,1,40
448,192,71794,2,0,L|392:192,1,40
208,192,72044,2,0,L|296:192,1,80
464,192,72377,2,0,L|352:192,1,80
256,192,72710,5,0,0:0:0:0:
128,192,72877,1,0,0:0:0:0:
0,192,73043,1,0,0:0:0:0:
144,192,73210,1,0,0:0:0:0:
272,192,73377,1,0,0:0:0:0:
400,192,73543,1,0,0:0:0:0:
256,192,73710,2,0,L|176:192,1,80
328,120,74043,2,0,L|456:120,2,120,4|4|0,0:0|0:0|0:0,0:0:0:0:
184,120,74710,2,0,L|40:120,2,120
256,256,75377,6,0,B|256:144|256:144|0:144|0:144|0:0|512:0|512:144|512:144|256:144|256:144|256:208,1,1280
208,224,78210,1,0,0:0:0:0:
304,128,78377,2,0,L|272:48,1,80,0|2,0:0|0:0,0:0:0:0:
400,80,78710,2,0,L|496:48,1,80,0|0,0:0|0:0,0:0:0:0:
384,192,79044,2,0,L|288:224,2,80,0|2|0,0:0|0:0|0:0,0:0:0:0:
240,160,79543,5,0,0:0:0:0:
128,192,79710,2,0,L|96:112,1,80,0|0,0:0|0:0,0:0:0:0:
256,64,80044,2,0,P|336:96|336:176,1,160,4|4,0:0|0:0,0:0:0:0:
192,336,80710,6,0,L|96:272,1,80,0|0,0:0|0:0,0:0:0:0:
240,256,81044,2,0,L|320:304,1,80,0|2,0:0|0:0,0:0:0:0:
416,304,81377,2,0,P|432:272|416:224,1,80,0|0,0:0|0:0,0:0:0:0:
320,128,81710,2,0,P|304:160|320:208,1,80,0|2,1:0|0:0,0:0:0:0:
464,64,82044,6,0,L|288:32,1,160,4|4,0:0|0:0,0:0:0:0:
112,48,82710,2,0,L|192:64,1,80,4|4,0:0|0:0,0:0:0:0:
448,224,83210,6,0,L|352:208,1,80,0|4,0:0|0:0,0:0:0:0:
240,224,83544,2,0,L|304:304,2,80,0|0|2,0:0|0:0|0:0,0:0:0:0:
128,192,84044,2,0,P|96:208|80:256,1,80,0|0,0:0|0:0,0:0:0:0:
160,304,84377,1,0,0:0:0:0:
256,304,84544,1,2,0:0:0:0:
400,272,84710,6,0,L|400:192,2,80,0|0|0,0:0|0:0|0:0,0:0:0:0:
128,64,85377,2,0,L|320:64,1,160,4|4,0:0|0:0,0:0:0:0:
48,160,86044,6,0,P|32:192|48:240,1,80,0|0,0:0|0:0,0:0:0:0:
144,256,86377,2,0,P|160:288|208:304,1,80,0|2,0:0|0:0,0:0:0:0:
320,288,86710,2,0,P|304:256|256:240,1,80,0|0,0:0|0:0,0:0:0:0:
352,176,87044,1,0,0:0:0:0:
224,128,87210,1,2,0:0:0:0:
368,224,87377,6,0,P|432:176|400:96,1,160,4|4,0:0|0:0,0:0:0:0:
288,32,88043,1,4,0:0:0:0:
176,32,88210,2,0,B|224:112|128:144|224:192|176:272,1,240,4|4,0:0|0:0,0:0:0:0:
64,144,94043,6,0,L|112:64,1,80,4|2,0:0|0:0,0:0:0:0:
160,64,94293,2,0,L|272:64,1,80,2|2,0:0|0:0,0:0:0:0:
288,80,94543,2,0,L|240:176,1,80,2|0,0:0|0:0,0:0:0:0:
368,168,94877,2,0,L|344:208,1,40,2|2,0:0|0:0,0:0:0:0:
464,216,95127,2,0,L|440:256,1,40,2|0,0:0|0:0,0:0:0:0:
272,304,95377,6,0,L|304:224,1,80,6|0,0:0|0:0,0:0:0:0:
192,144,95710,2,0,L|160:224,1,80,2|0,0:0|0:0,0:0:0:0:
16,224,96043,2,0,L|64:128,1,80,6|0,0:0|0:0,0:0:0:0:
208,224,96377,2,0,L|160:128,1,80,2|0,0:0|0:0,0:0:0:0:
16,64,96710,5,4,0:0:0:0:
48,64,96793,1,0,0:0:0:0:
80,64,96877,1,0,0:0:0:0:
112,64,96960,1,0,0:0:0:0:
192,64,97043,1,4,0:0:0:0:
176,96,97127,1,0,0:0:0:0:
160,128,97210,1,0,0:0:0:0:
144,160,97293,1,0,0:0:0:0:
224,192,97377,5,4,0:0:0:0:
256,192,97460,1,0,0:0:0:0:
288,192,97543,1,0,0:0:0:0:
320,192,97627,1,0,0:0:0:0:
400,192,97710,1,4,0:0:0:0:
384,224,97793,1,0,0:0:0:0:
368,256,97877,1,0,0:0:0:0:
352,288,97960,1,0,0:0:0:0:
256,192,98043,12,8,99043,0:0:0:0:
176,160,99377,5,0,0:0:0:0:
256,176,99544,2,0,L|272:128,1,40
96,176,99794,2,0,L|80:128,1,40
224,240,100044,2,0,L|336:240,1,80
128,240,100377,2,0,L|48:240,1,80
256,64,100710,5,0,0:0:0:0:
336,80,100877,2,0,L|352:32,1,40
176,80,101127,2,0,L|160:32,1,40
304,144,101377,2,0,L|416:144,1,80
208,144,101710,2,0,L|128:144,1,80,8|0,0:0|0:0,0:0:0:0:
336,160,102043,5,0,0:0:0:0:
416,176,102210,2,0,L|432:128,1,40
256,176,102460,2,0,L|240:128,1,40
384,240,102710,2,0,L|496:240,1,80
288,240,103043,2,0,L|208:240,1,80
336,112,103377,6,0,L|208:112,2,120
176,112,104043,2,0,L|304:112,2,120
16,192,104710,5,4,0:0:0:0:
144,256,104877,2,0,L|192:256,1,40
64,256,105127,2,0,L|112:256,1,40
224,176,105377,1,0,0:0:0:0:
128,176,105544,1,0,0:0:0:0:
272,176,105710,1,8,0:0:0:0:
176,176,105877,1,0,0:0:0:0:
496,192,106043,5,4,0:0:0:0:
368,256,106210,2,0,L|320:256,1,40
448,256,106460,2,0,L|400:256,1,40
288,176,106710,1,0,0:0:0:0:
384,176,106877,1,0,0:0:0:0:
240,176,107043,1,8,0:0:0:0:
336,176,107210,1,0,0:0:0:0:
208,64,107377,6,0,L|208:144,1,80,4|0,0:0|0:0,0:0:0:0:
304,144,107710,2,0,L|304:48,1,80
192,64,108043,2,0,L|192:160,1,80,4|0,0:0|0:0,0:0:0:0:
320,144,108377,2,0,L|320:64,1,80
192,192,108710,6,0,L|304:192,1,80,2|0,0:0|0:0,0:0:0:0:
336,192,108960,2,0,L|240:192,1,80,2|0,0:0|0:0,0:0:0:0:
192,192,109210,1,2,0:0:0:0:
192,192,109710,6,0,L|208:112,2,80
288,112,110293,1,0,0:0:0:0:
112,112,110543,1,0,0:0:0:0:
320,112,110793,1,0,0:0:0:0:
80,112,111043,1,0,0:0:0:0:
200,64,111210,1,0,0:0:0:0:
352,48,111377,6,0,L|432:48,1,80
496,48,111627,2,0,L|496:96,1,40
464,96,111793,2,0,L|416:96,1,40
336,96,111960,2,0,L|336:144,1,40
368,144,112126,2,0,L|416:144,1,40
496,144,112293,2,0,L|496:192,1,40
464,192,112459,2,0,L|416:192,1,40
256,192,112710,5,0,0:0:0:0:
168,240,112960,1,0,0:0:0:0:
344,240,113210,1,0,0:0:0:0:
136,240,113460,1,0,0:0:0:0:
376,240,113710,1,0,0:0:0:0:
256,192,113877,1,0,0:0:0:0:
144,112,114043,6,0,L|48:112,1,80
96,176,114293,2,0,L|160:176,1,40
176,176,114460,2,0,L|224:128,1,40
288,144,114627,2,0,L|352:144,1,40
368,144,114794,2,0,L|416:192,1,40
320,288,114960,2,0,L|256:288,1,40
240,288,115127,2,0,L|192:240,1,40
368,192,115377,5,0,0:0:0:0:
280,240,115627,1,0,0:0:0:0:
456,240,115877,1,0,0:0:0:0:
248,240,116127,1,0,0:0:0:0:
488,240,116377,1,0,0:0:0:0:
368,192,116544,1,0,0:0:0:0:
464,96,116710,6,0,L|496:16,1,80
432,16,116960,2,0,L|384:16,1,40
352,64,117127,2,0,L|288:64,1,40
400,64,117293,2,0,L|448:64,1,40
480,64,117460,2,0,L|480:128,1,40
448,144,117627,2,0,L|400:144,1,40
368,144,117793,2,0,L|304:144,1,40
192,96,118043,5,0,0:0:0:0:
96,144,118293,1,0,0:0:0:0:
288,144,118543,1,0,0:0:0:0:
64,144,118793,1,0,0:0:0:0:
320,144,119043,1,0,0:0:0:0:
192,96,119210,1,0,0:0:0:0:
192,192,119377,6,0,L|192:272,1,80
144,272,119627,2,0,L|96:272,1,40
80,304,119793,2,0,L|80:352,1,40
176,272,119960,2,0,L|224:272,1,40
240,304,120126,2,0,L|240:352,1,40
128,272,120293,2,0,L|80:272,1,40,0|2,0:0|0:0,0:0:0:0:
64,304,120459,2,0,L|64:352,2,40,0|0|2,0:0|0:0|0:0,0:0:0:0:
