osu file format v12

[General]
AudioFilename: FLOWER REDALiCE Remix.mp3
AudioLeadIn: 0
PreviewTime: 54043
Countdown: 0
SampleSet: Soft
StackLeniency: 0.7
Mode: 2
LetterboxInBreaks: 1
WidescreenStoryboard: 0

[Editor]
DistanceSpacing: 0.5
BeatDivisor: 4
GridSize: 8
TimelineZoom: 2.899999

[Metadata]
Title:FLOWER REDALiCE Remix
TitleUnicode:FLOWER REDALiCE Remix
Artist:REDALiCE
ArtistUnicode:REDALiCE
Creator:INO
Version:Deluge
Source:SOUND VOLTEX BOOTH
Tags:sdvx konami bemani sionKotori
BeatmapID:406408
BeatmapSetID:145194

[Difficulty]
HPDrainRate:5
CircleSize:4
OverallDifficulty:9
ApproachRate:9
SliderMultiplier:2.6
SliderTickRate:1

[Events]
//Background and Video events
0,0,"19047732.jpg",0,0
//Break Periods
//Storyboard Layer 0 (Background)
//Storyboard Layer 1 (Fail)
//Storyboard Layer 2 (Pass)
//Storyboard Layer 3 (Foreground)
//Storyboard Sound Samples
//Background Colour Transformations
3,100,163,162,255

[TimingPoints]
2044,333.333333333333,4,2,0,90,1,0
6710,-83.3333333333333,4,2,0,90,0,0
7377,-100,4,1,0,65,0,0
9377,-100,4,1,0,80,0,0
10043,-100,4,1,0,65,0,0
11377,-90.9090909090909,4,1,0,80,0,0
12710,-100,4,1,0,65,0,0
14710,-100,4,1,0,80,0,0
15377,-100,4,1,0,65,0,0
16710,-90.9090909090909,4,1,0,80,0,0
17960,-100,4,2,0,80,0,0
20627,-125,4,2,0,70,0,0
24543,-125,4,2,0,70,0,0
25877,-125,4,2,0,50,0,0
26043,-125,4,2,0,70,0,0
30043,-125,4,2,0,70,0,0
31377,-125,4,2,0,70,0,0
35210,-125,4,2,0,70,0,0
36543,-125,4,2,0,50,0,0
36710,-125,4,2,0,60,0,0
37377,-125,4,2,0,90,0,0
38043,-125,4,2,0,60,0,0
38710,-125,4,2,0,90,0,0
39377,-125,4,2,0,60,0,0
39543,-125,4,2,0,90,0,0
40043,-125,4,2,0,60,0,0
40210,-125,4,2,0,90,0,0
40710,-125,4,2,0,60,0,0
42043,-100,4,1,0,55,0,0
43377,-100,4,1,0,75,0,0
44710,-100,4,1,0,55,0,0
46043,-100,4,1,0,75,0,0
47377,-100,4,1,0,55,0,0
48710,-100,4,1,0,75,0,0
50043,-100,4,1,0,60,0,0
51293,-55.5555555555556,4,1,0,50,0,0
51543,-55.5555555555556,4,1,0,5,0,0
51627,-55.5555555555556,4,1,0,50,0,0
51793,-55.5555555555556,4,1,0,5,0,0
51877,-66.6666666666667,4,1,0,50,0,0
52043,-66.6666666666667,4,1,0,10,0,0
52127,-66.6666666666667,4,1,0,60,0,0
52293,-66.6666666666667,4,1,0,5,0,0
52377,-100,4,1,0,60,0,0
52543,-100,4,1,0,5,0,0
52710,-100,4,1,0,40,0,0
54043,-100,4,1,0,60,0,1
54793,-100,4,1,0,5,0,1
54877,-100,4,1,0,60,0,1
55127,-100,4,1,0,5,0,1
55210,-100,4,1,0,60,0,1
56127,-100,4,1,0,5,0,1
56210,-100,4,1,0,60,0,1
56460,-100,4,1,0,5,0,1
56543,-100,4,1,0,60,0,1
57460,-100,4,1,0,5,0,1
57543,-100,4,1,0,60,0,1
57793,-100,4,1,0,5,0,1
57877,-100,4,1,0,60,0,1
58043,-100,4,1,0,80,0,1
58710,-100,4,1,0,60,0,1
59127,-100,4,1,0,5,0,1
59210,-100,4,1,0,60,0,1
60127,-100,4,1,0,5,0,1
60210,-100,4,1,0,60,0,1
60460,-100,4,1,0,5,0,1
60543,-100,4,1,0,60,0,1
61460,-100,4,1,0,5,0,1
61543,-100,4,1,0,60,0,1
61793,-100,4,1,0,5,0,1
61877,-100,4,1,0,50,0,1
62127,-100,4,1,0,5,0,1
62210,-100,4,1,0,50,0,1
62293,-100,4,1,0,5,0,1
62377,-100,4,1,0,50,0,1
62460,-100,4,1,0,5,0,1
62543,-100,4,1,0,50,0,1
62627,-100,4,1,0,5,0,1
62710,-100,4,1,0,60,0,1
62793,-100,4,1,0,5,0,1
62877,-100,4,1,0,60,0,1
62960,-100,4,1,0,5,0,1
63043,-100,4,1,0,60,0,1
63127,-100,4,1,0,5,0,1
63210,-100,4,1,0,60,0,1
63293,-100,4,1,0,5,0,1
63377,-76.9230769230769,4,1,0,80,0,1
64127,-100,4,1,0,60,0,1
64960,-100,4,1,0,5,0,1
65043,-100,4,1,0,60,0,1
65460,-100,4,1,0,5,0,1
65543,-100,4,1,0,60,0,1
65793,-100,4,1,0,5,0,1
65877,-100,4,1,0,60,0,1
66293,-100,4,1,0,5,0,1
66377,-100,4,1,0,60,0,1
66793,-100,4,1,0,5,0,1
66877,-100,4,1,0,60,0,1
67127,-100,4,1,0,5,0,1
67210,-100,4,1,0,60,0,1
68710,-100,4,1,0,80,0,1
69377,-100,4,1,0,60,0,1
69793,-100,4,1,0,5,0,1
69877,-100,4,1,0,50,0,1
70710,-100,4,1,0,80,0,1
71377,-100,4,1,0,60,0,1
72043,-100,4,1,0,80,0,1
72710,-100,4,1,0,65,0,1
73043,-100,4,1,0,60,0,1
73460,-100,4,1,0,65,0,1
73710,-100,4,1,0,60,0,1
74043,-76.9230769230769,4,1,0,80,0,1
74793,-100,4,1,0,60,0,1
75377,-100,4,2,0,80,0,0
78043,-100,4,1,0,55,0,0
80043,-100,4,1,0,70,0,0
80710,-100,4,1,0,55,0,0
82043,-90.9090909090909,4,1,0,80,0,0
83377,-100,4,1,0,55,0,0
85377,-100,4,1,0,80,0,0
85627,-100,4,1,0,20,0,0
85710,-100,4,1,0,80,0,0
85960,-100,4,1,0,20,0,0
86043,-100,4,1,0,55,0,0
87377,-90.9090909090909,4,1,0,80,0,0
88710,-100,4,1,0,60,0,0
89377,-100,4,1,0,80,0,0
90043,-100,4,1,0,60,0,0
90710,-100,4,1,0,80,0,0
91377,-100,4,1,0,60,0,0
92710,-100,4,1,0,80,0,0
93377,-100,4,1,0,60,0,0
94043,-100,4,1,0,80,0,0
94543,-100,4,1,0,60,0,0
94710,-100,4,1,0,80,0,0
95210,-100,4,1,0,60,0,0
95377,-100,4,1,0,65,0,0
95543,-100,4,1,0,60,0,0
95710,-100,4,1,0,65,0,0
95877,-100,4,1,0,60,0,0
96043,-100,4,1,0,65,0,0
96210,-100,4,1,0,60,0,0
96377,-100,4,1,0,65,0,0
96543,-100,4,1,0,60,0,0
96710,-100,4,1,0,60,0,0
96793,-100,4,1,0,25,0,0
96877,-100,4,1,0,60,0,0
97127,-100,4,1,0,25,0,0
97210,-100,4,1,0,60,0,0
97460,-100,4,1,0,25,0,0
97543,-100,4,1,0,60,0,0
97793,-100,4,1,0,25,0,0
97877,-100,4,1,0,60,0,0
98043,-100,4,2,0,75,0,0
99043,-100,4,1,0,80,0,0
99377,-83.3333333333333,4,1,0,60,0,1
100460,-83.3333333333333,4,1,0,5,0,1
100543,-83.3333333333333,4,1,0,60,0,1
101793,-83.3333333333333,4,1,0,5,0,1
101877,-83.3333333333333,4,1,0,60,0,1
102793,-83.3333333333333,4,1,0,5,0,1
102877,-83.3333333333333,4,1,0,60,0,1
103127,-83.3333333333333,4,1,0,5,0,1
103210,-83.3333333333333,4,1,0,60,0,1
103377,-83.3333333333333,4,1,0,80,0,1
103960,-83.3333333333333,4,1,0,80,0,1
104043,-83.3333333333333,4,1,0,60,0,1
104793,-83.3333333333333,4,1,0,5,0,1
104877,-83.3333333333333,4,1,0,60,0,1
105127,-83.3333333333333,4,1,0,5,0,1
105210,-83.3333333333333,4,1,0,60,0,1
105793,-83.3333333333333,4,1,0,5,0,1
105877,-83.3333333333333,4,1,0,60,0,1
106127,-83.3333333333333,4,1,0,5,0,1
106210,-83.3333333333333,4,1,0,60,0,1
106460,-83.3333333333333,4,1,0,5,0,1
106543,-83.3333333333333,4,1,0,60,0,1
107127,-83.3333333333333,4,1,0,5,0,1
107210,-83.3333333333333,4,1,0,60,0,1
107460,-83.3333333333333,4,1,0,5,0,1
107543,-83.3333333333333,4,1,0,60,0,1
108127,-83.3333333333333,4,1,0,5,0,1
108210,-83.3333333333333,4,1,0,60,0,1
108710,-76.9230769230769,4,1,0,80,0,1
109460,-83.3333333333333,4,1,0,60,0,1
110043,-100,4,2,0,65,0,0
111377,-100,4,2,0,80,0,0
112710,-100,4,2,0,65,0,0
114043,-100,4,2,0,80,0,0
115377,-100,4,2,0,65,0,0
116710,-100,4,2,0,80,0,0
118043,-100,4,2,0,65,0,0
119377,-100,4,2,0,55,0,0

[Colours]
Combo1 : 255,0,128
Combo2 : 255,0,0
Combo3 : 128,255,255
Combo4 : 0,255,0

[HitObjects]
364,344,2043,6,2,L|464:170,1,195
256,176,2543,1,2,0:0:0:0:
461,175,2793,1,2,0:0:0:0:
276,176,3043,1,2,0:0:0:0:
461,175,3210,1,2,0:0:0:0:
148,344,3377,6,2,L|48:170,1,195
256,176,3877,1,2,0:0:0:0:
51,175,4127,1,2,0:0:0:0:
236,176,4377,1,2,0:0:0:0:
51,175,4544,1,2,0:0:0:0:
446,313,4710,6,2,L|309:175,1,195
465,174,5210,1,2,0:0:0:0:
65,313,5377,2,2,L|203:175,1,195
46,175,5877,1,2,0:0:0:0:
297,175,6043,6,2,L|313:112,1,65
215,175,6210,2,2,L|197:112,1,65
414,112,6377,2,2,L|398:49,1,65
98,112,6543,2,2,L|114:49,1,65
477,335,6710,2,2,L|198:174,1,311.999990478516
467,179,7377,6,8,L|467:36,1,130
271,49,7710,1,0,0:0:0:0:
401,49,7877,1,0,0:0:0:0:
45,179,8043,2,8,L|45:36,1,130
241,49,8376,1,0,0:0:0:0:
111,49,8543,1,0,0:0:0:0:
344,260,8710,6,8,L|474:260,1,130
168,260,9043,2,8,L|38:260,1,130
384,224,9377,2,2,L|128:155,2,260
474,346,10210,5,8,0:0:0:0:
193,299,10377,2,0,L|323:299,1,130
128,224,10710,1,8,0:0:0:0:
38,346,10877,1,8,0:0:0:0:
323,299,11043,2,0,L|193:299,1,130
481,299,11377,6,2,L|256:120,2,286.000008728028
31,299,12210,2,2,L|256:120,1,286.000008728028
18,155,12710,6,8,L|148:155,1,130
278,155,13043,2,0,L|148:155,1,130
494,155,13377,2,8,L|364:155,1,130
233,155,13710,2,0,L|363:155,1,130
30,155,14043,6,8,L|30:285,1,130
482,285,14377,1,8,0:0:0:0:
256,285,14543,1,8,0:0:0:0:
72,352,14710,1,2,0:0:0:0:
440,352,15043,1,2,0:0:0:0:
220,48,15377,6,8,L|106:113,1,130
199,205,15710,1,0,0:0:0:0:
29,205,15877,1,0,0:0:0:0:
292,48,16043,2,8,L|405:113,1,130
313,205,16376,1,0,0:0:0:0:
483,205,16543,1,0,0:0:0:0:
31,299,16710,6,2,L|256:120,2,286.000008728028
481,299,17543,2,2,L|256:120,1,286.000008728028
256,192,18043,12,0,20543,0:0:0:0:
200,348,20710,6,8,L|384:241,1,208
232,192,21210,1,2,0:0:0:0:
88,136,21377,2,8,L|272:29,1,208
472,177,22043,2,8,L|362:177,1,104
263,177,22377,2,8,L|367:177,1,104
472,281,22710,2,8,L|246:281,1,208
36,356,23377,6,8,L|114:155,1,208
256,352,23876,1,2,0:0:0:0:
399,160,24043,2,8,L|475:356,1,208
60,260,24543,2,8,L|196:99,1,208
450,349,25210,2,8,L|240:349,2,208
241,349,26043,6,8,L|424:242,1,208
256,192,26543,1,2,0:0:0:0:
91,139,26710,2,8,L|271:35,1,208
54,53,27377,2,8,L|164:53,1,104
262,53,27711,2,8,L|158:53,1,104
53,53,28044,2,8,L|279:53,1,208
468,53,28710,6,8,L|284:158,1,208
468,331,29210,1,8,0:0:0:0:
144,331,29377,1,8,0:0:0:0:
368,331,29543,1,8,0:0:0:0:
76,144,29710,1,8,0:0:0:0:
256,192,29877,1,8,0:0:0:0:
436,144,30043,2,4,L|255:39,2,208
256,344,30877,1,4,0:0:0:0:
107,192,31043,1,4,0:0:0:0:
405,192,31210,1,4,0:0:0:0:
149,242,31377,6,8,L|360:242,1,208
161,242,31877,1,0,0:0:0:0:
355,242,32043,2,8,L|147:242,1,208
446,153,32710,2,8,L|394:62,1,104
66,231,33043,2,8,L|118:321,1,104
356,218,33377,2,8,L|155:165,1,208
48,88,34043,6,8,L|193:234,1,208
464,88,34543,1,2,0:0:0:0:
196,88,34710,2,8,L|50:234,1,208
376,312,35210,2,8,L|159:312,1,208
463,235,35877,2,8,L|316:88,2,208
48,264,36710,6,8,L|88:108,1,156
256,120,37210,1,0,0:0:0:0:
440,266,37377,2,2,L|387:176,2,104
256,264,37877,1,0,0:0:0:0:
464,264,38043,6,8,L|424:108,1,156
256,120,38543,1,0,0:0:0:0:
72,266,38710,2,2,L|125:176,2,104
256,264,39210,1,0,0:0:0:0:
24,336,39377,5,8,0:0:0:0:
169,336,39543,1,0,0:0:0:0:
60,194,39710,1,0,0:0:0:0:
206,194,39877,1,0,0:0:0:0:
488,336,40043,1,8,0:0:0:0:
343,336,40209,1,0,0:0:0:0:
452,194,40376,1,0,0:0:0:0:
306,194,40543,1,0,0:0:0:0:
78,190,40710,6,8,L|256:84,1,208
120,145,41210,1,8,0:0:0:0:
338,309,41376,1,8,0:0:0:0:
169,306,41543,1,8,0:0:0:0:
393,150,41710,1,8,0:0:0:0:
71,282,41877,1,8,0:0:0:0:
441,282,42043,5,4,0:0:0:0:
328,312,43043,1,4,0:0:0:0:
104,312,43210,1,4,0:0:0:0:
328,312,43377,1,0,0:0:0:0:
403,291,43461,1,0,0:0:0:0:
458,236,43544,1,0,0:0:0:0:
478,161,43627,1,0,0:0:0:0:
184,312,43710,1,0,0:0:0:0:
109,291,43794,1,0,0:0:0:0:
54,236,43877,1,0,0:0:0:0:
34,161,43960,1,0,0:0:0:0:
386,166,44043,1,0,0:0:0:0:
367,118,44126,1,0,0:0:0:0:
330,81,44209,1,0,0:0:0:0:
282,61,44293,1,0,0:0:0:0:
230,61,44376,1,0,0:0:0:0:
182,80,44459,1,0,0:0:0:0:
145,117,44543,1,0,0:0:0:0:
125,165,44626,1,0,0:0:0:0:
483,364,44710,5,4,0:0:0:0:
232,296,45710,1,4,0:0:0:0:
472,296,45877,1,4,0:0:0:0:
196,192,46043,2,0,L|179:130,1,65
113,129,46210,2,0,L|96:67,1,65
316,192,46376,2,0,L|333:130,1,65
399,129,46543,2,0,L|416:67,1,65
119,235,46710,1,0,0:0:0:0:
64,180,46794,1,0,0:0:0:0:
112,116,46877,1,0,0:0:0:0:
177,72,46960,1,0,0:0:0:0:
393,235,47043,1,0,0:0:0:0:
448,180,47127,1,0,0:0:0:0:
400,116,47210,1,0,0:0:0:0:
335,72,47293,1,0,0:0:0:0:
40,36,47377,5,4,0:0:0:0:
256,36,47627,1,4,0:0:0:0:
472,36,47877,1,4,0:0:0:0:
472,348,48210,1,4,0:0:0:0:
256,348,48377,1,4,0:0:0:0:
40,348,48543,1,4,0:0:0:0:
101,244,48710,5,0,0:0:0:0:
68,188,48793,1,0,0:0:0:0:
35,131,48877,1,0,0:0:0:0:
3,75,48960,1,0,0:0:0:0:
256,244,49043,1,0,0:0:0:0:
256,178,49127,1,0,0:0:0:0:
256,112,49211,1,0,0:0:0:0:
256,47,49294,1,0,0:0:0:0:
411,244,49377,1,0,0:0:0:0:
444,188,49460,1,0,0:0:0:0:
477,131,49544,1,0,0:0:0:0:
509,75,49627,1,0,0:0:0:0:
256,244,49710,2,0,L|256:112,1,130
160,344,50043,6,2,L|221:229,1,130
32,224,50377,1,8,0:0:0:0:
352,344,50543,2,2,L|291:229,1,130
480,224,50877,1,8,0:0:0:0:
144,112,51043,1,10,0:0:0:0:
368,112,51210,1,10,0:0:0:0:
256,336,51377,6,8,P|392:296|452:200,1,233.999992858887
256,336,51627,6,8,P|120:296|60:200,1,233.999992858887
256,336,51877,6,8,P|348:296|356:200,1,195.00000743866
256,336,52127,6,8,P|164:296|156:200,1,195.00000743866
256,336,52377,6,8,L|256:200,1,130
503,336,52710,6,8,B|256:336|256:336|296:192|296:192|40:192,1,650
256,192,53627,1,8,0:0:0:0:
472,336,53710,6,8,L|340:108,1,260
413,110,54127,1,0,0:0:0:0:
464,160,54210,1,0,0:0:0:0:
472,232,54293,1,0,0:0:0:0:
170,110,54377,1,8,0:0:0:0:
97,110,54461,1,0,0:0:0:0:
48,160,54544,1,0,0:0:0:0:
40,232,54627,1,0,0:0:0:0:
416,300,54710,2,8,L|478:283,1,65
324,300,54877,2,0,L|256:318,1,65
416,300,55043,2,8,L|478:283,1,65
324,300,55210,2,0,L|256:318,1,65
69,207,55377,5,8,0:0:0:0:
19,156,55461,1,0,0:0:0:0:
81,120,55544,1,0,0:0:0:0:
144,84,55627,1,0,0:0:0:0:
443,207,55710,1,8,0:0:0:0:
493,156,55794,1,0,0:0:0:0:
431,120,55877,1,0,0:0:0:0:
368,84,55960,1,0,0:0:0:0:
96,300,56043,2,8,L|33:316,1,65
188,300,56210,2,0,L|255:281,1,65
96,300,56376,2,8,L|33:316,1,65
188,300,56543,2,0,L|255:281,1,65
424,276,56710,5,8,0:0:0:0:
452,212,56793,1,0,0:0:0:0:
476,143,56877,1,0,0:0:0:0:
412,112,56960,1,0,0:0:0:0:
88,276,57043,1,8,0:0:0:0:
60,212,57126,1,0,0:0:0:0:
36,143,57210,1,0,0:0:0:0:
100,112,57293,1,0,0:0:0:0:
418,337,57377,2,8,L|385:280,1,65
294,280,57543,2,0,L|261:223,1,65
94,161,57710,2,8,L|126:104,1,65
216,104,57876,2,0,L|248:47,1,65
484,192,58043,6,2,L|390:285,1,130
28,192,58293,2,2,L|121:98,1,130
380,99,58543,2,2,L|426:144,1,65
188,327,58710,1,8,0:0:0:0:
124,296,58793,1,0,0:0:0:0:
72,248,58876,1,0,0:0:0:0:
28,192,58960,1,0,0:0:0:0:
418,192,59043,2,8,L|464:237,1,65
94,192,59210,2,0,L|48:145,1,65
320,350,59377,5,8,0:0:0:0:
395,329,59461,1,0,0:0:0:0:
450,274,59544,1,0,0:0:0:0:
470,199,59627,1,0,0:0:0:0:
192,34,59710,1,8,0:0:0:0:
117,55,59794,1,0,0:0:0:0:
62,110,59877,1,0,0:0:0:0:
42,185,59960,1,0,0:0:0:0:
446,352,60044,2,8,L|416:295,1,65
322,295,60211,2,0,L|292:238,1,65
198,238,60378,2,8,L|167:181,1,65
75,181,60544,2,0,L|107:124,1,65
193,351,60710,5,8,0:0:0:0:
118,330,60794,1,0,0:0:0:0:
63,275,60877,1,0,0:0:0:0:
43,200,60960,1,0,0:0:0:0:
319,33,61043,1,8,0:0:0:0:
394,54,61127,1,0,0:0:0:0:
449,109,61210,1,0,0:0:0:0:
469,184,61293,1,0,0:0:0:0:
65,352,61377,2,8,L|95:295,1,65
189,295,61544,2,0,L|219:238,1,65
313,238,61711,2,8,L|344:181,1,65
436,181,61877,2,0,L|404:124,1,65
312,192,62043,6,8,L|327:129,3,65
200,192,62377,2,8,L|184:254,3,65
410,192,62710,2,8,L|427:130,3,65
101,191,63043,2,8,L|85:254,3,65
328,348,63377,6,2,L|474:263,1,168.999992263794
184,36,63627,2,2,L|38:121,1,168.999992263794
328,348,63877,2,2,L|474:263,1,168.999992263794
88,216,64127,2,0,L|39:167,1,65
424,216,64293,1,0,0:0:0:0:
474,165,64377,1,8,0:0:0:0:
404,146,64460,1,0,0:0:0:0:
334,127,64543,1,0,0:0:0:0:
265,109,64627,1,0,0:0:0:0:
64,304,64710,5,8,0:0:0:0:
120,272,64793,1,0,0:0:0:0:
176,240,64877,1,0,0:0:0:0:
273,214,64960,2,8,L|228:167,1,65
343,143,65127,1,0,0:0:0:0:
399,111,65210,1,0,0:0:0:0:
454,79,65293,1,0,0:0:0:0:
454,339,65377,2,8,L|437:277,1,65
324,45,65543,2,0,L|340:108,1,65
454,339,65710,2,8,L|437:277,1,65
324,45,65876,2,0,L|340:108,1,65
454,305,66043,5,8,0:0:0:0:
399,273,66126,1,0,0:0:0:0:
343,241,66209,1,0,0:0:0:0:
238,214,66293,2,8,L|283:167,1,65
176,144,66459,1,0,0:0:0:0:
120,112,66543,1,0,0:0:0:0:
64,80,66626,1,0,0:0:0:0:
58,339,66710,2,8,L|75:277,1,65
188,45,66876,2,0,L|172:108,1,65
58,339,67043,2,8,L|75:277,1,65
188,45,67210,2,0,L|172:108,1,65
49,367,67377,5,8,0:0:0:0:
118,349,67460,1,0,0:0:0:0:
186,330,67543,1,0,0:0:0:0:
256,312,67627,1,0,0:0:0:0:
463,17,67710,1,8,0:0:0:0:
394,35,67793,1,0,0:0:0:0:
326,54,67876,1,0,0:0:0:0:
256,72,67960,1,0,0:0:0:0:
32,192,68043,1,8,0:0:0:0:
256,192,68210,1,8,0:0:0:0:
480,192,68377,1,8,0:0:0:0:
256,192,68543,1,8,0:0:0:0:
28,192,68710,6,2,L|122:285,1,130
484,192,68960,2,2,L|391:98,1,130
132,99,69210,2,2,L|86:144,1,65
324,327,69377,1,8,0:0:0:0:
388,296,69460,1,0,0:0:0:0:
440,248,69543,1,0,0:0:0:0:
484,192,69627,1,0,0:0:0:0:
94,192,69710,2,8,L|44:241,1,65
418,192,69877,2,0,L|467:142,1,65
188,327,70043,5,8,0:0:0:0:
124,290,70127,1,0,0:0:0:0:
62,254,70210,1,0,0:0:0:0:
112,203,70293,1,0,0:0:0:0:
324,327,70377,1,8,0:0:0:0:
388,290,70461,1,0,0:0:0:0:
450,254,70544,1,0,0:0:0:0:
400,203,70627,1,0,0:0:0:0:
183,94,70710,2,2,L|51:94,1,130
459,94,71043,2,2,L|329:94,1,130
324,327,71377,5,8,0:0:0:0:
388,290,71461,1,0,0:0:0:0:
450,254,71544,1,0,0:0:0:0:
400,203,71627,1,0,0:0:0:0:
188,327,71711,1,8,0:0:0:0:
124,290,71795,1,0,0:0:0:0:
62,254,71878,1,0,0:0:0:0:
112,203,71961,1,0,0:0:0:0:
329,94,72044,2,2,L|459:94,1,130
53,94,72377,2,2,L|183:94,1,130
406,340,72710,5,8,0:0:0:0:
308,340,72793,1,0,0:0:0:0:
209,340,72877,1,0,0:0:0:0:
111,340,72960,1,0,0:0:0:0:
111,192,73043,2,2,L|79:192,7,32.5
111,44,73377,1,8,0:0:0:0:
209,44,73460,1,0,0:0:0:0:
308,44,73543,1,0,0:0:0:0:
406,44,73627,1,0,0:0:0:0:
406,192,73710,2,2,L|438:192,7,32.5
184,348,74043,6,2,L|38:263,1,168.999992263794
328,36,74293,2,2,L|474:121,1,168.999992263794
184,348,74543,2,2,L|38:263,1,168.999992263794
410,253,74793,2,0,L|455:207,1,65
179,253,74960,1,0,0:0:0:0:
104,232,75044,1,0,0:0:0:0:
49,177,75127,1,0,0:0:0:0:
29,102,75210,1,0,0:0:0:0:
483,102,75293,1,4,0:0:0:0:
256,192,75377,12,0,77877,0:0:0:0:
340,344,78043,6,8,L|470:344,1,130
172,213,78376,1,0,0:0:0:0:
340,212,78542,1,0,0:0:0:0:
172,344,78710,2,8,L|42:344,1,130
340,212,79043,1,0,0:0:0:0:
172,213,79209,1,0,0:0:0:0:
472,213,79377,6,8,L|472:83,1,130
40,213,79710,2,8,L|40:83,1,130
399,83,80043,1,2,0:0:0:0:
113,83,80377,1,2,0:0:0:0:
356,358,80710,6,8,L|486:358,1,130
192,192,81043,2,8,L|322:192,1,130
26,26,81377,2,8,L|156:26,1,130
336,220,81710,1,0,0:0:0:0:
176,163,81877,1,0,0:0:0:0:
481,299,82043,6,2,L|256:120,2,286.000008728028
31,299,82876,2,2,L|256:120,1,286.000008728028
104,16,83377,6,8,L|38:127,1,130
324,196,83710,1,0,0:0:0:0:
188,196,83877,1,0,0:0:0:0:
408,368,84043,2,8,L|474:257,1,130
188,196,84377,1,0,0:0:0:0:
324,196,84544,1,0,0:0:0:0:
256,330,84710,5,8,0:0:0:0:
425,330,84877,1,8,0:0:0:0:
87,330,85043,1,8,0:0:0:0:
256,330,85210,1,8,0:0:0:0:
29,360,85377,2,2,L|197:262,1,195
483,360,85711,2,2,L|314:262,1,195
56,261,86043,6,8,L|30:199|52:141,1,130
326,262,86377,2,0,L|352:200|326:130,1,130
186,262,86710,2,8,L|160:200|186:130,1,130
455,261,87043,2,0,L|481:199|460:141,1,130
31,299,87377,6,2,L|256:120,2,286.000008728028
481,299,88210,2,2,L|256:120,1,286.000008728028
382,32,88710,5,8,0:0:0:0:
444,68,88793,1,0,0:0:0:0:
393,118,88877,1,0,0:0:0:0:
342,168,88960,1,0,0:0:0:0:
130,32,89043,1,8,0:0:0:0:
68,68,89126,1,0,0:0:0:0:
119,118,89210,1,0,0:0:0:0:
170,168,89293,1,0,0:0:0:0:
380,344,89377,2,2,L|515:345,1,130
275,344,89710,2,2,L|410:345,1,130
170,216,90043,5,8,0:0:0:0:
119,266,90126,1,0,0:0:0:0:
68,316,90210,1,0,0:0:0:0:
130,352,90293,1,0,0:0:0:0:
342,216,90377,1,8,0:0:0:0:
393,266,90460,1,0,0:0:0:0:
444,316,90544,1,0,0:0:0:0:
382,352,90627,1,0,0:0:0:0:
132,344,90710,2,2,L|-3:345,1,130
236,344,91043,2,2,L|101:345,1,130
453,73,91377,5,8,0:0:0:0:
397,106,91460,1,0,0:0:0:0:
341,138,91543,1,0,0:0:0:0:
284,172,91627,1,0,0:0:0:0:
227,204,91710,1,8,0:0:0:0:
171,236,91793,1,0,0:0:0:0:
57,302,91877,2,0,L|113:269,1,65
348,271,92043,1,8,0:0:0:0:
423,250,92127,1,0,0:0:0:0:
478,195,92210,1,0,0:0:0:0:
498,120,92293,1,0,0:0:0:0:
164,273,92377,2,8,L|74:166,1,130
340,173,92710,6,2,L|385:127,1,65
83,173,92960,2,2,L|37:127,1,65
512,173,93210,2,2,L|466:127,1,65
193,33,93377,1,8,0:0:0:0:
118,54,93461,1,0,0:0:0:0:
63,109,93544,1,0,0:0:0:0:
43,184,93627,1,0,0:0:0:0:
319,351,93710,1,8,0:0:0:0:
394,330,93794,1,0,0:0:0:0:
449,275,93877,1,0,0:0:0:0:
469,200,93960,1,0,0:0:0:0:
56,240,94043,6,2,L|56:371,1,130
200,14,94293,2,2,L|200:144,1,130
128,200,94543,1,8,0:0:0:0:
456,240,94710,6,2,L|456:371,1,130
312,14,94960,2,2,L|312:144,1,130
384,200,95210,1,8,0:0:0:0:
28,192,95377,6,10,L|122:285,1,130
484,192,95710,2,10,L|391:98,1,130
120,100,96043,2,10,L|28:192,1,130
392,284,96377,2,10,L|484:192,1,130
464,104,96710,6,10,L|418:58,1,65
45,280,96877,2,0,L|91:326,1,65
353,58,97043,2,10,L|305:105,1,65
157,326,97210,2,0,L|202:280,1,65
307,280,97377,2,10,L|353:326,1,65
202,103,97543,2,0,L|157:58,1,65
418,325,97710,2,10,L|464:280,1,65
91,58,97877,2,0,L|45:103,1,65
512,128,98043,5,2,0:0:0:0:
512,194,98127,1,2,0:0:0:0:
512,259,98210,1,2,0:0:0:0:
512,324,98293,1,2,0:0:0:0:
446,324,98377,1,2,0:0:0:0:
381,324,98460,1,2,0:0:0:0:
316,324,98543,1,2,0:0:0:0:
250,324,98627,1,2,0:0:0:0:
185,324,98710,1,2,0:0:0:0:
120,324,98793,2,0,L|56:324,3,65
497,100,99377,5,8,0:0:0:0:
472,172,99460,1,0,0:0:0:0:
424,232,99543,1,0,0:0:0:0:
372,292,99627,1,0,0:0:0:0:
15,100,99710,1,8,0:0:0:0:
40,172,99793,1,0,0:0:0:0:
88,232,99876,1,0,0:0:0:0:
140,292,99960,1,0,0:0:0:0:
372,292,100043,1,8,0:0:0:0:
424,232,100127,1,0,0:0:0:0:
472,172,100210,1,0,0:0:0:0:
497,100,100293,1,0,0:0:0:0:
140,292,100377,2,8,L|80:232,1,77.999997619629
372,292,100543,2,0,L|431:232,1,77.999997619629
224,88,100710,5,8,0:0:0:0:
80,89,100793,2,0,L|25:34,2,77.999997619629
288,88,101043,1,8,0:0:0:0:
432,89,101127,2,0,L|487:34,2,77.999997619629
31,220,101377,1,8,0:0:0:0:
77,220,101460,1,0,0:0:0:0:
123,220,101543,1,0,0:0:0:0:
169,220,101626,1,0,0:0:0:0:
481,220,101710,2,8,L|442:153,1,77.999997619629
31,220,101877,2,0,L|69:153,1,77.999997619629
319,152,102043,5,8,0:0:0:0:
397,152,102127,1,0,0:0:0:0:
474,152,102210,1,0,0:0:0:0:
419,206,102293,1,0,0:0:0:0:
193,152,102377,1,8,0:0:0:0:
115,152,102461,1,0,0:0:0:0:
38,152,102544,1,0,0:0:0:0:
93,206,102627,1,0,0:0:0:0:
348,277,102710,2,8,L|309:209,1,77.999997619629
164,277,102877,2,0,L|203:209,1,77.999997619629
348,277,103043,2,8,L|309:209,1,77.999997619629
164,277,103210,2,0,L|203:209,1,77.999997619629
390,209,103377,6,2,L|469:71,1,155.999995239258
373,73,103627,1,2,0:0:0:0:
122,209,103710,2,2,L|42:71,1,155.999995239258
138,74,103960,1,2,0:0:0:0:
319,33,104043,5,8,0:0:0:0:
394,54,104127,1,0,0:0:0:0:
449,109,104210,1,0,0:0:0:0:
469,184,104293,1,0,0:0:0:0:
193,351,104376,1,8,0:0:0:0:
118,330,104460,1,0,0:0:0:0:
63,275,104543,1,0,0:0:0:0:
43,200,104626,1,0,0:0:0:0:
398,232,104710,6,8,L|473:211,1,77.999997619629
318,232,104877,2,0,L|242:252,1,77.999997619629
398,232,105043,2,8,L|473:211,1,77.999997619629
318,232,105210,2,0,L|242:252,1,77.999997619629
416,157,105377,1,8,0:0:0:0:
361,126,105460,1,0,0:0:0:0:
307,94,105543,1,0,0:0:0:0:
252,63,105627,1,0,0:0:0:0:
92,68,105710,2,8,L|36:124,1,77.999997619629
420,316,105877,2,8,L|476:260,1,77.999997619629
114,152,106043,6,8,L|38:172,1,77.999997619629
194,152,106210,2,0,L|269:131,1,77.999997619629
114,152,106376,2,8,L|38:172,1,77.999997619629
194,152,106543,2,0,L|269:131,1,77.999997619629
96,227,106710,1,8,0:0:0:0:
151,258,106793,1,0,0:0:0:0:
205,290,106876,1,0,0:0:0:0:
260,321,106960,1,0,0:0:0:0:
420,316,107043,2,8,L|475:260,1,77.999997619629
92,68,107210,2,8,L|36:123,1,77.999997619629
344,312,107377,6,8,L|413:272,1,77.999997619629
466,217,107543,1,0,0:0:0:0:
242,285,107627,1,0,0:0:0:0:
188,231,107710,1,8,0:0:0:0:
256,192,107794,1,0,0:0:0:0:
324,153,107877,1,0,0:0:0:0:
392,114,107960,1,0,0:0:0:0:
168,72,108043,6,8,L|98:112,1,77.999997619629
44,166,108210,1,0,0:0:0:0:
269,285,108293,1,0,0:0:0:0:
324,231,108376,1,8,0:0:0:0:
256,192,108460,1,0,0:0:0:0:
188,153,108543,1,0,0:0:0:0:
120,114,108626,1,0,0:0:0:0:
328,348,108710,6,2,L|474:263,1,168.999992263794
184,36,108960,2,2,L|38:121,1,168.999992263794
328,348,109210,2,2,L|474:263,1,168.999992263794
411,262,109460,1,0,0:0:0:0:
348,262,109543,1,0,0:0:0:0:
285,262,109627,1,0,0:0:0:0:
222,262,109710,1,8,0:0:0:0:
152,262,109793,1,0,0:0:0:0:
81,262,109877,1,0,0:0:0:0:
11,262,109960,1,0,0:0:0:0:
181,284,110043,5,8,0:0:0:0:
331,284,110293,1,8,0:0:0:0:
181,284,110543,1,8,0:0:0:0:
331,284,110793,2,8,L|331:88,1,195
181,284,111210,1,8,0:0:0:0:
376,284,111377,2,2,L|488:217,1,130
88,80,111710,2,2,L|63:18,3,65
184,288,112043,2,2,L|208:349,3,65
88,80,112377,2,2,L|63:18,3,65
256,192,112710,5,8,0:0:0:0:
141,284,112960,1,8,0:0:0:0:
371,284,113210,2,8,L|371:89,1,195
141,284,113709,1,8,0:0:0:0:
371,284,113877,1,8,0:0:0:0:
136,284,114043,2,2,L|24:217,1,130
424,80,114377,2,2,L|449:18,3,65
328,288,114710,2,2,L|304:349,3,65
424,80,115044,2,2,L|449:18,3,65
256,192,115377,5,8,0:0:0:0:
102,284,115627,1,8,0:0:0:0:
410,284,115877,1,8,0:0:0:0:
102,284,116127,2,8,L|101:89,1,195
410,284,116543,1,8,0:0:0:0:
312,192,116710,2,2,L|374:174,3,65
324,191,117043,2,2,L|261:208,3,65
205,192,117377,2,2,L|267:174,3,65
217,191,117710,2,2,L|154:208,3,65
63,284,118043,5,8,0:0:0:0:
449,284,118293,1,8,0:0:0:0:
63,284,118543,2,8,L|64:86,1,195
449,284,119043,1,8,0:0:0:0:
256,284,119210,1,8,0:0:0:0:
408,152,119377,5,10,0:0:0:0:
343,152,119460,1,2,0:0:0:0:
278,152,119543,1,2,0:0:0:0:
212,152,119627,1,2,0:0:0:0:
104,232,119710,1,10,0:0:0:0:
169,232,119793,1,2,0:0:0:0:
234,232,119876,1,2,0:0:0:0:
300,232,119960,1,2,0:0:0:0:
408,152,120043,1,10,0:0:0:0:
343,152,120126,1,2,0:0:0:0:
278,152,120209,1,2,0:0:0:0:
212,152,120293,1,2,0:0:0:0:
146,152,120377,1,0,0:0:0:0:
496,232,120543,1,0,0:0:0:0:
