osu file format v12

[General]
AudioFilename: FLOWER REDALiCE Remix.mp3
AudioLeadIn: 0
PreviewTime: 54043
Countdown: 0
SampleSet: Soft
StackLeniency: 0.7
Mode: 2
LetterboxInBreaks: 1
WidescreenStoryboard: 1

[Editor]
DistanceSpacing: 1.2
BeatDivisor: 4
GridSize: 8
TimelineZoom: 0.9999994

[Metadata]
Title:FLOWER REDALiCE Remix
TitleUnicode:FLOWER REDALiCE Remix
Artist:REDALiCE
ArtistUnicode:REDALiCE
Creator:INO
Version:Salad
Source:SOUND VOLTEX BOOTH
Tags:sdvx konami bemani sionKotori
BeatmapID:406410
BeatmapSetID:145194

[Difficulty]
HPDrainRate:5
CircleSize:3
OverallDifficulty:7
ApproachRate:7
SliderMultiplier:1.4
SliderTickRate:1

[Events]
//Background and Video events
0,0,"19047732.jpg",0,0
//Break Periods
2,88910,93143
//Storyboard Layer 0 (Background)
//Storyboard Layer 1 (Fail)
//Storyboard Layer 2 (Pass)
//Storyboard Layer 3 (Foreground)
//Storyboard Sound Samples
//Background Colour Transformations
3,100,163,162,255

[TimingPoints]
2044,333.333333333333,4,2,0,90,1,0
7377,-100,4,1,0,65,0,0
9377,-100,4,1,0,80,0,0
10043,-100,4,1,0,65,0,0
11377,-100,4,1,0,80,0,0
12710,-100,4,1,0,65,0,0
14710,-100,4,1,0,80,0,0
15377,-100,4,1,0,65,0,0
16710,-100,4,1,0,80,0,0
17960,-100,4,2,0,80,0,0
20627,-125,4,2,0,70,0,0
24543,-125,4,2,0,70,0,0
25877,-125,4,2,0,50,0,0
26043,-125,4,2,0,70,0,0
30043,-125,4,2,0,70,0,0
31377,-125,4,2,0,70,0,0
35210,-125,4,2,0,70,0,0
36543,-125,4,2,0,50,0,0
36710,-125,4,2,0,60,0,0
37377,-125,4,2,0,90,0,0
38043,-125,4,2,0,60,0,0
38710,-125,4,2,0,90,0,0
39377,-125,4,2,0,60,0,0
39543,-125,4,2,0,90,0,0
40043,-125,4,2,0,60,0,0
40210,-125,4,2,0,90,0,0
40710,-125,4,2,0,60,0,0
42043,-100,4,1,0,55,0,0
43377,-100,4,1,0,75,0,0
44710,-100,4,1,0,55,0,0
46043,-100,4,1,0,75,0,0
47377,-100,4,1,0,55,0,0
48710,-100,4,1,0,75,0,0
50043,-100,4,1,0,60,0,0
51293,-100,4,1,0,50,0,0
51543,-100,4,1,0,5,0,0
51627,-100,4,1,0,50,0,0
51793,-100,4,1,0,5,0,0
51877,-100,4,1,0,50,0,0
52043,-100,4,1,0,10,0,0
52127,-100,4,1,0,60,0,0
52293,-100,4,1,0,5,0,0
52377,-100,4,1,0,60,0,0
52543,-100,4,1,0,5,0,0
52710,-100,4,1,0,40,0,0
54043,-100,4,1,0,60,0,1
54793,-100,4,1,0,5,0,1
54877,-100,4,1,0,60,0,1
55127,-100,4,1,0,5,0,1
55210,-100,4,1,0,60,0,1
56127,-100,4,1,0,5,0,1
56210,-100,4,1,0,60,0,1
56460,-100,4,1,0,5,0,1
56543,-100,4,1,0,60,0,1
57460,-100,4,1,0,5,0,1
57543,-100,4,1,0,60,0,1
57793,-100,4,1,0,5,0,1
57877,-100,4,1,0,60,0,1
58043,-100,4,1,0,80,0,1
58710,-100,4,1,0,60,0,1
59127,-100,4,1,0,5,0,1
59210,-100,4,1,0,60,0,1
60127,-100,4,1,0,5,0,1
60210,-100,4,1,0,60,0,1
60460,-100,4,1,0,5,0,1
60543,-100,4,1,0,60,0,1
61460,-100,4,1,0,5,0,1
61543,-100,4,1,0,60,0,1
61793,-100,4,1,0,5,0,1
61877,-100,4,1,0,50,0,1
62127,-100,4,1,0,5,0,1
62210,-100,4,1,0,50,0,1
62293,-100,4,1,0,5,0,1
62377,-100,4,1,0,50,0,1
62460,-100,4,1,0,5,0,1
62543,-100,4,1,0,50,0,1
62627,-100,4,1,0,5,0,1
62710,-100,4,1,0,60,0,1
62793,-100,4,1,0,5,0,1
62877,-100,4,1,0,60,0,1
62960,-100,4,1,0,5,0,1
63043,-100,4,1,0,60,0,1
63127,-100,4,1,0,5,0,1
63210,-100,4,1,0,60,0,1
63293,-100,4,1,0,5,0,1
63377,-100,4,1,0,80,0,1
64960,-100,4,1,0,5,0,1
65043,-100,4,1,0,60,0,1
65460,-100,4,1,0,5,0,1
65543,-100,4,1,0,60,0,1
65793,-100,4,1,0,5,0,1
65877,-100,4,1,0,60,0,1
66293,-100,4,1,0,5,0,1
66377,-100,4,1,0,60,0,1
66793,-100,4,1,0,5,0,1
66877,-100,4,1,0,60,0,1
67127,-100,4,1,0,5,0,1
67210,-100,4,1,0,60,0,1
68127,-100,4,1,0,5,0,1
68210,-100,4,1,0,60,0,1
68460,-100,4,1,0,5,0,1
68543,-100,4,1,0,60,0,1
68710,-100,4,1,0,80,0,1
69377,-100,4,1,0,60,0,1
69793,-100,4,1,0,5,0,1
69877,-100,4,1,0,50,0,1
70710,-100,4,1,0,80,0,1
71377,-100,4,1,0,60,0,1
72043,-100,4,1,0,80,0,1
72710,-100,4,1,0,65,0,1
73043,-100,4,1,0,60,0,1
73460,-100,4,1,0,65,0,1
73710,-100,4,1,0,60,0,1
74043,-100,4,1,0,80,0,1
74793,-100,4,1,0,60,0,1
75377,-100,4,2,0,80,0,0
78043,-100,4,1,0,55,0,0
80043,-100,4,1,0,70,0,0
80710,-100,4,1,0,55,0,0
82043,-100,4,1,0,80,0,0
83377,-100,4,1,0,55,0,0
85377,-100,4,1,0,80,0,0
85627,-100,4,1,0,20,0,0
85710,-100,4,1,0,80,0,0
85960,-100,4,1,0,20,0,0
86043,-100,4,1,0,55,0,0
87377,-100,4,1,0,80,0,0
94043,-100,4,1,0,80,0,0
94543,-100,4,1,0,60,0,0
94710,-100,4,1,0,80,0,0
95210,-100,4,1,0,60,0,0
95377,-100,4,1,0,65,0,0
95543,-100,4,1,0,60,0,0
95710,-100,4,1,0,65,0,0
95877,-100,4,1,0,60,0,0
96043,-100,4,1,0,65,0,0
96210,-100,4,1,0,60,0,0
96377,-100,4,1,0,65,0,0
96543,-100,4,1,0,60,0,0
96710,-100,4,1,0,60,0,0
96793,-100,4,1,0,25,0,0
96877,-100,4,1,0,60,0,0
97127,-100,4,1,0,25,0,0
97210,-100,4,1,0,60,0,0
97460,-100,4,1,0,25,0,0
97543,-100,4,1,0,60,0,0
97793,-100,4,1,0,25,0,0
97877,-100,4,1,0,60,0,0
99377,-100,4,1,0,60,0,1
100460,-100,4,1,0,5,0,1
100543,-100,4,1,0,60,0,1
101793,-100,4,1,0,5,0,1
101877,-100,4,1,0,60,0,1
102793,-100,4,1,0,5,0,1
102877,-100,4,1,0,60,0,1
103127,-100,4,1,0,5,0,1
103210,-100,4,1,0,60,0,1
103377,-100,4,1,0,80,0,1
103960,-100,4,1,0,80,0,1
104043,-100,4,1,0,60,0,1
104793,-100,4,1,0,5,0,1
104877,-100,4,1,0,60,0,1
105127,-100,4,1,0,5,0,1
105210,-100,4,1,0,60,0,1
105793,-100,4,1,0,5,0,1
105877,-100,4,1,0,60,0,1
106127,-100,4,1,0,5,0,1
106210,-100,4,1,0,60,0,1
106460,-100,4,1,0,5,0,1
106543,-100,4,1,0,60,0,1
107127,-100,4,1,0,5,0,1
107210,-100,4,1,0,60,0,1
107460,-100,4,1,0,5,0,1
107543,-100,4,1,0,60,0,1
108127,-100,4,1,0,5,0,1
108210,-100,4,1,0,60,0,1
108710,-100,4,1,0,80,0,1
109460,-100,4,1,0,60,0,1
110043,-100,4,2,0,65,0,0
111377,-100,4,2,0,80,0,0
112710,-100,4,2,0,65,0,0
114043,-100,4,2,0,80,0,0
115377,-100,4,2,0,65,0,0
116710,-100,4,2,0,80,0,0
118043,-100,4,2,0,65,0,0
119377,-100,4,2,0,55,0,0

[Colours]
Combo1 : 255,0,128
Combo2 : 255,0,0
Combo3 : 128,255,255
Combo4 : 0,255,0

[HitObjects]
360,336,2043,6,0,L|80:336,1,280
179,193,3043,1,0,0:0:0:0:
80,48,3377,2,0,L|360:48,1,280
261,147,4377,1,0,0:0:0:0:
400,240,4710,6,0,L|400:99,1,140
112,144,5377,2,0,L|112:285,1,140
256,192,6043,12,0,7043,0:0:0:0:
400,312,7377,6,0,L|256:312,1,140
92,312,8043,2,0,L|92:168,1,140
260,172,8710,1,0,0:0:0:0:
427,172,9043,1,0,0:0:0:0:
217,56,9377,6,0,L|74:56,2,140
385,56,10377,1,0,0:0:0:0:
301,154,10710,1,0,0:0:0:0:
469,154,11044,1,0,0:0:0:0:
387,278,11377,6,0,L|106:278,2,280
219,193,13043,1,0,0:0:0:0:
50,193,13377,2,0,L|87:52,1,140
253,57,14043,1,0,0:0:0:0:
421,57,14377,1,0,0:0:0:0:
328,152,14710,6,0,L|187:152,2,140
152,257,15710,1,0,0:0:0:0:
319,257,16043,1,0,0:0:0:0:
487,257,16377,1,0,0:0:0:0:
376,128,16710,2,0,L|232:128,1,140
60,128,17377,2,0,L|200:128,1,140
256,192,18043,12,0,20377,0:0:0:0:
88,336,20710,6,0,L|312:336,1,224
446,336,21710,1,0,0:0:0:0:
312,192,22043,2,0,L|88:192,1,224
222,57,23043,1,0,0:0:0:0:
446,57,23377,2,0,L|222:57,1,224
349,192,24377,5,0,0:0:0:0:
349,192,24543,1,0,0:0:0:0:
112,112,24877,1,0,0:0:0:0:
256,192,25210,1,0,0:0:0:0:
112,272,25543,1,0,0:0:0:0:
386,111,26043,6,0,P|452:195|386:271,1,224
386,271,27043,1,0,0:0:0:0:
256,192,27210,1,0,0:0:0:0:
126,111,27377,2,0,P|60:195|126:271,1,224
368,192,28377,1,0,0:0:0:0:
434,192,28543,1,0,0:0:0:0:
368,192,28710,6,0,L|142:192,1,224
76,107,29710,1,0,0:0:0:0:
143,192,29877,1,0,0:0:0:0:
76,277,30043,2,0,L|300:277,1,224
354,266,30877,1,0,0:0:0:0:
401,234,31043,1,0,0:0:0:0:
432,188,31210,1,0,0:0:0:0:
443,133,31377,6,0,L|385:34,1,112
256,40,31877,1,0,0:0:0:0:
125,36,32043,2,0,L|69:133,1,112
313,232,32710,2,0,L|313:174,1,56
198,152,33043,2,0,L|197:209,1,56
82,232,33377,2,0,P|128:288|168:304,1,112
364,302,34043,6,0,L|365:191,1,112
437,117,34543,1,0,0:0:0:0:
365,44,34710,1,0,0:0:0:0:
147,340,35043,1,0,0:0:0:0:
147,340,35210,1,0,0:0:0:0:
400,272,35543,1,0,0:0:0:0:
256,192,35876,1,0,0:0:0:0:
112,112,36210,1,0,0:0:0:0:
376,56,36710,6,0,L|430:70,1,56
168,128,37210,2,0,L|222:143,1,56
379,336,37710,1,0,0:0:0:0:
136,328,38043,2,0,L|82:314,1,56
344,256,38543,2,0,L|290:241,1,56
133,48,39043,1,0,0:0:0:0:
256,301,39376,5,0,0:0:0:0:
178,268,39542,1,0,0:0:0:0:
144,192,39709,1,0,0:0:0:0:
178,113,39875,1,0,0:0:0:0:
256,80,40041,1,0,0:0:0:0:
332,113,40209,1,0,0:0:0:0:
365,192,40375,1,0,0:0:0:0:
332,268,40543,1,0,0:0:0:0:
256,301,40710,2,0,L|31:300,1,224
111,220,41543,1,0,0:0:0:0:
31,140,41710,1,0,0:0:0:0:
110,60,41877,1,0,0:0:0:0:
256,140,42043,5,0,0:0:0:0:
328,344,43377,2,0,L|398:222,1,140
184,40,44043,2,0,L|114:162,1,140
336,192,44710,5,0,0:0:0:0:
176,264,46043,6,0,L|85:316,2,105
336,120,46710,2,0,L|426:67,2,105
190,100,47377,5,0,0:0:0:0:
71,198,47627,1,0,0:0:0:0:
217,248,47877,1,0,0:0:0:0:
338,150,48210,2,0,L|410:132,2,70
448,336,48710,5,0,0:0:0:0:
365,314,48877,1,0,0:0:0:0:
284,292,49043,1,0,0:0:0:0:
202,270,49210,1,0,0:0:0:0:
64,48,49377,1,0,0:0:0:0:
147,70,49544,1,0,0:0:0:0:
228,92,49710,1,0,0:0:0:0:
310,114,49877,1,0,0:0:0:0:
256,192,50043,5,0,0:0:0:0:
456,138,50543,1,0,0:0:0:0:
55,245,51043,1,0,0:0:0:0:
304,304,51377,2,0,L|408:304,1,105
232,192,51877,2,0,L|336:192,1,105
160,80,52377,1,0,0:0:0:0:
256,192,52710,12,0,53710,0:0:0:0:
424,344,54043,6,0,L|424:200,1,140
184,233,54710,1,0,0:0:0:0:
256,192,54877,1,0,0:0:0:0:
327,150,55043,1,0,0:0:0:0:
72,32,55377,6,0,L|216:32,1,140
440,352,56043,2,0,L|296:352,1,140
96,256,56710,6,0,P|64:192|96:136,1,140
312,64,57376,1,0,0:0:0:0:
400,100,57543,1,0,0:0:0:0:
437,189,57709,1,0,0:0:0:0:
400,278,57876,1,0,0:0:0:0:
311,315,58043,6,0,L|203:315,1,105
56,192,58543,1,0,0:0:0:0:
201,69,58710,2,0,L|309:69,1,105
456,192,59210,1,0,0:0:0:0:
344,128,59377,5,0,0:0:0:0:
163,254,59710,1,0,0:0:0:0:
363,347,60043,2,0,L|363:208,1,140
104,88,60710,5,0,0:0:0:0:
256,200,61043,1,0,0:0:0:0:
56,296,61377,2,0,L|199:296,1,140
456,296,62043,6,0,L|313:296,1,140
384,192,62543,1,0,0:0:0:0:
456,88,62710,2,0,L|313:88,1,140
256,192,63377,12,0,64377,0:0:0:0:
160,96,64710,6,0,L|124:33,2,70
11,244,65377,1,0,0:0:0:0:
214,298,65710,1,0,0:0:0:0:
419,242,66043,6,0,L|455:305,2,70
104,40,66710,1,0,0:0:0:0:
328,40,67043,1,0,0:0:0:0:
256,256,67377,6,0,L|256:328,1,70
129,192,67710,2,0,L|129:262,1,70
256,128,68043,2,0,L|256:56,1,70
383,192,68377,2,0,L|383:122,1,70
256,56,68710,6,0,L|144:56,2,105
144,328,69377,2,0,L|39:328,2,105
283,328,70043,6,0,L|419:290,1,140
280,192,70543,1,0,0:0:0:0:
418,92,70710,2,0,L|283:56,1,140
93,92,71377,6,0,L|229:56,1,140
440,192,72043,1,0,0:0:0:0:
229,328,72377,1,0,0:0:0:0:
452,328,72710,6,0,L|376:328,3,70
312,186,73377,2,0,L|241:186,3,70
102,186,74043,1,0,0:0:0:0:
256,48,74293,1,0,0:0:0:0:
410,186,74543,1,0,0:0:0:0:
328,304,74710,2,0,L|184:304,1,140
256,192,75377,12,0,77710,0:0:0:0:
104,64,78043,6,0,L|248:64,1,140
440,64,78710,2,0,L|440:208,1,140
243,204,79377,2,0,L|100:204,2,140
409,308,80377,1,0,0:0:0:0:
213,308,80710,5,0,0:0:0:0:
88,192,81043,1,0,0:0:0:0:
336,192,81377,1,0,0:0:0:0:
213,76,81710,1,0,0:0:0:0:
464,192,82043,6,0,L|183:192,2,280
256,48,83710,1,0,0:0:0:0:
48,192,84043,1,0,0:0:0:0:
256,336,84377,1,0,0:0:0:0:
120,105,84710,1,0,0:0:0:0:
152,144,84877,1,0,0:0:0:0:
168,192,85043,1,0,0:0:0:0:
152,240,85210,1,0,0:0:0:0:
120,278,85377,1,0,0:0:0:0:
392,106,85710,1,0,0:0:0:0:
208,48,86043,6,0,L|83:120,1,140
264,192,86710,1,0,0:0:0:0:
104,304,87043,1,0,0:0:0:0:
408,304,87377,2,0,L|267:61,2,280
387,156,94043,5,0,0:0:0:0:
124,227,94710,1,0,0:0:0:0:
443,300,95377,1,0,0:0:0:0:
321,230,95710,1,0,0:0:0:0:
200,160,96043,1,0,0:0:0:0:
78,89,96377,1,0,0:0:0:0:
301,89,96710,5,0,0:0:0:0:
338,108,96877,1,0,0:0:0:0:
368,137,97043,1,0,0:0:0:0:
387,175,97210,1,0,0:0:0:0:
211,295,97377,1,0,0:0:0:0:
174,276,97544,1,0,0:0:0:0:
144,247,97710,1,0,0:0:0:0:
125,209,97877,1,0,0:0:0:0:
256,192,98043,12,0,99043,0:0:0:0:
256,336,99377,6,0,L|400:336,1,140
192,192,100043,1,0,0:0:0:0:
396,48,100377,1,0,0:0:0:0:
256,48,100710,6,0,L|184:48,2,70
72,112,101377,2,0,L|72:256,1,140
323,252,102043,6,0,L|393:130,1,140
256,192,102543,1,0,0:0:0:0:
119,253,102710,2,0,L|189:132,1,140
336,48,103377,6,0,L|441:48,2,105
176,336,104043,2,0,L|71:336,2,105
71,192,104710,5,0,0:0:0:0:
256,56,105043,1,0,0:0:0:0:
441,192,105377,2,0,L|368:192,2,70
141,332,106043,5,0,0:0:0:0:
371,332,106377,1,0,0:0:0:0:
256,52,106710,1,0,0:0:0:0:
188,62,106877,1,0,0:0:0:0:
127,93,107044,1,0,0:0:0:0:
79,141,107211,1,0,0:0:0:0:
48,201,107376,5,0,0:0:0:0:
464,201,108043,1,0,0:0:0:0:
104,344,108710,6,0,L|208:344,1,105
408,344,109210,1,0,0:0:0:0:
256,192,109377,2,0,L|256:120,2,70
340,192,109877,1,0,0:0:0:0:
172,192,110043,5,0,0:0:0:0:
256,360,110293,1,0,0:0:0:0:
448,192,110543,1,0,0:0:0:0:
256,24,110793,1,0,0:0:0:0:
64,192,111043,2,0,L|136:192,1,70
256,192,111377,12,0,112543,0:0:0:0:
96,336,112710,5,0,0:0:0:0:
264,336,112960,1,0,0:0:0:0:
176,192,113210,1,0,0:0:0:0:
344,192,113460,1,0,0:0:0:0:
264,40,113710,2,0,L|336:40,1,70
256,192,114043,12,0,115209,0:0:0:0:
184,307,115377,5,0,0:0:0:0:
327,307,115627,1,0,0:0:0:0:
142,189,115877,1,0,0:0:0:0:
368,189,116127,1,0,0:0:0:0:
256,88,116377,2,0,L|256:160,1,70
256,192,116710,12,0,117876,0:0:0:0:
352,296,118043,6,0,L|378:195,1,105
163,86,118543,2,0,L|135:187,1,105
256,192,119043,1,0,0:0:0:0:
256,192,119210,1,0,0:0:0:0:
256,192,119377,12,0,120710,0:0:0:0:
