osu file format v12

[General]
AudioFilename: FLOWER REDALiCE Remix.mp3
AudioLeadIn: 0
PreviewTime: 54043
Countdown: 0
SampleSet: None
StackLeniency: 0.7
Mode: 2
LetterboxInBreaks: 1
WidescreenStoryboard: 1

[Editor]
Bookmarks: 77377
DistanceSpacing: 1.5
BeatDivisor: 4
GridSize: 4
TimelineZoom: 2.799999

[Metadata]
Title:FLOWER REDALiCE Remix
TitleUnicode:FLOWER REDALiCE Remix
Artist:REDALiCE
ArtistUnicode:REDALiCE
Creator:INO
Version:Overdose
Source:SOUND VOLTEX BOOTH
Tags:sdvx konami bemani sionKotori
BeatmapID:406409
BeatmapSetID:145194

[Difficulty]
HPDrainRate:6
CircleSize:4
OverallDifficulty:9
ApproachRate:9
SliderMultiplier:2.2
SliderTickRate:1

[Events]
//Background and Video events
0,0,"19047732.jpg",0,0
//Break Periods
//Storyboard Layer 0 (Background)
//Storyboard Layer 1 (Fail)
//Storyboard Layer 2 (Pass)
//Storyboard Layer 3 (Foreground)
//Storyboard Sound Samples
//Background Colour Transformations
3,100,163,162,255

[TimingPoints]
2044,333.333333333333,4,1,2,55,1,0
7377,-111.111111111111,4,1,2,55,0,0
18043,-111.111111111111,4,2,2,60,0,0
18377,-111.111111111111,4,2,2,55,0,0
18710,-111.111111111111,4,2,2,50,0,0
19043,-111.111111111111,4,2,2,45,0,0
19377,-111.111111111111,4,1,2,30,0,0
19710,-111.111111111111,4,1,2,35,0,0
20043,-111.111111111111,4,1,2,40,0,0
20377,-111.111111111111,4,1,2,45,0,0
20710,-142.857142857143,4,1,2,45,0,0
30043,-142.857142857143,4,1,2,55,0,0
30377,-142.857142857143,4,1,2,45,0,0
30543,-142.857142857143,4,1,2,55,0,0
31085,-142.857142857143,4,1,2,38,0,0
31377,-142.857142857143,4,1,2,45,0,0
40710,-111.111111111111,4,1,2,45,0,0
42043,-200,4,1,2,45,0,0
43377,-100,4,1,2,55,0,0
44710,-200,4,1,2,45,0,0
46043,-100,4,1,2,55,0,0
47377,-100,4,1,2,45,0,0
48710,-100,4,1,2,55,0,0
52710,-100,4,2,2,50,0,0
53543,-100,4,1,2,60,0,0
54043,-100,4,1,2,60,0,1
64710,-200,4,1,2,40,0,1
65043,-100,4,1,2,60,0,1
75377,-200,4,2,2,50,0,0
78043,-111.111111111111,4,1,2,50,0,0
88710,-133.333333333333,4,1,2,30,0,0
94043,-111.111111111111,4,1,2,45,0,0
99377,-100,4,1,2,60,0,1
110043,-100,4,1,2,55,0,0

[Colours]
Combo1 : 255,0,128
Combo2 : 255,0,0
Combo3 : 128,255,255
Combo4 : 0,255,0

[HitObjects]
164,176,2043,5,0,0:0:0:0:
348,208,2293,1,0,0:0:0:0:
145,172,2543,1,0,0:0:0:0:
366,211,2793,1,0,0:0:0:0:
124,168,3043,1,0,0:0:0:0:
388,216,3210,1,0,0:0:0:0:
16,192,3377,5,0,0:0:0:0:
16,192,3627,1,0,0:0:0:0:
256,192,3877,1,0,0:0:0:0:
256,192,4127,1,0,0:0:0:0:
496,192,4377,1,0,0:0:0:0:
496,192,4543,1,0,0:0:0:0:
104,232,4710,6,0,L|228:340,2,165
408,152,5377,2,0,L|284:44,2,165
176,168,6043,6,0,P|232:164|284:176,1,110
192,236,6293,2,0,P|128:244|72:224,1,110
208,160,6543,2,0,P|272:144|304:152,1,82.5
328,160,6710,2,0,L|360:168,3,27.5
288,216,6877,2,0,L|416:216,1,110
400,216,7377,5,0,0:0:0:0:
252,100,7543,2,0,L|188:100,2,49.4999984893799
352,128,7877,1,0,0:0:0:0:
176,264,8043,2,0,L|68:212,1,98.9999969787599
336,120,8377,2,0,L|444:172,1,98.9999969787599
176,264,8710,6,0,P|128:236|124:204,1,74.2499977340699
108,176,8877,2,0,L|64:176,3,24.74999924469
160,136,9043,2,0,L|204:136,3,24.74999924469
108,96,9210,2,0,L|36:96,1,49.4999984893799
204,60,9377,2,0,P|280:52|392:68,1,148.49999546814
512,168,9710,2,0,P|436:176|324:160,1,148.49999546814
204,60,10043,5,0,0:0:0:0:
296,124,10210,2,0,L|240:124,2,49.4999984893799
136,188,10543,1,0,0:0:0:0:
312,196,10710,2,0,L|416:192,1,98.9999969787599
184,304,11043,2,0,L|288:300,1,98.9999969787599
64,264,11377,6,0,L|40:108,1,148.49999546814
228,216,11710,2,0,L|252:60,1,148.49999546814
168,48,12043,1,0,0:0:0:0:
480,216,12210,2,0,L|452:20,1,197.99999395752
312,116,12710,5,0,0:0:0:0:
168,204,12877,2,0,L|112:208,2,49.4999984893799
328,232,13210,1,0,0:0:0:0:
172,280,13377,1,0,0:0:0:0:
364,268,13543,2,0,P|440:256|432:120,1,197.99999395752
288,108,14043,6,0,L|192:112,1,74.2499977340699
148,112,14210,2,0,L|124:108,3,24.74999924469
208,172,14377,2,0,L|257:172,3,49.4999984893799
168,188,14710,2,0,B|84:192|84:192|164:192,1,148.49999546814
300,216,15043,2,0,B|384:212|384:212|304:212,1,148.49999546814
228,248,15377,5,0,0:0:0:0:
336,284,15543,2,0,L|392:288,2,49.4999984893799
164,304,15877,2,0,L|108:300,2,49.4999984893799
288,316,16210,1,0,0:0:0:0:
140,240,16377,2,0,L|36:224,1,98.9999969787599
180,172,16710,6,0,L|208:12,1,148.49999546814
408,168,17043,2,0,L|380:8,1,148.49999546814
460,24,17377,1,0,0:0:0:0:
192,216,17543,2,0,L|140:20,1,197.99999395752
48,44,18043,6,0,L|76:52,1,24.74999924469
56,60,18127,2,0,L|84:68,1,24.74999924469
68,84,18210,2,0,L|96:92,1,24.74999924469
76,104,18294,2,0,L|104:112,1,24.74999924469
88,140,18377,2,0,L|116:148,1,24.74999924469
96,156,18461,2,0,L|124:164,1,24.74999924469
108,180,18544,2,0,L|136:188,1,24.74999924469
116,200,18628,2,0,L|144:208,1,24.74999924469
172,120,18710,6,0,L|200:128,1,24.74999924469
180,136,18794,2,0,L|208:144,1,24.74999924469
192,160,18877,2,0,L|220:168,1,24.74999924469
200,180,18961,2,0,L|228:188,1,24.74999924469
212,216,19044,2,0,L|240:224,1,24.74999924469
220,232,19128,2,0,L|248:240,1,24.74999924469
232,256,19211,2,0,L|260:264,1,24.74999924469
240,276,19293,2,0,L|268:284,1,24.74999924469
332,312,19377,6,0,L|388:280,3,49.4999984893799
392,216,19710,2,0,L|448:184,3,49.4999984893799,0|0|0|0,0:0|0:0|0:0|0:0,0:0:0:0:
464,132,20043,2,0,L|520:100,3,49.4999984893799,0|0|0|0,0:0|0:0|0:0|0:0,0:0:0:0:
316,88,20377,1,0,0:0:0:0:
316,88,20710,6,0,P|240:128|32:76,1,307.999990600586
132,164,21710,1,0,0:0:0:0:
256,168,21877,1,0,0:0:0:0:
88,244,22043,2,0,L|-8:248,2,76.9999976501466
312,284,22710,2,0,P|268:316|160:292,1,153.999995300293
80,312,23210,1,0,0:0:0:0:
196,296,23377,6,0,P|272:256|440:284,1,230.99999295044
512,284,24043,1,0,0:0:0:0:
328,140,24377,1,0,0:0:0:0:
188,188,24543,2,0,L|216:264,1,76.9999976501466
324,188,24877,2,0,L|296:264,1,76.9999976501466
148,188,25210,2,0,L|176:264,1,76.9999976501466
364,188,25543,2,0,L|336:264,1,76.9999976501466
148,188,25877,1,0,0:0:0:0:
272,116,26043,6,0,P|340:88|464:252,1,307.999990600586
336,252,27043,1,0,0:0:0:0:
456,260,27210,1,0,0:0:0:0:
304,288,27377,2,0,L|196:288,2,76.9999976501466
224,208,28043,2,0,P|168:208|64:248,1,153.999995300293
168,92,28710,6,0,P|216:112|328:72,1,153.999995300293
452,84,29210,1,0,0:0:0:0:
312,84,29377,2,0,P|256:116|316:144,1,153.999995300293
184,188,29877,1,0,0:0:0:0:
328,168,30043,6,0,L|284:332,1,153.999995300293
160,336,30543,2,0,L|112:336,2,38.4999988250733
340,316,30877,1,0,0:0:0:0:
200,260,31043,2,0,L|168:260,7,19.2499994125366
200,260,31377,6,0,P|280:276|420:192,1,230.99999295044
280,180,32043,2,0,L|92:172,1,153.999995300293
312,56,32710,2,0,L|456:60,2,115.49999647522
416,160,33377,2,0,P|336:176|240:152,1,153.999995300293
140,272,34043,2,0,P|220:256|316:280,1,153.999995300293
416,268,34543,1,0,0:0:0:0:
296,268,34710,1,0,0:0:0:0:
296,268,35043,6,0,L|208:268,1,76.9999976501466
304,192,35377,2,0,L|336:112,1,76.9999976501466
208,192,35710,2,0,L|176:112,1,76.9999976501466
328,192,36043,2,0,L|360:112,1,76.9999976501466
184,192,36377,2,0,L|152:112,1,76.9999976501466
272,188,36710,6,0,P|344:164|384:204,2,115.49999647522
416,260,37377,2,0,P|452:196|408:104,1,153.999995300293
388,100,37793,1,0,0:0:0:0:
336,104,37877,1,0,0:0:0:0:
296,140,37960,1,0,0:0:0:0:
288,192,38043,6,0,L|192:200,1,76.9999976501466
132,272,38293,2,0,L|228:264,1,76.9999976501466
292,320,38543,2,0,L|232:328,1,38.4999988250733
100,276,38710,2,0,L|276:256,1,153.999995300293
120,208,39210,1,0,0:0:0:0:
352,168,39377,5,0,0:0:0:0:
424,168,39543,1,0,0:0:0:0:
264,128,39710,1,0,0:0:0:0:
336,128,39876,1,0,0:0:0:0:
180,88,40043,1,0,0:0:0:0:
252,88,40209,1,0,0:0:0:0:
92,48,40376,1,0,0:0:0:0:
164,48,40542,1,0,0:0:0:0:
8,136,40710,5,0,0:0:0:0:
8,136,40793,1,0,0:0:0:0:
8,136,40877,1,0,0:0:0:0:
152,204,41043,2,0,L|92:204,1,49.4999984893799
260,252,41210,2,0,L|320:252,1,49.4999984893799
152,204,41377,6,0,L|152:256,1,49.4999984893799
360,204,41543,2,0,L|360:256,1,49.4999984893799
256,184,41710,2,0,L|232:184,3,24.74999924469
256,200,41877,2,0,L|280:200,3,24.74999924469
256,104,42043,6,0,P|228:112|304:124,1,330
140,128,43210,1,0,0:0:0:0:
280,80,43377,5,0,0:0:0:0:
156,136,43543,2,0,L|104:160,1,55
356,136,43793,2,0,L|408:160,1,55
240,208,44043,1,0,0:0:0:0:
388,212,44210,1,0,0:0:0:0:
208,268,44377,1,0,0:0:0:0:
480,280,44543,1,0,0:0:0:0:
480,280,44627,1,0,0:0:0:0:
480,280,44710,6,0,P|456:316|324:184,1,330
472,184,45877,1,0,0:0:0:0:
312,176,46043,6,0,L|400:176,1,55
112,92,46293,2,0,L|200:92,1,55,0|0,0:0|0:0,0:0:0:0:
400,92,46543,2,0,L|312:92,1,55,0|0,0:0|0:0,0:0:0:0:
256,108,46710,1,0,0:0:0:0:
404,196,46877,1,0,0:0:0:0:
236,260,47043,2,0,L|208:260,1,27.5
204,224,47127,2,0,L|176:224,1,27.5
212,196,47210,2,0,L|240:196,1,27.5
244,160,47294,2,0,L|272:160,1,27.5
236,116,47377,5,0,0:0:0:0:
436,116,47627,1,0,0:0:0:0:
236,116,47877,1,0,0:0:0:0:
216,104,48210,1,0,0:0:0:0:
376,168,48377,1,0,0:0:0:0:
160,200,48543,1,0,0:0:0:0:
448,248,48710,5,0,0:0:0:0:
316,272,48877,1,0,0:0:0:0:
316,272,48960,1,0,0:0:0:0:
188,292,49127,1,0,0:0:0:0:
188,292,49210,1,0,0:0:0:0:
64,312,49377,1,0,0:0:0:0:
100,276,49460,1,0,0:0:0:0:
148,256,49543,1,0,0:0:0:0:
200,252,49627,1,0,0:0:0:0:
252,264,49710,1,0,0:0:0:0:
288,296,49793,1,0,0:0:0:0:
340,308,49877,1,0,0:0:0:0:
392,296,49960,1,0,0:0:0:0:
424,248,50043,5,0,0:0:0:0:
200,128,50210,2,0,L|64:140,1,110
424,248,50543,1,0,0:0:0:0:
200,128,50710,2,0,L|64:140,1,110
424,248,51043,2,0,L|456:188,1,55
396,192,51210,2,0,L|364:132,1,55
448,80,51377,6,0,L|336:92,1,110
268,152,51627,2,0,L|380:140,1,110
296,96,51877,2,0,L|184:108,1,110
116,168,52127,2,0,L|228:156,1,110
136,112,52377,1,0,0:0:0:0:
376,112,52543,1,0,0:0:0:0:
136,112,52710,6,0,P|104:208|400:200,1,550
324,184,53627,1,0,0:0:0:0:
512,188,53710,1,0,0:0:0:0:
304,72,54043,5,0,0:0:0:0:
180,144,54210,1,0,0:0:0:0:
256,152,54293,2,0,L|368:160,1,110
296,236,54543,1,0,0:0:0:0:
404,292,54710,1,0,0:0:0:0:
296,328,54793,2,0,P|232:328|160:312,1,110
112,308,55043,1,0,0:0:0:0:
248,264,55210,1,0,0:0:0:0:
160,176,55377,6,0,P|228:148|284:152,1,110
352,208,55627,2,0,P|284:236|228:232,1,110
160,240,55877,1,0,0:0:0:0:
276,48,56043,2,0,L|312:104,3,55
456,120,56377,2,0,L|492:176,3,55
276,48,56710,5,0,0:0:0:0:
200,148,56877,1,0,0:0:0:0:
124,192,56960,2,0,L|256:196,1,110
320,196,57210,1,0,0:0:0:0:
204,316,57377,1,0,0:0:0:0:
128,276,57460,2,0,P|68:260|16:276,1,110
112,188,57710,2,0,P|172:204|224:188,1,110
292,120,58043,5,0,0:0:0:0:
140,120,58210,1,0,0:0:0:0:
132,96,58293,1,0,0:0:0:0:
372,120,58460,1,0,0:0:0:0:
380,96,58543,1,0,0:0:0:0:
144,192,58710,1,0,0:0:0:0:
216,192,58793,1,0,0:0:0:0:
288,192,58877,1,0,0:0:0:0:
360,192,58960,2,0,L|376:304,1,110
304,300,59210,1,0,0:0:0:0:
232,300,59293,1,0,0:0:0:0:
160,296,59377,5,0,0:0:0:0:
268,144,59543,1,0,0:0:0:0:
348,128,59627,2,0,L|460:136,1,110
380,200,59877,1,0,0:0:0:0:
216,104,60043,1,0,0:0:0:0:
216,104,60127,1,0,0:0:0:0:
464,64,60293,1,0,0:0:0:0:
464,64,60377,1,0,0:0:0:0:
216,104,60543,1,0,0:0:0:0:
216,104,60627,1,0,0:0:0:0:
160,120,60710,6,0,P|88:124|20:116,1,110
112,216,60960,2,0,P|184:212|252:220,1,110
296,232,61210,1,0,0:0:0:0:
152,348,61377,2,0,L|120:292,1,55
224,304,61543,2,0,L|256:360,1,55
336,340,61710,2,0,L|304:284,1,55
396,284,61876,2,0,L|428:340,1,55
340,288,62043,5,0,0:0:0:0:
260,232,62210,1,0,0:0:0:0:
192,176,62293,2,0,L|312:176,1,110
388,176,62543,1,0,0:0:0:0:
280,60,62710,1,0,0:0:0:0:
280,60,62793,1,0,0:0:0:0:
200,60,62877,1,0,0:0:0:0:
200,60,62960,1,0,0:0:0:0:
124,56,63043,2,0,L|240:56,1,110
360,92,63377,5,0,0:0:0:0:
152,292,63627,1,0,0:0:0:0:
400,192,63877,1,0,0:0:0:0:
112,192,64043,1,0,0:0:0:0:
240,188,64210,2,0,L|184:188,2,55
160,108,64543,1,0,0:0:0:0:
300,72,64710,6,0,L|360:72,1,55
80,192,65043,5,0,0:0:0:0:
128,192,65127,1,0,0:0:0:0:
80,192,65210,1,0,0:0:0:0:
168,264,65377,1,0,0:0:0:0:
252,296,65460,2,0,P|308:284|364:244,1,110
256,184,65710,2,0,L|208:152,2,55
492,152,66043,6,0,P|420:152|388:112,1,110
336,40,66293,2,0,P|408:40|440:80,1,110
364,124,66543,1,0,0:0:0:0:
260,180,66710,2,0,L|292:232,1,55
144,176,66877,2,0,L|112:124,1,55
260,180,67043,2,0,L|248:236,3,55
260,180,67377,5,0,0:0:0:0:
136,160,67543,1,0,0:0:0:0:
80,104,67627,2,0,L|204:104,1,110
272,100,67877,1,0,0:0:0:0:
440,180,68043,1,0,0:0:0:0:
356,224,68127,2,0,P|288:248|232:232,1,110
300,152,68377,2,0,P|368:128|424:144,1,110
256,48,68710,5,0,0:0:0:0:
360,72,68877,2,0,L|424:96,1,55
152,72,69127,2,0,L|88:96,1,55
352,192,69377,1,0,0:0:0:0:
280,192,69460,1,0,0:0:0:0:
208,192,69543,1,0,0:0:0:0:
136,192,69627,2,0,L|120:312,1,110
192,304,69877,1,0,0:0:0:0:
264,304,69960,1,0,0:0:0:0:
336,304,70043,5,0,0:0:0:0:
180,248,70210,2,0,P|108:240|176:148,1,220
264,112,70710,1,0,0:0:0:0:
180,140,70793,2,0,P|108:140|56:120,1,110
8,40,71043,2,0,P|80:40|132:60,1,110
176,304,71377,5,0,0:0:0:0:
332,248,71543,2,0,P|404:240|336:148,1,220
248,112,72043,1,0,0:0:0:0:
192,120,72127,1,0,0:0:0:0:
156,156,72210,1,0,0:0:0:0:
152,208,72293,1,0,0:0:0:0:
180,248,72377,1,0,0:0:0:0:
228,264,72460,1,0,0:0:0:0:
276,240,72543,1,0,0:0:0:0:
296,192,72627,1,0,0:0:0:0:
288,160,72710,5,0,0:0:0:0:
224,224,72877,1,0,0:0:0:0:
344,200,73043,1,0,0:0:0:0:
168,184,73210,1,0,0:0:0:0:
416,184,73377,1,0,0:0:0:0:
96,200,73543,1,0,0:0:0:0:
48,164,73627,1,0,0:0:0:0:
0,120,73710,2,0,L|32:120,3,27.5
108,120,73877,1,0,0:0:0:0:
192,120,73960,1,0,0:0:0:0:
276,120,74043,5,0,0:0:0:0:
168,244,74293,1,0,0:0:0:0:
368,260,74543,1,0,0:0:0:0:
368,260,74877,1,0,0:0:0:0:
128,256,75043,1,0,0:0:0:0:
268,200,75210,2,0,L|332:200,1,55
264,200,75377,6,0,B|116:196|24:52|24:52|411:41|472:66|472:66|500:118|400:180,1,880
260,100,78210,6,0,L|324:100,2,49.4999984893799
160,128,78544,1,0,0:0:0:0:
336,264,78710,2,0,L|444:212,1,98.9999969787599
176,120,79044,2,0,L|68:172,1,98.9999969787599
336,264,79377,6,0,P|384:236|388:204,1,74.2499977340699
404,176,79544,2,0,L|448:176,3,24.74999924469
352,136,79710,2,0,L|308:136,3,24.74999924469
404,96,79877,2,0,L|476:96,1,49.4999984893799
308,60,80044,2,0,P|232:52|120:68,1,148.49999546814
0,168,80377,2,0,P|76:176|188:160,1,148.49999546814
308,60,80710,5,0,0:0:0:0:
216,124,80877,2,0,L|272:124,2,49.4999984893799
376,188,81210,1,0,0:0:0:0:
200,196,81377,2,0,L|96:192,1,98.9999969787599
328,304,81710,2,0,L|224:300,1,98.9999969787599
448,264,82044,6,0,L|472:108,1,148.49999546814
284,216,82377,2,0,L|260:60,1,148.49999546814
344,48,82710,1,0,0:0:0:0:
32,216,82877,2,0,L|60:20,1,197.99999395752
200,116,83377,5,0,0:0:0:0:
344,204,83544,2,0,L|400:208,2,49.4999984893799
184,232,83877,1,0,0:0:0:0:
340,280,84044,1,0,0:0:0:0:
148,268,84210,2,0,P|72:256|80:120,1,197.99999395752
224,108,84710,6,0,L|320:112,1,74.2499977340699
364,112,84877,2,0,L|388:108,3,24.74999924469
304,172,85044,2,0,L|255:172,3,49.4999984893799
344,188,85377,2,0,B|428:192|428:192|348:192,1,148.49999546814
212,216,85710,2,0,B|128:212|128:212|208:212,1,148.49999546814
284,248,86044,5,0,0:0:0:0:
176,284,86210,2,0,L|120:288,2,49.4999984893799
348,304,86544,2,0,L|404:300,2,49.4999984893799
224,316,86877,1,0,0:0:0:0:
372,240,87044,2,0,L|476:224,1,98.9999969787599
332,172,87377,6,0,L|304:12,1,148.49999546814
104,168,87710,2,0,L|132:8,1,148.49999546814
52,24,88044,1,0,0:0:0:0:
320,216,88210,2,0,L|372:20,1,197.99999395752
280,40,88710,5,0,0:0:0:0:
356,200,88877,1,0,0:0:0:0:
396,200,88960,1,0,0:0:0:0:
372,288,89127,1,0,0:0:0:0:
408,292,89210,1,0,0:0:0:0:
320,348,89377,1,0,0:0:0:0:
288,344,89460,2,0,L|184:352,1,82.5000031471254
176,344,89710,1,0,0:0:0:0:
144,336,89793,1,0,0:0:0:0:
112,328,89877,1,0,0:0:0:0:
80,316,89960,1,0,0:0:0:0:
52,304,90043,6,0,L|116:232,1,82.5000031471254
152,240,90293,2,0,L|216:168,1,82.5000031471254,0|0,0:0|0:0,0:0:0:0:
252,176,90543,1,0,0:0:0:0:
352,88,90710,1,0,0:0:0:0:
312,104,90793,1,0,0:0:0:0:
296,140,90877,1,0,0:0:0:0:
308,180,90960,1,0,0:0:0:0:
344,200,91043,1,0,0:0:0:0:
376,192,91127,1,0,0:0:0:0:
412,204,91210,1,0,0:0:0:0:
424,240,91293,1,0,0:0:0:0:
408,276,91377,5,0,0:0:0:0:
304,336,91543,1,0,0:0:0:0:
260,336,91627,1,0,0:0:0:0:
176,256,91793,1,0,0:0:0:0:
132,256,91877,1,0,0:0:0:0:
60,176,92043,1,0,0:0:0:0:
112,176,92127,2,0,L|212:152,1,82.5000031471254
244,168,92377,2,0,L|344:144,1,82.5000031471254
428,72,92710,6,0,L|328:80,1,82.5000031471254
300,140,92960,2,0,L|400:132,1,82.5000031471254
348,196,93210,2,0,L|296:200,1,41.2500015735627
252,236,93377,2,0,L|352:244,1,82.5000031471254
380,304,93627,2,0,L|280:296,1,82.5000031471254
332,360,93877,2,0,L|384:364,1,41.2500015735627
280,300,94043,5,0,0:0:0:0:
464,284,94377,2,0,L|376:152,1,148.49999546814
452,160,94710,1,0,0:0:0:0:
200,124,95043,2,0,L|360:104,1,148.49999546814
296,68,95377,1,0,0:0:0:0:
436,72,95543,1,0,0:0:0:0:
232,148,95710,1,0,0:0:0:0:
372,152,95876,1,0,0:0:0:0:
156,232,96043,2,0,L|100:340,1,98.9999969787599
356,232,96377,2,0,L|412:340,1,98.9999969787599
156,232,96710,5,0,0:0:0:0:
112,208,96793,1,0,0:0:0:0:
108,160,96877,1,0,0:0:0:0:
152,136,96960,1,0,0:0:0:0:
200,144,97043,2,0,L|236:188,3,49.4999984893799
320,196,97377,2,0,L|356:240,3,49.4999984893799
440,228,97710,2,0,L|476:272,1,49.4999984893799
312,256,97877,2,0,L|276:212,1,49.4999984893799
440,228,98043,5,0,0:0:0:0:
436,176,98127,1,0,0:0:0:0:
400,136,98210,1,0,0:0:0:0:
352,120,98293,1,0,0:0:0:0:
300,128,98377,1,0,0:0:0:0:
272,164,98460,1,0,0:0:0:0:
264,208,98543,1,0,0:0:0:0:
288,248,98627,1,0,0:0:0:0:
332,268,98710,2,0,L|384:276,3,49.4999984893799
200,296,99043,1,0,0:0:0:0:
200,296,99377,6,0,P|264:288|328:308,1,110
384,224,99627,2,0,P|320:232|256:212,1,110
208,176,99877,1,0,0:0:0:0:
304,76,100043,1,0,0:0:0:0:
372,84,100127,1,0,0:0:0:0:
272,132,100293,1,0,0:0:0:0:
192,112,100377,2,0,P|120:92|68:100,1,110
24,200,100710,5,0,0:0:0:0:
152,228,100877,2,0,L|200:264,1,55
336,220,101127,2,0,L|384:256,1,55
252,208,101377,1,0,0:0:0:0:
224,180,101460,1,0,0:0:0:0:
192,148,101543,1,0,0:0:0:0:
164,112,101627,1,0,0:0:0:0:
88,272,101710,1,0,0:0:0:0:
116,244,101793,1,0,0:0:0:0:
148,212,101876,1,0,0:0:0:0:
176,176,101960,1,0,0:0:0:0:
320,84,102043,6,0,P|248:104|184:88,1,110
312,172,102293,2,0,P|384:152|448:168,1,110
492,192,102543,1,0,0:0:0:0:
404,272,102710,1,0,0:0:0:0:
312,300,102793,2,0,P|256:312|200:296,1,110
132,208,103043,2,0,P|188:196|244:212,1,110
368,120,103377,6,0,P|288:88|212:120,2,165
284,192,104043,1,0,0:0:0:0:
208,192,104127,1,0,0:0:0:0:
132,196,104210,1,0,0:0:0:0:
56,200,104293,2,0,L|72:324,1,110
144,308,104543,1,0,0:0:0:0:
216,308,104627,1,0,0:0:0:0:
288,304,104710,6,0,P|344:296|396:264,1,110
280,184,104960,2,0,P|224:192|172:224,1,110
260,240,105210,1,0,0:0:0:0:
144,160,105377,2,0,L|124:84,1,55
212,144,105543,2,0,L|192:68,1,55
280,124,105710,2,0,L|260:48,1,55
348,108,105876,2,0,L|328:32,1,55
416,92,106043,5,0,0:0:0:0:
316,180,106210,1,0,0:0:0:0:
384,220,106293,2,0,L|256:220,1,110
200,216,106543,1,0,0:0:0:0:
352,264,106710,2,0,P|420:280|376:328,1,110
364,320,106960,1,0,0:0:0:0:
304,332,107043,2,0,L|248:368,3,55
200,352,107377,5,0,0:0:0:0:
328,168,107543,2,0,L|468:184,1,110
56,148,107877,1,0,0:0:0:0:
312,108,108043,1,0,0:0:0:0:
80,188,108210,1,0,0:0:0:0:
312,108,108377,1,0,0:0:0:0:
196,156,108543,1,0,0:0:0:0:
196,156,108627,1,0,0:0:0:0:
264,172,108710,6,0,L|376:172,1,110
460,248,108960,2,0,L|348:248,1,110
204,280,109210,1,0,0:0:0:0:
204,280,109543,2,0,L|149:280,2,55
72,280,109877,1,0,0:0:0:0:
348,176,110043,5,0,0:0:0:0:
164,208,110293,1,0,0:0:0:0:
367,172,110543,1,0,0:0:0:0:
146,211,110793,1,0,0:0:0:0:
388,168,111043,1,0,0:0:0:0:
124,216,111210,1,0,0:0:0:0:
224,196,111377,6,0,L|308:208,1,55
200,268,111543,2,0,L|68:276,1,110
136,292,111793,1,0,0:0:0:0:
184,308,111877,1,0,0:0:0:0:
232,328,111960,1,0,0:0:0:0:
284,344,112043,2,0,L|224:344,1,55
304,340,112210,2,0,L|364:340,2,55
496,192,112710,5,0,0:0:0:0:
496,192,112960,1,0,0:0:0:0:
256,192,113210,1,0,0:0:0:0:
256,192,113460,1,0,0:0:0:0:
16,192,113710,1,0,0:0:0:0:
16,192,113876,1,0,0:0:0:0:
128,128,114043,5,0,0:0:0:0:
168,156,114127,1,0,0:0:0:0:
208,184,114210,1,0,0:0:0:0:
248,212,114294,1,0,0:0:0:0:
288,240,114377,2,0,L|356:240,3,55
292,292,114710,2,0,L|224:292,1,55
156,324,114877,2,0,L|88:324,1,55
8,320,115043,2,0,L|28:344,7,27.5
44,224,115377,6,0,L|156:224,1,110
256,176,115627,2,0,L|368:176,1,110
468,160,115877,2,0,L|356:160,1,110
256,208,116127,2,0,L|144:208,1,110
44,224,116377,1,0,0:0:0:0:
208,224,116543,1,0,0:0:0:0:
128,120,116710,6,0,L|88:116,3,27.5
160,104,116877,2,0,L|200:108,3,27.5
128,120,117043,1,0,0:0:0:0:
164,144,117127,1,0,0:0:0:0:
204,168,117210,1,0,0:0:0:0:
240,192,117294,1,0,0:0:0:0:
280,216,117377,2,0,L|160:216,1,110
108,256,117627,1,0,0:0:0:0:
168,304,117710,2,0,L|288:304,1,110
416,260,118043,5,0,0:0:0:0:
416,260,118293,1,0,0:0:0:0:
96,124,118543,1,0,0:0:0:0:
96,124,118793,1,0,0:0:0:0:
416,260,119043,1,0,0:0:0:0:
96,124,119210,1,0,0:0:0:0:
232,128,119377,5,0,0:0:0:0:
256,172,119460,1,0,0:0:0:0:
244,216,119543,1,0,0:0:0:0:
200,236,119627,1,0,0:0:0:0:
152,216,119710,2,0,L|112:176,3,55
180,308,120043,2,0,L|140:268,3,55
240,368,120377,2,0,L|352:376,1,110
