osu file format v14

[General]
AudioFilename: 01 - Acceleration.mp3
AudioLeadIn: 0
PreviewTime: 21702
Countdown: 0
SampleSet: Soft
StackLeniency: 0.7
Mode: 0
LetterboxInBreaks: 0
WidescreenStoryboard: 0

[Editor]
DistanceSpacing: 0.7
BeatDivisor: 4
GridSize: 4
TimelineZoom: 2.1

[Metadata]
Title:Acceleration
TitleUnicode:Acceleration
Artist:REDALiCE
ArtistUnicode:REDALiCE
Creator:Leader
Version:MASTER
Source:HALFPIPE TOKYO
Tags:Asphyxia maimai SEGA
BeatmapID:481685
BeatmapSetID:203920

[Difficulty]
HPDrainRate:7
CircleSize:4
OverallDifficulty:8.5
ApproachRate:9.3
SliderMultiplier:1.8
SliderTickRate:1

[Events]
//Background and Video events
0,0,"wind.jpg",0,0
//Break Periods
//Storyboard Layer 0 (Background)
//Storyboard Layer 1 (Fail)
//Storyboard Layer 2 (Pass)
//Storyboard Layer 3 (Foreground)
//Storyboard Sound Samples

[TimingPoints]
36,333.333333333333,4,2,1,75,1,0
36,-166.666666666667,4,2,1,75,0,0
10702,-125,4,2,1,75,0,0
22702,-100,4,2,1,75,0,1
31702,-100,4,2,1,75,0,0
33369,-100,4,2,1,75,0,1
44035,-100,4,2,1,75,0,0
57369,-100,4,2,1,75,0,1
66369,-100,4,2,1,75,0,0
68035,-100,4,2,1,75,0,1
78535,-100,4,1,1,75,0,1
78702,-100,4,2,1,75,0,1
80035,-100,4,2,1,75,0,0

[Colours]
Combo1 : 17,254,176
Combo2 : 173,255,95
Combo3 : 255,88,100
Combo4 : 255,94,55

[HitObjects]
96,168,36,6,0,L|112:56,1,107.999996704102,4|0,1:0|0:0,0:0:0:0:
140,252,535,1,0,0:0:0:0:
56,276,702,1,0,0:0:0:0:
56,276,1035,2,0,P|76:324|88:336,1,53.9999983520508,2|0,0:0|0:0,0:0:0:0:
168,356,1369,6,0,L|288:348,1,107.999996704102,2|0,0:0|0:0,0:0:0:0:
348,312,1869,1,0,0:0:0:0:
348,312,2035,2,0,P|360:264|340:204,1,107.999996704102,2|0,0:0|0:0,0:0:0:0:
332,200,2702,6,0,L|224:192,1,107.999996704102,4|0,0:0|0:0,0:0:0:0:
176,100,3202,2,0,L|284:108,1,107.999996704102,2|0,0:0|0:0,0:0:0:0:
92,88,3702,2,0,P|92:116|108:156,1,53.9999983520508,4|0,0:0|0:0,0:0:0:0:
148,216,4035,6,0,L|128:332,1,107.999996704102,2|2,0:0|0:0,0:0:0:0:
212,368,4535,2,0,L|272:352,1,53.9999983520508,2|0,0:0|0:0,0:0:0:0:
312,284,4869,1,0,0:0:0:0:
131,322,5035,2,0,L|71:306,1,53.9999983520508,2|0,0:0|0:0,0:0:0:0:
40,224,5369,6,0,P|96:220|140:172,1,107.999996704102,4|0,0:0|0:0,0:0:0:0:
96,104,5869,2,0,P|40:108|-4:156,1,107.999996704102,2|0,0:0|0:0,0:0:0:0:
208,216,6369,2,0,L|268:208,1,53.9999983520508,2|2,0:0|0:0,0:0:0:0:
348,196,6702,6,0,P|400:184|440:144,1,107.999996704102,4|2,0:0|0:0,0:0:0:0:
496,228,7202,1,2,0:0:0:0:
496,228,7369,2,0,L|476:336,1,107.999996704102,4|0,0:0|0:0,0:0:0:0:
472,348,8035,6,0,P|432:372|364:368,1,107.999996704102,4|0,0:0|0:0,0:0:0:0:
292,336,8535,2,0,P|238:333|192:359,1,107.999996704102,2|0,0:0|0:0,0:0:0:0:
112,368,9035,2,0,L|44:360,1,53.9999983520508,4|0,0:0|0:0,0:0:0:0:
173,270,9369,6,0,L|120:264,1,53.9999983520508,2|0,0:0|0:0,0:0:0:0:
40,216,9702,1,2,0:0:0:0:
124,172,9869,2,0,L|244:160,2,107.999996704102,2|0|0,0:0|0:0|0:0,0:0:0:0:
56,120,10702,6,0,P|48:88|48:48,1,72,4|0,1:0|0:0,0:0:0:0:
204,260,11035,2,0,P|204:295|195:330,1,72,8|0,0:2|0:0,0:0:0:0:
40,216,11369,2,0,L|112:200,1,72,8|0,0:0|0:0,0:0:0:0:
368,308,11702,2,0,L|280:296,1,72,8|8,0:0|0:0,0:0:0:0:
428,372,12035,6,0,P|452:304|416:232,1,144,8|8,0:0|0:0,0:0:0:0:
244,184,12535,1,0,0:0:0:0:
177,241,12702,2,0,P|169:280|177:316,1,72,8|0,0:0|0:0,0:0:0:0:
244,184,13035,2,0,P|216:161|182:149,1,72,8|0,0:0|0:0,0:0:0:0:
80,128,13369,6,0,P|152:124|204:56,1,144,8|8,0:0|1:2,0:0:0:0:
116,48,13869,1,8,0:0:0:0:
24,184,14035,2,0,P|28:224|40:268,1,72,8|0,1:2|0:0,0:0:0:0:
196,356,14369,2,0,P|204:320|207:285,1,72,8|0,1:2|0:0,0:0:0:0:
352,336,14702,6,0,P|428:344|484:300,1,144,8|0,1:2|0:0,0:0:0:0:
404,264,15202,1,8,1:2:0:0:
267,363,15369,2,0,L|187:355,1,72
48,260,15702,2,0,L|119:253,1,72,8|8,1:2|0:0,0:0:0:0:
192,196,16035,6,0,P|220:144|200:64,1,144,8|0,1:2|1:0,0:0:0:0:
128,128,16535,1,8,0:0:0:0:
264,256,16702,2,0,L|340:244,1,72,8|0,1:2|0:0,0:0:0:0:
376,332,17035,2,0,L|452:320,1,72,8|8,1:2|0:0,0:0:0:0:
488,232,17369,6,0,P|496:192|488:156,1,72,8|0,1:2|0:0,0:0:0:0:
272,112,17702,2,0,P|266:147|274:182,1,72,0|8,1:2|1:2,0:0:0:0:
420,72,18035,2,0,L|340:64,1,72
336,264,18369,2,0,L|416:272,1,72,8|8,1:2|0:0,0:0:0:0:
491,327,18702,5,4,1:2:0:0:
470,347,18785,1,0,0:0:0:0:
446,363,18868,1,0,0:0:0:0:
419,372,18951,1,0,0:0:0:0:
391,376,19035,1,0,0:0:0:0:
362,372,19118,1,0,0:0:0:0:
335,363,19201,1,4,1:2:0:0:
311,349,19285,1,0,0:0:0:0:
284,338,19368,5,0,0:0:0:0:
256,333,19451,1,0,0:0:0:0:
227,335,19534,1,0,0:0:0:0:
199,343,19618,1,0,0:0:0:0:
174,357,19701,1,4,1:2:0:0:
153,376,19784,1,0,0:0:0:0:
124,380,19869,6,0,L|80:372,1,36,0|0,1:2|0:0,0:0:0:0:
16,316,20035,2,0,L|8:280,3,36,4|0|2|0,1:2|0:1|0:1|0:1,0:1:0:0:
184,232,20369,2,0,L|192:196,3,36,4|0|2|0,1:2|0:1|0:1|0:1,0:1:0:0:
16,168,20702,2,0,L|8:132,3,36,4|0|2|0,1:2|0:1|0:1|0:1,0:1:0:0:
88,44,21035,5,4,1:2:0:0:
380,156,21202,1,0,0:0:0:0:
196,216,21369,5,4,1:0:0:0:
208,200,22369,5,4,0:0:0:0:
220,180,22702,6,0,P|228:132|212:84,1,90,4|2,1:0|0:0,0:0:0:0:
72,148,23035,2,0,P|64:196|80:244,1,90,0|2,1:0|0:0,0:0:0:0:
260,328,23369,2,0,L|356:316,1,90,0|2,1:0|0:0,0:0:0:0:
484,212,23702,1,0,1:0:0:0:
472,344,23869,1,2,0:0:0:0:
364,188,24035,6,0,P|360:140|372:92,1,90,0|0,1:0|0:0,0:0:0:0:
456,36,24369,1,0,1:0:0:0:
256,96,24535,2,0,B|164:68|164:128|72:88,2,180,2|2|0,0:1|1:0|0:0,0:0:0:0:
388,260,25369,6,0,L|408:348,1,90,4|2,1:0|0:0,0:0:0:0:
324,196,25702,2,0,P|372:176|420:180,1,90,0|2,1:0|0:0,0:0:0:0:
288,280,26035,1,0,1:0:0:0:
180,352,26202,1,2,0:0:0:0:
48,292,26369,2,0,P|36:252|36:200,1,90,0|2,1:0|0:0,0:0:0:0:
128,120,26702,6,0,P|216:124|280:60,1,180,2|0,1:0|1:0,0:0:0:0:
180,32,27202,1,2,0:1:0:0:
44,80,27369,1,0,0:0:0:0:
44,80,27535,2,0,P|37:130|48:180,1,90,2|2,0:1|1:0,0:0:0:0:
180,352,27869,1,2,0:0:0:0:
288,212,28035,6,0,L|392:196,1,90,4|2,1:0|0:0,0:0:0:0:
492,356,28369,2,0,L|396:336,1,90,0|2,1:0|0:0,0:0:0:0:
204,256,28702,2,0,P|196:212|204:152,1,90,0|2,1:0|0:0,0:0:0:0:
456,48,29035,2,0,P|464:92|460:136,1,90,0|2,1:0|0:0,0:0:0:0:
204,256,29369,6,0,P|160:268|124:308,1,90,0|0,1:0|0:0,0:0:0:0:
208,344,29702,1,0,1:0:0:0:
32,276,29869,2,0,L|0:96,2,180,2|2|2,0:1|1:0|0:0,0:0:0:0:
204,256,30702,5,0,1:0:0:0:
156,372,30869,1,2,0:0:0:0:
460,328,31035,1,0,1:0:0:0:
328,232,31202,1,2,0:0:0:0:
476,180,31369,2,0,L|492:92,1,90,0|2,1:0|0:0,0:0:0:0:
356,36,31702,6,0,L|344:96,1,45,4|0,1:2|0:0,0:0:0:0:
184,200,31869,2,0,L|175:155,1,45,2|0,1:0|0:0,0:0:0:0:
326,357,32035,2,0,P|354:301|338:221,1,135,4|0,1:2|1:0,0:0:0:0:
264,88,32369,2,0,L|256:144,1,45,2|0,1:0|1:0,1:0:0:0:
184,200,32535,2,0,L|76:192,1,90,2|0,0:1|0:1,0:1:0:0:
0,152,32869,5,4,1:2:0:0:
52,284,33035,1,2,1:0:0:0:
52,284,33119,1,0,0:0:0:0:
52,284,33202,1,4,0:0:0:0:
52,284,33285,1,0,0:0:0:0:
52,284,33369,5,4,1:0:0:0:
160,336,33535,1,2,0:0:0:0:
344,240,33702,1,8,1:0:0:0:
264,312,33868,1,2,0:0:0:0:
424,168,34035,5,0,1:0:0:0:
472,272,34202,1,2,0:0:0:0:
224,200,34369,1,8,1:0:0:0:
316,132,34535,1,2,0:0:0:0:
361,356,34702,5,0,1:0:0:0:
264,312,34869,1,2,0:0:0:0:
36,368,35035,1,10,1:0:0:0:
136,284,35202,2,0,B|104:196|164:196|128:100,2,180,2|2|2,0:1|1:0|0:0,0:0:0:0:
272,344,36035,6,0,L|368:332,1,90,0|2,1:0|0:0,0:0:0:0:
384,136,36369,2,0,L|288:148,1,90,8|2,1:0|0:0,0:0:0:0:
444,384,36702,2,0,P|457:341|452:296,1,90,0|2,1:0|0:0,0:0:0:0:
212,96,37035,2,0,P|198:138|200:184,1,90,8|0,1:0|0:0,0:0:0:0:
272,344,37369,5,2,1:0:0:0:
140,352,37535,1,2,0:0:0:0:
24,288,37702,1,10,1:0:0:0:
140,352,37869,2,0,P|152:276|96:192,1,180,2|2,0:1|0:1,0:0:0:0:
36,84,38369,2,0,L|144:68,1,90,10|2,1:0|0:0,0:0:0:0:
476,196,38702,6,0,L|360:184,1,90,4|2,1:0|0:0,0:0:0:0:
164,220,39035,1,8,1:0:0:0:
248,68,39202,1,2,0:0:0:0:
312,264,39369,2,0,P|319:309|312:360,1,90,0|2,1:0|0:0,0:0:0:0:
244,192,39702,2,0,P|288:176|340:172,1,90,8|2,1:0|0:0,0:0:0:0:
16,292,40035,5,0,1:0:0:0:
16,292,40202,1,2,0:0:0:0:
164,220,40369,1,10,1:0:0:0:
64,188,40535,2,0,L|32:8,2,180,2|2|2,0:1|1:0|0:0,0:0:0:0:
140,324,41369,5,4,1:2:0:0:
256,356,41535,1,2,1:0:0:0:
444,248,41702,5,8,1:0:0:0:
328,280,41868,1,2,1:0:0:0:
132,168,42035,5,4,1:2:0:0:
248,200,42201,1,2,1:0:0:0:
444,248,42369,6,0,L|432:300,1,45,8|2,1:0|0:1,0:0:0:0:
296,80,42535,2,0,L|280:28,1,45,4|0,1:2|0:0,0:0:0:0:
340,168,42702,1,4,1:0:0:0:
432,140,42869,1,0,1:0:0:0:
248,200,43035,1,0,1:0:0:0:
416,352,43202,5,4,1:2:0:0:
416,352,43535,1,4,1:2:0:0:
171,329,43702,1,2,1:0:0:0:
171,329,44035,5,4,1:0:0:0:
188,328,44118,1,0,0:0:0:0:
206,328,44201,1,0,0:0:0:0:
224,328,44285,1,0,0:0:0:0:
243,328,44368,1,8,0:0:0:0:
261,328,44451,1,0,0:0:0:0:
279,328,44535,1,0,0:0:0:0:
297,328,44618,1,0,0:0:0:0:
320,328,44702,5,0,0:0:0:0:
346,328,44785,1,0,0:0:0:0:
372,320,44868,1,8,0:0:0:0:
395,307,44952,1,0,0:0:0:0:
415,289,45035,1,8,0:0:0:0:
430,266,45118,1,0,0:0:0:0:
439,241,45202,1,0,0:0:0:0:
442,214,45285,1,0,0:0:0:0:
439,187,45369,6,0,L|430:126,3,45,4|0|0|0,0:0|0:0|0:0|0:0,0:0:0:0:
380,56,45702,2,0,L|366:-8,3,45,0|0|4|0,0:0|0:0|0:0|0:0,0:0:0:0:
324,168,46035,2,0,L|310:108,3,45
240,72,46369,2,0,L|226:12,3,45,4|0|0|0,0:0|0:0|0:0|0:0,0:0:0:0:
232,152,46702,5,4,0:0:0:0:
210,159,46785,1,0,0:0:0:0:
188,163,46868,1,0,0:0:0:0:
166,162,46952,1,0,0:0:0:0:
144,157,47035,5,8,0:0:0:0:
123,148,47118,1,0,0:0:0:0:
105,135,47202,1,0,1:0:0:0:
89,119,47285,1,0,0:0:0:0:
76,100,47369,2,0,L|60:48,3,45,4|0|0|0,0:0|0:0|0:0|0:0,0:0:0:0:
32,184,47702,2,0,L|18:227,3,45,8|0|0|0,0:0|0:0|1:0|0:0,0:0:0:0:
72,288,48035,5,4,0:0:0:0:
97,279,48118,1,0,0:0:0:0:
124,277,48201,1,0,1:0:0:0:
151,281,48285,1,0,0:0:0:0:
176,291,48368,1,8,0:0:0:0:
198,306,48451,1,0,0:0:0:0:
216,328,48535,1,0,1:0:0:0:
236,345,48618,1,0,0:0:0:0:
260,357,48701,5,4,0:0:0:0:
284,368,48785,1,0,0:0:0:0:
312,369,48868,1,8,1:2:0:0:
339,367,48951,1,0,0:0:0:0:
365,360,49035,1,4,0:0:0:0:
390,348,49118,1,0,0:0:0:0:
411,332,49202,1,0,1:0:0:0:
428,311,49285,1,0,0:0:0:0:
439,286,49369,6,0,L|492:276,3,45,12|0|0|0,0:0|0:0|1:0|0:0,0:0:0:0:
336,208,49702,2,0,L|283:197,3,45,10|0|0|0,0:1|0:0|1:0|0:0,0:0:0:0:
460,152,50035,2,0,L|512:141,3,45,2|0|0|2,0:1|0:0|1:0|0:1,0:0:0:0:
356,73,50368,2,0,L|303:62,3,45,8|2|0|0,0:1|0:1|1:0|0:0,0:0:0:0:
280,152,50702,5,12,0:0:0:0:
250,163,50785,1,0,0:0:0:0:
219,168,50868,1,0,1:0:0:0:
188,164,50952,1,0,0:0:0:0:
159,152,51035,5,10,0:1:0:0:
134,133,51118,1,0,0:0:0:0:
115,108,51202,1,0,1:0:0:0:
104,80,51285,1,0,0:0:0:0:
104,48,51369,2,0,L|112:4,3,45,12|0|0|2,0:0|0:0|0:0|0:1,0:0:0:0:
16,92,51702,2,0,L|0:44,3,45,8|0|2|0,0:1|0:1|0:1|0:0,0:0:0:0:
48,172,52035,5,12,1:2:0:0:
60,200,52118,1,0,1:0:0:0:
65,231,52201,1,0,1:0:0:0:
61,262,52285,1,0,1:0:0:0:
28,344,52369,5,10,1:0:0:0:
28,344,52452,1,0,1:0:0:0:
28,344,52535,1,0,1:0:0:0:
28,344,52619,1,2,1:0:0:0:
152,304,52702,5,8,1:2:0:0:
152,304,52785,1,0,1:0:0:0:
152,304,52868,1,0,1:0:0:0:
152,304,52952,1,2,1:0:0:0:
272,336,53035,5,8,1:0:0:0:
272,336,53118,1,0,1:0:0:0:
272,336,53202,1,2,1:0:0:0:
272,336,53285,1,0,1:0:0:0:
388,360,53369,6,0,L|432:372,3,45,4|0|0|0,1:2|1:0|1:0|1:0,0:0:0:0:
288,228,53702,2,0,L|240:236,3,45,12|0|8|0,1:2|1:0|1:0|1:0,0:0:0:0:
420,132,54035,2,0,L|468:140,3,45,4|0|8|0,1:2|1:0|1:0|0:0,0:0:0:0:
312,120,54369,5,12,1:0:0:0:
160,176,54535,5,4,3:0:0:0:
160,176,54619,1,0,2:0:0:0:
160,176,54702,2,0,L|24:160,2,135,4|4|4,1:0|1:2|0:0,0:0:0:0:
344,344,55369,2,0,L|480:328,2,135,4|4|4,1:0|1:2|0:0,0:0:0:0:
256,192,56035,5,4,1:0:0:0:
256,192,57035,5,4,0:0:0:0:
256,192,57369,6,0,L|272:96,1,90,4|2,1:0|0:1,0:0:0:0:
112,32,57702,2,0,L|97:120,1,90,0|2,1:0|0:1,0:0:0:0:
256,296,58035,2,0,B|300:288|300:288|336:256,1,90,2|0,1:0|0:0,0:0:0:0:
248,92,58369,2,0,B|204:100|204:100|168:132,1,90,2|0,1:0|0:0,0:0:0:0:
336,184,58702,6,0,L|428:176,1,90,2|0,1:0|0:0,0:0:0:0:
496,96,59035,1,0,1:0:0:0:
256,296,59202,2,0,B|168:264|168:328|64:288,2,180,2|2|0,1:0|0:1|0:0,0:0:0:0:
432,360,60035,6,0,L|444:264,1,90,4|2,1:2|0:1,0:0:0:0:
312,76,60369,2,0,L|296:168,1,90,4|2,1:2|0:1,0:0:0:0:
28,336,60702,2,0,P|12:288|20:244,1,90,2|0,1:0|0:0,0:0:0:0:
188,160,61035,2,0,P|204:208|196:252,1,90,2|2,1:0|0:1,0:0:0:0:
128,96,61369,6,0,P|172:80|220:80,1,90,4|2,1:2|0:1,0:0:0:0:
198,246,61702,1,2,1:0:0:0:
56,156,61869,2,0,P|41:110|44:40,1,90,4|0,1:2|0:0,0:0:0:0:
198,246,62202,1,2,1:0:0:0:
198,246,62285,1,0,0:0:0:0:
198,246,62369,2,0,P|195:290|181:333,1,90,4|0,1:2|0:1,0:0:0:0:
72,376,62702,5,4,1:2:0:0:
181,333,62869,1,2,0:1:0:0:
288,372,63035,2,0,L|380:360,1,90,0|2,1:0|0:1,0:0:0:0:
488,140,63369,5,2,1:0:0:0:
379,97,63536,1,0,0:0:0:0:
272,136,63702,2,0,L|180:124,1,90,2|0,1:0|0:0,0:0:0:0:
0,248,64035,6,0,P|44:232|92:232,1,90,2|0,1:0|0:0,0:0:0:0:
308,280,64369,1,2,1:0:0:0:
172,356,64535,2,0,B|140:272|204:272|168:180,2,180,2|2|0,1:0|0:1|0:0,0:0:0:0:
420,368,65369,6,0,L|512:360,1,90,4|2,1:2|0:1,0:0:0:0:
348,264,65702,2,0,L|256:256,1,90,4|2,1:2|0:1,0:0:0:0:
408,160,66035,2,0,L|500:152,1,90,2|0,1:0|0:0,0:0:0:0:
256,68,66369,5,4,1:2:0:0:
96,140,66535,1,2,1:0:0:0:
136,24,66702,1,4,1:2:0:0:
220,184,66869,1,2,1:0:0:0:
212,212,66952,1,0,1:0:0:0:
204,240,67035,1,4,1:2:0:0:
168,376,67202,1,2,1:0:0:0:
92,280,67369,1,0,1:0:0:0:
276,324,67535,5,4,1:2:0:0:
388,280,67702,1,2,1:0:0:0:
388,280,67785,1,0,0:0:0:0:
388,280,67869,1,4,0:0:0:0:
388,280,67952,1,0,0:0:0:0:
388,280,68035,5,6,1:0:0:0:
460,364,68202,1,2,0:0:0:0:
136,324,68369,1,8,1:0:0:0:
244,244,68535,1,2,0:1:0:0:
248,360,68702,5,2,1:0:0:0:
28,272,68869,1,2,0:0:0:0:
232,140,69035,5,10,1:0:0:0:
144,196,69202,1,2,0:0:0:0:
16,104,69369,5,2,1:0:0:0:
152,36,69535,1,2,0:0:0:0:
360,184,69702,1,10,1:0:0:0:
264,52,69869,2,0,B|352:28|352:84|456:48,2,180,2|2|2,0:1|0:1|0:0,0:0:0:0:
136,116,70702,6,0,L|120:28,1,90,6|2,1:0|0:0,0:0:0:0:
88,208,71035,2,0,L|0:224,1,90,8|2,1:0|0:1,0:0:0:0:
172,272,71369,2,0,L|188:360,1,90,2|2,1:0|0:0,0:0:0:0:
224,184,71702,2,0,L|312:168,1,90,10|2,1:0|0:1,0:0:0:0:
488,140,72035,5,6,1:0:0:0:
380,56,72202,1,2,0:0:0:0:
424,232,72369,1,8,1:0:0:0:
424,232,72535,2,0,P|436:276|428:324,1,90,2|0,0:1|1:0,0:0:0:0:
256,376,72869,1,2,0:1:0:0:
96,320,73035,2,0,P|84:276|92:228,1,90,10|2,1:0|1:0,0:0:0:0:
232,140,73369,6,0,L|332:128,1,90,6|2,1:0|0:0,0:0:0:0:
472,336,73702,2,0,L|368:320,1,90,8|2,1:0|0:0,0:0:0:0:
152,196,74035,2,0,P|140:152|144:96,1,90,2|2,1:0|0:0,0:0:0:0:
256,272,74369,2,0,P|257:316|245:360,1,90,10|2,1:0|1:0,0:0:0:0:
52,280,74702,5,2,1:0:0:0:
408,256,74869,1,2,0:0:0:0:
348,352,75035,1,10,1:0:0:0:
152,196,75202,2,0,B|120:112|180:112|152:12,2,180,2|2|2,0:1|0:1|0:0,0:0:0:0:
256,356,76035,5,4,1:2:0:0:
72,284,76202,1,2,0:1:0:0:
228,144,76369,1,8,1:0:0:0:
148,372,76535,5,2,0:1:0:0:
112,192,76702,1,4,1:2:0:0:
300,264,76869,1,2,0:1:0:0:
72,284,77035,5,8,1:0:0:0:
400,224,77202,1,10,1:0:0:0:
232,332,77369,2,0,P|212:276|236:196,1,135,6|0,1:0|0:0,0:0:0:0:
304,148,77702,2,0,L|396:136,1,90,10|4,1:0|1:2,0:0:0:0:
393,136,78202,5,4,1:2:0:0:
472,296,78369,1,10,1:0:0:0:
340,356,78535,2,0,L|352:380,3,22.5
280,296,78702,6,0,P|231:293|168:312,1,90,6|0,1:0|0:0,0:0:0:0:
12,324,79035,1,10,1:0:0:0:
96,368,79202,2,0,P|108:324|108:268,1,90,4|0,0:0|0:0,0:0:0:0:
48,116,79535,5,4,1:2:0:0:
176,200,79702,2,0,P|228:200|280:188,1,90,10|2,1:0|0:0,0:0:0:0:
452,100,80035,5,4,1:0:0:0:
